#TITLE:in the Sky;
#SUBTITLE:;
#ARTIST:Ryu;
#TITLETRANSLIT:;
#SUBTITLETRANSLIT:;
#ARTISTTRANSLIT:;
#CREDIT:;
#BANNER:bn.PNG;
#BACKGROUND:bg.PNG;
#LYRICSPATH:;
#CDTITLE:;
#MUSIC:in the Sky.mp3;
#OFFSET:-1.760;
#SAMPLESTART:95.100;
#SAMPLELENGTH:12.000;
#SELECTABLE:YES;
#BPMS:0.000=180.000,69.000=90.000,85.000=180.000,214.000=90.000,230.500=180.000;
#STOPS:36.000=1.000
,117.000=1.000
,214.000=2.333
,230.500=0.840
;
#BGCHANGES:;

//---------------dance-single - ----------------
#NOTES:
     dance-single:
     :
     Hard:
     9:
     0.579,0.934,0.293,0.432,0.126: // measure 1
0000
0000
0000
0000
,  // measure 2
1000
0200
0000
1000
0000
1000
0000
1000
,  // measure 3
0000
1000
0300
1000
0000
0100
0000
0010
,  // measure 4
0200
0001
0000
0001
0000
0001
0000
0001
,  // measure 5
0000
0301
0000
0101
0000
1100
0000
0010
,  // measure 6
1000
0001
1000
0000
0010
1000
0010
0000
,  // measure 7
0001
0100
0001
0000
0001
1000
0010
0000
,  // measure 8
0001
0010
0100
0000
1000
0100
0010
0000
,  // measure 9
0001
1000
0010
1000
0001
0100
1000
0100
,  // measure 10
0001
0000
0000
0000
0001
0000
0000
1000
0000
1000
0100
0000
0010
0000
1000
0000
,  // measure 11
0010
0000
1000
0000
0001
0000
0000
0001
0000
0001
1000
0000
0001
0000
0100
0000
,  // measure 12
0010
0000
1000
0000
0010
0000
0000
0010
0000
0010
0100
0000
0010
0000
1000
0000
,  // measure 13
0001
0000
0100
0000
1000
0000
0000
1000
0000
1000
0100
0000
1000
0000
0100
0000
,  // measure 14
0010
0000
0001
0000
0010
0000
0000
0001
0000
0001
0100
0000
0010
0000
1000
0000
,  // measure 15
0001
0000
0100
0000
0001
0100
0000
0010
0000
0010
0100
0000
0001
0000
1000
0000
,  // measure 16
0010
0000
1000
0000
0001
0000
0000
0001
0000
0001
1000
0000
0001
0000
0100
0000
,  // measure 17
0010
0000
1000
0000
0010
0000
0000
0010
0000
0010
1000
0000
0010
0000
1000
0000
,  // measure 18
0001
0000
1000
0000
0010
0100
1000
0001
1000
0000
0000
0000
0001
1000
0010
1000
,  // measure 19
0001
0000
0000
0000
1000
0100
0010
0001
0010
0000
0000
0000
0001
0100
0010
1000
,  // measure 20
0000
0002
0203
0320
,  // measure 21
0230
0302
0203
0000
0302
0203
0002
0000
,  // measure 22
0300
0000
1003
0100
0001
1000
0001
0000
,  // measure 23
0001
0000
0001
0100
0010
1000
0001
0000
,  // measure 24
0010
0000
0001
1000
0001
0100
0001
0000
,  // measure 25
1000
0000
0001
1000
0001
1000
0001
1000
,  // measure 26
0001
1000
0002
0000
0000
0000
0203
0000
,  // measure 27
0000
0320
0000
2030
,  // measure 28
3200
2300
0000
3200
,  // measure 29
2300
3200
0000
0000
,  // measure 30
0000
0000
0300
0000
0001
1000
0001
1000
,  // measure 31
0000
1000
0000
1000
0100
0010
0001
0010
,  // measure 32
0000
0001
0000
0010
0100
0010
0100
0010
,  // measure 33
0000
0100
0000
0010
0200
0000
0310
0000
,  // measure 34
2000
0000
3001
0000
1000
0001
1000
0002
,  // measure 35
0000
1003
0000
1000
0100
1000
0100
2000
,  // measure 36
0000
3100
0000
0010
0001
0010
0001
0020
,  // measure 37
0000
0031
0000
0100
0002
0000
0103
0000
,  // measure 38
0020
0000
0130
0000
0001
1000
0001
2000
,  // measure 39
0000
3001
0000
0010
1000
0010
1000
0020
,  // measure 40
0000
1030
0000
1000
0100
0010
0001
0020
,  // measure 41
0000
0031
0000
0010
0110
0000
0110
0000
,  // measure 42
1001
0000
1001
0000
0001
0100
0001
0200
,  // measure 43
0000
0310
0000
0001
0010
0100
1000
0200
,  // measure 44
0000
1300
0000
1000
0100
0010
0001
0020
,  // measure 45
0000
0031
0000
0010
0011
0000
1100
0000
,  // measure 46
0010
0000
0100
0000
0001
1000
0000
1100
,  // measure 47
0000
0010
0000
0011
0000
0100
0000
0110
,  // measure 48
0000
1000
0000
1001
0000
0100
0000
1100
,  // measure 49
0000
0010
0000
0011
0000
0001
1000
0001
,  // measure 50
1000
0001
1000
0010
1000
0001
0000
0100
,  // measure 51
0000
1000
0000
0100
0000
0010
0000
0001
,  // measure 52
0000
0100
0000
1000
0000
0100
0000
0010
,  // measure 53
0000
0001
0000
0100
0000
0101
0000
1100
,  // measure 54
0000
0011
0000
0110
0000
0001
0010
0100
,  // measure 55
1000
0000
0100
0000
0010
0000
0001
0010
0100
1000
0020
0000
0032
0000
0023
0000
,  // measure 56
0032
0000
0023
0000
0032
0000
0023
0032
0023
0032
0013
0000
0010
0000
0100
0000
,  // measure 57
0100
0000
0001
0000
0001
0000
0001
1000
0001
1000
0002
0000
2003
0000
3020
0000
,  // measure 58
2030
0002
0000
0000
0000
3003
0000
0000
,  // measure 59
1001
0000
0110
0000
1100
0000
0010
1000
,  // measure 60
0000
0010
0000
0001
0010
0100
1000
0010
,  // measure 61
0100
0000
0010
0000
0110
0000
1000
0100
,  // measure 62
0000
0100
0000
1000
0100
0010
0001
0010
,  // measure 63
0100
0000
0001
0000
0110
0000
0001
2000
,  // measure 64
0000
3001
0000
0010
0100
0010
1000
0010
,  // measure 65
0100
0000
0010
0000
0001
0000
2000
0200
,  // measure 66
0000
0000
0000
3300
,  // measure 67
0110
0000
1001
0000
1100
0000
0010
1000
,  // measure 68
0000
1010
0000
1000
0100
0010
0001
0010
,  // measure 69
0011
0000
1100
0000
0110
0000
0001
1000
,  // measure 70
0000
1001
0000
0010
1000
0010
1000
0010
,  // measure 71
0110
0000
1100
0000
0011
0000
0010
0011
,  // measure 72
0000
1100
0000
0010
1000
0001
0100
0010
,  // measure 73
2000
0000
0100
0000
0010
0000
0001
0002
,  // measure 74
0000
0000
0000
0000
,  // measure 75
3003
0000
0000
0000
;

//---------------dance-single - ----------------
#NOTES:
     dance-single:
     :
     Medium:
     6:
     0.382,0.422,0.114,0.244,0.000:
0000
0000
0000
0000
,
2000
0000
0000
0000
,
0000
3000
0000
0001
0000
0001
0000
0000
,
0002
0000
0000
0000
,
0003
0000
0000
0110
0000
0110
0000
0000
,
0020
0000
0000
0000
,
0030
0000
0000
0100
0000
0100
0000
0000
,
0200
0000
0000
0000
,
0310
1000
0010
0001
,
1000
0000
0001
0000
1000
0000
0001
0100
,
0001
0000
0010
0000
1000
0000
0100
1000
,
0100
0000
0010
0000
0100
0000
0001
1000
,
0001
0000
0010
0000
1000
0000
0001
0100
,
0001
0000
1000
0000
0001
0000
0010
0001
,
0010
0000
0100
1000
0100
1000
0100
1000
,
0100
0000
0010
0000
0100
0000
0010
0100
,
0010
0000
1000
0000
0001
0000
1000
0001
,
1000
0001
0010
0100
,
1000
0100
0010
0000
0100
0010
0001
0000
,
0000
0002
2003
3002
,
0100
0100
0203
0000
0010
0010
0020
0000
,
0330
0000
0001
0000
1000
0001
1000
0000
,
0010
0000
0100
0000
0010
0100
0010
0000
,
1000
0000
0001
0000
0001
1000
0001
0000
,
0100
1000
1000
1000
,
1000
0002
0000
2003
,
0000
3002
0000
0100
,
0100
0203
0000
0010
,
0010
0020
0000
0000
,
0330
0000
0000
0000
0001
0000
0000
1000
,
0000
0100
0000
0000
0010
0000
0000
0001
,
0000
0100
0000
0000
0010
0000
0000
0100
,
0000
1000
0000
0000
0002
0000
1003
0000
,
0200
0000
1300
0000
0100
0000
0000
1000
,
0000
0100
0000
0000
0010
0000
0000
0001
,
0000
0100
0000
0000
0110
0000
0000
0010
,
0000
0100
0000
0000
2000
0000
3001
0000
,
0200
0000
0310
0000
1000
0000
0100
1000
,
0000
0100
0000
0010
0001
0000
0010
0001
,
0000
0010
0000
0100
0010
0000
0010
0100
,
0000
0010
0000
0100
0020
0000
0100
0000
,
0100
0000
0130
0000
0001
0000
0001
1000
,
0000
1000
0000
1000
0001
0000
0001
0100
,
0000
0100
0000
0100
0010
0000
0010
0100
,
0000
0010
0000
0010
0100
0000
0010
0000
,
1000
0000
0001
0000
0000
1000
0000
0001
,
0000
0100
0000
0010
0000
1000
0000
0010
,
0000
0100
0000
0001
0000
0010
0000
0100
,
0000
1000
0000
0100
0000
1001
0000
1001
,
0000
1001
0000
1001
0000
0001
0000
1000
,
0000
0001
0000
0100
0000
0010
0000
1000
,
0000
0100
0000
0010
0000
0001
0000
0010
,
0000
0100
0000
1000
0000
0100
0000
0010
,
0000
0001
0000
1000
0000
0001
0000
1000
,
0000
0001
0000
0010
0100
2000
0000
3200
,
0000
2300
0000
3020
0000
0130
0000
0001
,
0000
1000
0000
0001
0100
0002
0000
2003
,
0000
0200
0000
0000
0000
3300
0000
0000
,
0010
0000
0001
0000
0010
0000
0100
0010
,
0000
0100
0000
0010
0100
0000
0010
0000
,
1000
0000
0001
0000
0100
0000
0001
0100
,
0000
0100
0000
0100
0001
0000
0100
0000
,
0010
0000
1000
0000
0001
0000
0001
1000
,
0000
0010
0000
0010
1000
0000
0100
0000
,
1000
0000
0100
0000
0010
0000
0002
0200
,
0000
0000
0000
0303
,
0101
1100
0101
0010
,
0100
0000
1000
0000
0001
0010
0100
1000
,
0100
1100
1100
0010
,
1000
0000
0100
0000
0001
0100
0001
0100
,
0001
0000
0101
0000
1100
0000
0010
0100
,
0000
0100
0000
0010
0100
0010
0100
0010
,
1000
0000
0100
0000
0010
0000
0002
0200
,
0000
0000
0000
0000
,
0303
0000
0000
0000
;

//---------------dance-single - ----------------
#NOTES:
     dance-single:
     :
     Easy:
     4:
     0.320,0.332,0.016,0.187,0.000:
0000
0000
0000
0000
,
0002
0000
0000
0000
,
0000
0003
0000
0000
,
2000
0000
0000
0000
,
0000
3000
0000
0000
,
0020
0000
0000
0000
,
0000
0030
0000
0000
,
0200
0000
0000
0000
,
0310
0010
0010
0010
,
1001
0001
1000
0001
,
1000
0001
0100
0001
,
0100
0010
0100
0010
,
0100
0010
1000
0010
,
1000
0001
0100
0001
,
0100
0001
0001
1000
,
1000
0001
1000
0010
,
0100
1000
0100
0010
,
0001
1000
0001
0100
,
0010
0100
0010
0000
0010
0100
0010
0000
,
0000
1000
1000
1000
,
1000
0001
1000
0000
0010
0100
0010
0000
,
0000
0001
0001
0001
,
0000
1000
1000
1000
,
0000
0010
0010
0010
,
0000
0100
0100
0100
,
0100
0200
0000
0320
,
0000
0230
0000
0010
,
0001
0020
0330
0002
,
1000
0200
0000
0000
,
0000
0303
1000
0100
,
0010
0001
0010
0100
,
1000
0001
1000
0010
,
1000
0010
0200
0310
,
0002
1003
0001
1000
,
0010
1000
0001
0100
,
0001
0010
0100
1000
,
0100
0010
0002
1003
,
0200
1300
0010
0010
,
0100
0100
0001
0001
,
1000
1000
0001
1000
,
0010
1000
0002
0103
,
2000
3100
0010
1000
,
0100
0010
0001
0100
,
0001
1000
0010
0100
,
1000
0001
2000
3001
,
0200
0000
0301
0000
0000
1000
0000
1000
,
0000
1000
0000
1000
0000
0001
0000
0001
,
0000
0001
0000
0001
0000
0100
0000
0100
,
0000
0100
0000
0100
0000
0010
0000
0010
,
0000
0010
0000
0010
0000
0100
0000
0100
,
0000
0100
0000
0100
0000
0001
0000
0001
,
0000
0001
0000
0001
0000
0010
0000
0010
,
0000
0010
0000
0010
0000
1000
0000
1000
,
0000
1000
0000
1000
0000
0001
0000
0001
,
0000
0001
0000
0001
0000
1000
0000
1000
,
0000
1000
0000
1000
0000
0010
0000
0010
,
0000
0010
0000
0010
0000
0100
0000
0100
,
0000
0200
0000
0000
0000
0300
0000
0000
,
0010
0100
0010
1000
,
0001
1000
0001
0001
,
0100
0010
1000
0010
,
0100
0001
1000
1000
,
0001
0010
0100
1000
,
0001
1000
0010
0010
,
1000
0000
0001
0000
0100
0000
0002
2000
,
0000
0000
0000
3003
,
1001
0001
1000
0001
,
0100
0010
1000
0010
,
0100
0001
0010
0100
,
1000
0100
0010
0001
,
1000
0001
0100
0010
,
1000
0010
0100
0001
,
0010
0100
2000
0001
,
0002
0000
0000
0000
,
3003
0000
0000
0000
;

//---------------dance-single - ----------------
#NOTES:
     dance-single:
     :
     Beginner:
     1:
     0.065,0.117,0.033,0.000,0.000:
0000
0000
0000
0000
,
0000
0000
0000
0000
,
0000
0000
0000
0001
,
0000
0000
0000
0000
,
0000
0000
0000
0000
,
0010
0000
0000
0000
,
0000
0000
0000
0000
,
0100
0000
0000
0000
,
0000
0000
0000
0000
,
0000
1000
0000
0000
,
0000
1000
0000
0000
,
0000
1000
0000
0000
,
0000
1000
0000
0000
,
0000
0001
0000
0000
,
0000
0001
0000
0000
,
0000
0001
0000
0000
,
0000
0001
0000
0000
,
0000
0100
0000
0000
,
0000
0000
0000
0000
,
0000
0010
0000
0000
,
0000
0000
0000
0000
,
0000
1000
0000
0000
,
0000
1000
0000
0000
,
0000
0001
0000
0000
,
0000
0001
0000
0000
,
0000
0010
0000
0000
,
0000
0010
0000
0000
,
0000
0100
0000
0000
,
0000
0100
0000
0000
,
0000
0000
1000
0000
,
0000
0000
1000
0000
,
0000
0000
0001
0000
,
0000
0000
0001
0000
,
0001
0000
0001
0000
,
0000
0000
0010
0000
,
0000
0000
0100
0000
,
0000
0000
1000
0000
,
1000
0000
1000
0000
,
0000
0000
0001
0000
,
0000
0000
0100
0000
,
0000
0000
0010
0000
,
0010
0000
0010
0000
,
0000
0000
0100
0000
,
0000
0000
1000
0000
,
0000
0000
0001
0000
,
0000
0000
1000
0000
,
0000
0000
0000
0000
,
0000
0000
0001
0000
,
0000
0000
0000
0000
,
0000
0000
0010
0000
,
0000
0000
0000
0000
,
0000
0000
0100
0000
,
0000
0000
0000
0000
,
0000
0000
0000
0000
,
0000
0000
0000
0000
,
0000
0000
0000
0000
,
0000
0000
0000
0000
,
0000
0000
0000
0000
,
1000
0000
0000
0000
,
0000
0000
0000
0000
,
0001
0000
0000
0000
,
0000
0000
0000
0000
,
0100
0000
0000
0000
,
0000
0000
0000
0000
,
0010
0000
0000
0000
,
0000
0000
0000
0000
,
1001
0000
0000
0000
,
0000
0000
0000
0000
,
0110
0000
0000
0000
,
0000
0000
0000
0000
,
0110
0000
0000
0000
,
0000
0000
0000
0000
,
1001
0000
0000
0000
;
