#TITLE:hora de verdad;
#SUBTITLE:;
#ARTIST:Vandalcia ex;
#TITLETRANSLIT:;
#SUBTITLETRANSLIT:;
#ARTISTTRANSLIT:;
#CREDIT:;
#BANNER:bn.PNG;
#BACKGROUND:bg.PNG;
#LYRICSPATH:;
#CDTITLE:zingekirogo.png;
#MUSIC:hora de verdad.mp3;
#OFFSET:-0.580;
#SAMPLESTART:0.480;
#SAMPLELENGTH:14.000;
#SELECTABLE:YES;
#BPMS:0.000=140.000,32.000=280.000,233.000=140.000,248.000=280.000;
#STOPS:;
#BGCHANGES:;

//---------------dance-single - ----------------
#NOTES:
     dance-single:
     :
     Hard:
     10:
     0.713,0.855,0.242,0.144,0.000: // measure 1
0000
0000
0000
0000
,  // measure 2
0000
0000
0000
0000
,  // measure 3
0000
0000
0000
0000
,  // measure 4
0000
0000
0000
0000
,  // measure 5
2000
0000
0000
0100
,  // measure 6
0200
0000
0000
3300
,  // measure 7
0010
0020
0000
0001
,  // measure 8
0002
0033
1100
0000
,  // measure 9
0010
0100
1000
0100
,  // measure 10
0010
0001
0010
0100
,  // measure 11
0001
0100
0001
0100
,  // measure 12
0010
1000
0010
1000
,  // measure 13
0010
1000
0001
1000
,  // measure 14
0001
1000
0001
1000
,  // measure 15
0001
0100
0001
0000
0010
0000
0010
1000
,  // measure 16
0010
0000
0100
0000
0001
1000
0001
0000
,  // measure 17
1000
0000
0100
1000
0100
0000
0001
0000
,  // measure 18
0010
1000
0010
0000
1000
0000
0001
0100
,  // measure 19
0001
0010
0022
0000
,  // measure 20
0033
0001
0010
0100
,  // measure 21
1000
0100
0010
0001
0010
0100
1000
0000
,  // measure 22
0000
0100
1000
0100
1000
0000
0000
0000
,  // measure 23
0010
0001
0010
0000
0000
0000
0000
0000
,  // measure 24
1000
0001
1000
0001
0010
0100
1000
0100
,  // measure 25
0010
0001
0010
0100
1000
0000
1100
0000
,  // measure 26
1000
0100
1000
0000
0100
0000
1100
0000
,  // measure 27
0010
0000
0001
1000
0001
0000
0100
0010
,  // measure 28
0001
1000
0001
0010
0100
0000
0000
0010
,  // measure 29
0100
0010
0100
0000
0000
0000
0001
1000
,  // measure 30
0001
0000
0000
0000
0100
1000
0100
1000
,  // measure 31
0100
1000
0001
0010
0100
0010
0001
1000
,  // measure 32
0001
0010
0100
0010
0100
0000
1000
0000
,  // measure 33
0002
0013
0002
0003
0100
0000
1000
0000
,  // measure 34
0100
0010
0001
0010
,  // measure 35
0100
1000
0100
0010
,  // measure 36
0001
0010
0100
1000
,  // measure 37
0100
1000
0010
0001
,  // measure 38
0010
0001
0100
0001
,  // measure 39
0100
0000
0001
0000
0100
0000
0001
1000
,  // measure 40
0001
0000
1000
0000
1000
0000
0001
0010
,  // measure 41
0001
0010
0001
0010
0001
0000
1000
0000
,  // measure 42
1000
0000
0001
1000
0001
1000
0001
0010
,  // measure 43
0100
1000
0100
0000
0001
1000
0001
1000
,  // measure 44
0001
0000
1000
0100
0010
0001
0010
0100
,  // measure 45
1000
0001
0010
0100
1000
0100
0010
0001
,  // measure 46
0100
1000
0100
0010
0001
0000
0000
0010
,  // measure 47
0001
0010
0001
0000
0000
0000
0100
1000
,  // measure 48
0100
0000
0000
0000
0000
0000
0001
1000
,  // measure 49
0001
1000
0100
0010
0001
0010
0100
1000
,  // measure 50
0100
0010
0001
0000
0011
0000
0010
0000
,  // measure 51
0110
0000
0100
0000
1100
0000
0001
1000
,  // measure 52
0001
0010
0100
2000
0200
0000
3300
1000
,  // measure 53
0100
0010
0001
0000
0000
1000
0001
1000
,  // measure 54
0001
0000
0000
0000
1000
0100
0001
0010
,  // measure 55
0001
0010
0001
0010
0001
0010
0100
1000
,  // measure 56
0100
1001
0000
1010
,  // measure 57
0110
0000
0101
0011
,  // measure 58
0000
0000
2002
0000
,  // measure 59
0000
0000
3003
0000
,  // measure 60
0000
0000
0000
0000
,  // measure 61
0000
0000
0000
0000
,  // measure 62
0000
0000
0000
0000
,  // measure 63
1000
0001
0000
1000
0000
1000
0001
0000
,  // measure 64
0010
0100
0000
0100
0000
0100
0010
0000
,  // measure 65
1100
0022
0000
0033
,  // measure 66
1000
0100
0010
0001
,  // measure 67
0010
0100
0001
0100
,  // measure 68
0001
0000
1000
0000
0010
0000
1000
0100
,  // measure 69
1000
0010
0001
0010
,  // measure 70
0100
0001
0100
0001
,  // measure 71
1000
0000
0010
1000
0010
1000
0010
1000
,  // measure 72
0010
1000
0100
0010
,  // measure 73
0001
0010
0100
1000
,  // measure 74
0100
0000
0010
1000
0010
1000
0010
1000
,  // measure 75
0010
1000
0100
0011
,  // measure 76
0001
0100
1001
0100
,  // measure 77
0010
0001
0001
0001
,  // measure 78
0001
0010
0000
0100
1000
0000
0010
0100
,  // measure 79
0000
0010
0100
0000
0010
1000
0000
0010
,  // measure 80
1000
0001
0100
1000
,  // measure 81
0001
0010
0000
0010
0100
0000
0100
1000
,  // measure 82
0000
1000
0001
0000
0010
0000
0100
0000
,  // measure 83
1000
0001
0010
0100
,  // measure 84
1000
0100
0000
0010
0100
0000
0001
0010
,  // measure 85
0000
1000
0001
0000
0010
0100
0000
1000
,  // measure 86
0001
1000
0010
0100
,  // measure 87
1001
0100
1000
0100
,  // measure 88
0010
0000
0001
0000
0010
0000
0001
0100
,  // measure 89
0001
1000
0001
0010
,  // measure 90
1100
0000
1000
0100
1000
0000
1000
0000
,  // measure 91
0100
0000
0010
0000
0011
0000
0001
0010
,  // measure 92
0001
0000
0001
0000
0001
0010
0100
1000
,  // measure 93
0001
0010
0100
0000
1001
0000
1000
0100
,  // measure 94
1000
0100
1000
0100
0010
0001
0010
0000
,  // measure 95
0001
0010
0001
0000
1000
0000
0001
0000
,  // measure 96
0010
0100
0010
0100
0010
0000
1000
0001
,  // measure 97
1000
0001
1000
0000
0001
0010
0100
1000
,  // measure 98
0100
0010
0001
0010
0100
1000
0001
0000
,  // measure 99
1000
0100
0001
0010
0001
0100
1000
0000
,  // measure 100
0000
0100
1000
0100
1000
0000
0000
0000
,  // measure 101
0001
0010
0001
0000
0000
0000
0000
0000
,  // measure 102
1000
0010
1000
0010
0001
0100
1000
0100
,  // measure 103
0001
0010
0001
0100
1000
0100
1000
0100
,  // measure 104
1000
0100
1000
0100
1000
0100
1000
0100
,  // measure 105
1000
0001
1000
0001
0010
0100
1000
0000
,  // measure 106
0000
0001
0010
0001
0010
0000
0000
0100
,  // measure 107
1000
0100
1000
0000
0000
0000
0000
0000
,  // measure 108
1000
0100
0010
0001
0010
0100
1000
0001
,  // measure 109
1000
0001
0100
0010
0110
0000
0000
0000
,  // measure 110
0011
1100
0000
1100
,  // measure 111
0011
0000
0000
2002
,  // measure 112
0000
0000
0000
0000
,  // measure 113
3003
0000
0000
0000
;

//---------------dance-single - ----------------
#NOTES:
     dance-single:
     :
     Medium:
     8:
     0.460,0.553,0.117,0.233,0.000:
0000
0000
0000
0000
,
0000
0000
0000
0000
,
0000
0000
0000
0000
,
0000
0000
0000
0000
,
2000
0000
0000
0000
,
3002
0000
0000
0000
,
0203
0000
0000
0000
,
0320
0000
0030
0000
,
0001
1000
0001
0000
,
0100
0000
1000
0100
,
1000
0000
0100
0000
,
0001
0100
0001
0000
,
0010
0000
0100
0000
,
1000
0000
0100
0000
,
1000
0100
1000
0000
,
0010
0000
0001
0100
,
0001
0000
0100
0000
,
1000
0100
0010
0001
,
0010
0100
2000
0000
,
0000
3001
1000
0001
,
1000
0100
0010
0001
,
0000
0001
0100
0000
,
1000
0100
0000
0000
,
1000
0100
0010
0001
,
0010
0001
0010
0100
,
1000
0100
0020
1000
,
1030
0100
0010
0001
,
0010
0001
0010
0000
,
0100
1000
0000
1000
,
0100
0000
0000
0010
,
1000
0010
1000
0001
,
0100
0001
0100
0010
,
0001
0010
0100
1000
,
0000
0000
0100
0000
,
0000
1000
0100
0010
,
0001
0010
0100
2000
,
0000
0000
3002
0000
,
0000
1003
0100
0010
,
0001
0010
0100
1000
,
0100
1000
0100
0010
,
0001
0010
0100
0001
,
0100
0001
0100
0010
,
1000
0010
1000
0001
,
0100
0001
1000
0100
,
0010
0001
0010
0001
,
1000
0001
2000
0000
,
0100
0100
0000
0010
,
3010
0000
0000
1000
,
0100
0010
0001
0010
,
0100
1000
0010
1000
,
0010
1000
0001
0100
,
0001
0100
0002
0000
,
0103
2000
0000
3100
,
0020
0000
0000
0130
,
1000
0100
0010
0001
,
0010
0100
0000
1000
,
1100
0000
0010
0011
,
0000
0000
2002
0000
,
0000
3003
0000
0000
,
0000
0000
0000
0000
,
0000
0000
0000
0000
,
0000
0000
0000
0000
,
1000
0000
1000
0000
,
1000
0000
0100
0000
,
1000
0100
0000
0010
,
0001
0010
0001
0010
,
0100
1000
0100
0010
,
0001
0010
0100
1000
,
0100
0010
0001
0010
,
0100
0001
0100
0001
,
0100
0001
0100
0001
,
0010
1000
0010
1000
,
0001
1000
0001
0010
,
0100
0010
0100
1000
,
0100
0000
0000
1100
,
0000
0000
0011
0000
,
0000
0010
0100
0010
,
0100
1000
0100
0010
,
0001
0010
0100
1000
,
0100
0010
0001
0010
,
0100
0001
0100
0001
,
1000
0001
1000
0010
,
1000
0010
1000
0100
,
0010
0001
0010
0100
,
1000
0100
0010
0100
,
0010
0100
0010
1000
,
0001
0200
0010
0310
,
0100
0001
1000
0010
,
0001
0100
1000
0100
,
0020
0001
0031
0010
,
0100
1000
0200
1000
,
1300
1000
0100
0010
,
1001
0000
0010
0100
,
0000
0000
1100
0000
,
0010
0001
0000
0000
,
1100
0000
0000
0011
,
0000
0000
0110
0000
,
0200
2000
0000
3300
,
0001
0010
0100
1000
,
0000
2000
3100
0000
,
0002
0013
0000
0000
,
1000
0100
0010
0001
,
0010
0100
0001
0100
,
0001
0100
0010
1000
,
0001
1000
0010
2000
,
0000
3100
2000
0000
,
3010
0002
0000
0000
,
0103
1000
0100
0010
,
0001
0010
0100
0000
,
1000
1100
0000
0010
,
0011
0000
0000
2002
,
0000
0000
0000
0000
,
3003
0000
0000
0000
;

//---------------dance-single - ----------------
#NOTES:
     dance-single:
     :
     Easy:
     6:
     0.326,0.553,0.171,0.081,0.000:
0000
0000
0000
0000
,
0000
0000
0000
0000
,
0000
0000
0000
0000
,
0000
0000
0000
0000
,
0000
0000
0000
0000
,
0000
0000
0000
0000
,
0000
0000
0000
0000
,
0000
0000
0100
0000
,
2002
0000
0000
0000
,
0000
0000
0000
3003
,
0000
0000
0000
0010
,
0010
0000
0000
0000
,
0000
0000
0100
0000
,
0000
1000
0000
0000
,
1000
0000
0000
0010
,
0000
0000
0001
0000
,
0000
0100
0000
0000
,
1000
0100
0010
0001
,
0010
0100
0001
0000
,
0000
1000
0100
0010
,
0001
0000
0100
0000
,
0000
1000
0100
0000
,
0010
0001
0000
0000
,
1000
0000
0000
0001
,
0000
0000
0010
0100
,
0010
0100
0001
1000
,
0001
1000
0010
1000
,
0010
1000
0010
0000
,
0001
0100
0000
1000
,
0100
0000
0000
0010
,
0000
0000
0100
0000
,
0000
1000
0000
0000
,
0002
0000
0000
0103
,
0000
0000
1000
0000
,
0000
1000
0100
0010
,
0001
0010
0100
1000
,
0000
0000
1000
0000
,
0000
0001
1000
0001
,
1000
0001
1000
0001
,
0000
0000
0101
0000
,
0000
0110
0000
0000
,
1100
0000
0000
0010
,
1000
0010
0001
0100
,
0001
0010
0001
0010
,
0100
1000
0100
1000
,
0100
0010
0001
0000
,
0001
0100
0000
1000
,
0100
0000
0000
0010
,
0100
0000
0010
1000
,
0000
1000
0100
0010
,
0001
0010
0100
1000
,
0000
0000
0001
0000
,
0010
0100
0000
1000
,
0100
0000
0000
1000
,
0000
0000
0001
0000
,
0000
0100
0000
1000
,
2000
0000
0001
0002
,
0000
0000
3003
0000
,
0000
0000
0000
0000
,
0000
0000
0000
0000
,
0000
0000
0000
0000
,
0000
0000
0000
0000
,
1000
0000
0000
0000
,
0000
0000
0000
0000
,
1100
0011
0000
0001
,
0010
0000
0000
0100
,
0000
0000
1000
0000
,
0000
1000
0100
0010
,
0001
0000
0000
0010
,
0000
0000
0100
0000
,
0000
1000
0001
1000
,
0001
0000
0000
0010
,
0000
0000
0100
0000
,
0000
1000
0100
0010
,
0011
0000
0000
1100
,
0000
0000
0110
0000
,
0000
0001
0001
0001
,
1000
0000
0000
1000
,
0000
0000
0001
0000
,
0000
0100
0010
0100
,
0010
0000
0000
1000
,
0000
0000
0100
0000
,
0000
1000
0100
0010
,
0001
0000
0000
0010
,
0000
0000
0100
0000
,
0000
1000
0000
0000
,
1001
0000
0000
0010
,
0100
0010
0100
0010
,
0100
0010
0010
0010
,
0100
0001
1000
0001
,
1000
0001
1000
0001
,
1000
0001
0001
0001
,
0100
0000
1000
0100
,
0000
0000
0010
0000
,
0001
0100
0000
0000
,
1100
0000
0000
0011
,
0000
0000
0110
0000
,
0000
2020
0000
3030
,
0001
0100
0001
0100
,
0000
1000
0100
0000
,
0010
0001
0000
0000
,
1000
0001
1000
0001
,
1000
0001
0010
0100
,
0010
0100
0010
0100
,
1000
0000
0000
0100
,
0000
1000
0100
0000
,
0010
0001
0000
0000
,
0001
0010
0100
1000
,
0100
0010
0001
0000
,
0110
0110
0000
1001
,
1001
0000
0000
2200
,
0000
0000
0000
0000
,
3300
0000
0000
0000
;

//---------------dance-single - ----------------
#NOTES:
     dance-single:
     :
     Challenge:
     11:
     0.885,0.862,0.350,0.341,0.153: // measure 1
0000
0000
0000
0000
,  // measure 2
0000
0000
0000
0000
,  // measure 3
0000
0000
0000
0000
,  // measure 4
0000
0000
0000
0000
,  // measure 5
1000
0100
1000
0100
0000
0000
0000
0000
0000
0010
0001
0010
,  // measure 6
0001
0000
0000
0000
0000
0000
0010
0100
0010
0100
0010
0100
,  // measure 7
0001
1000
0001
1000
0000
0000
0000
0000
0000
0010
1000
0010
,  // measure 8
1000
0000
0000
0000
0000
0000
0000
0000
0000
0000
0000
0000
0000
0000
0000
0000
0000
0000
0000
0000
0000
0000
0000
0100
0001
0000
0000
0000
0000
0000
0000
0000
0000
0000
0000
0000
0000
0000
0000
0000
0000
0000
0000
0000
0000
0000
0000
0000
,  // measure 9
1100
0000
0001
0010
0001
0000
0001
0000
,  // measure 10
0010
0000
0100
0000
1100
0000
1000
0001
,  // measure 11
1000
1000
1100
0100
,  // measure 12
0110
0000
0001
0010
0001
0000
0100
0000
,  // measure 13
1100
0000
0001
1000
0001
0000
0100
0010
,  // measure 14
0000
0100
1000
0000
1000
0100
0010
0001
,  // measure 15
0010
0001
0010
0001
0010
0000
1000
0100
,  // measure 16
1000
0100
1000
0100
1000
0100
1000
0100
,  // measure 17
1000
0000
0010
0100
0010
0100
0010
0100
,  // measure 18
0010
0001
1000
0001
1000
0000
0010
1000
,  // measure 19
0010
1000
0010
0000
0100
0000
0000
0000
,  // measure 20
0000
1000
0100
0010
,  // measure 21
0001
0010
0100
1000
0001
0010
0100
0001
,  // measure 22
0000
1000
0100
1000
0100
0000
0000
0000
,  // measure 23
0001
0010
0001
0010
0000
0000
0000
0000
0000
0000
0000
0000
,  // measure 24
1000
0100
0010
0001
0010
0001
0100
1000
,  // measure 25
0001
1000
0010
0100
1000
0000
0010
0100
,  // measure 26
0020
0100
0100
0100
,  // measure 27
0100
0000
0130
0010
0100
0001
1000
0100
,  // measure 28
0010
0001
0100
1000
0001
0000
0000
1000
,  // measure 29
0001
0000
0000
1000
0000
0000
0010
0000
0000
0000
0000
0000
0000
0000
0000
0000
0000
0000
0001
0000
1000
0000
0001
0000
,  // measure 30
1000
0000
0000
1000
0100
0010
0001
0010
,  // measure 31
0100
1000
0001
1000
0001
0010
0100
0010
,  // measure 32
0100
1000
0100
0010
0001
0010
0100
1000
,  // measure 33
0002
0010
0203
0000
0310
0000
1000
0100
,  // measure 34
1000
0100
1000
0000
0001
0010
0001
0010
,  // measure 35
0001
0000
1000
0100
0010
0001
0010
0100
,  // measure 36
1000
0100
0010
0001
1000
0001
0100
0001
,  // measure 37
0100
0001
0100
0000
0010
1000
0010
1000
,  // measure 38
0010
0000
0100
0001
1000
0010
1000
0001
,  // measure 39
0100
0001
1000
0010
0100
0010
0100
0010
,  // measure 40
0001
0100
0001
0000
0101
0000
0010
1000
,  // measure 41
0010
1000
0010
1000
0010
1000
0010
0000
,  // measure 42
0101
0000
0001
0100
0001
0100
0001
0100
,  // measure 43
0001
0100
0001
0000
0010
1000
0010
1000
,  // measure 44
0010
1000
0100
0010
,  // measure 45
0022
0000
0000
0000
0033
0000
0010
1000
,  // measure 46
0001
0100
0010
1000
0001
0010
0000
0100
,  // measure 47
0001
0000
0000
0100
0000
0000
0001
0000
0000
0000
0000
0000
0000
0000
0000
0000
0000
0000
0010
0000
1000
0000
0010
0000
,  // measure 48
1000
0000
0000
0000
0000
0000
0100
0001
,  // measure 49
1000
0010
1000
0010
0001
0100
0010
0100
,  // measure 50
1000
0001
0100
0010
1000
0001
0010
0100
,  // measure 51
0001
1000
0001
1000
0001
1000
0001
0010
,  // measure 52
1000
0001
0010
0100
1000
0000
0000
0100
,  // measure 53
0010
0000
0000
1000
0000
0000
0001
0000
0000
0000
0000
0000
0000
0000
0000
0000
0000
0000
0010
0000
0100
0000
0010
0000
,  // measure 54
0100
0000
0000
0100
0001
1000
0010
1000
,  // measure 55
0001
0100
0010
0100
0010
1000
0001
1000
,  // measure 56
0001
0100
0001
0000
0000
0000
0110
0000
,  // measure 57
1002
0000
1003
2200
,  // measure 58
0300
0000
0000
0000
0000
0000
0000
0000
0000
0000
0000
0000
0000
0000
0000
0000
0000
0000
0000
0000
0000
0000
0000
0000
0000
0000
0000
0000
0000
0000
0000
3000
2002
0000
0000
0000
0000
0000
0000
0000
0000
0000
0000
0000
0000
0000
0000
0000
0000
0000
0000
0000
0000
0000
0000
0000
0000
0000
0000
0000
0000
0000
0000
0000
,  // measure 59
3003
0000
0000
0000
0000
0000
0000
0000
1000
0000
0000
0000
0000
0000
0000
0000
0100
0000
0000
0000
0000
0000
0000
0000
0010
0000
0000
0000
0001
0000
0000
0010
,  // measure 60
0000
0000
0001
0000
0000
0000
0000
0000
0000
0000
0100
0000
0000
0000
0000
1000
0000
0000
0000
0000
0000
0000
0000
0000
,  // measure 61
0000
0000
0000
0000
0000
0000
0001
0000
0000
0000
0000
0000
0000
0000
0000
0000
0000
0000
0000
0000
0000
0000
0000
0000
0000
0000
0000
0000
0000
0000
0000
0000
0000
0000
0000
0000
0000
0000
0000
0000
0000
0000
0000
0000
0000
0000
0000
0000
0000
0000
0000
0000
0000
0000
0000
0000
0000
0000
0000
0000
0000
0000
0000
0000
0000
0000
0000
0000
0000
0000
0000
0000
0000
0000
0000
0000
0000
0000
0010
0000
0000
0000
0000
0000
0000
0000
0000
0000
0000
0000
0000
0000
0000
0000
0000
0000
0100
0000
0000
0000
0000
0000
0000
0000
0000
0000
0000
0000
0000
0000
0000
0000
0000
0000
0000
0000
0000
0000
0000
0000
0001
0000
0000
0000
0000
0000
0000
0000
0000
0000
0000
0000
0000
0000
0000
0000
0000
0000
0000
0000
0000
0000
0000
0000
0000
0000
0000
0000
0000
0000
0000
0000
0010
0000
0000
0000
0000
0000
0000
0000
0000
0000
0000
0000
0000
0000
0000
0000
0000
0000
0000
0000
0000
0000
0000
0000
0000
0000
0000
0000
0000
0000
0000
0000
0000
0000
0000
0000
0000
0000
0000
0000
,  // measure 62
0000
0000
1000
0000
0000
0000
0000
0000
0000
0000
0000
0000
0000
0000
0000
0000
1000
0000
0000
0000
0000
0100
0000
0000
0000
0000
0000
0001
0000
0000
0000
0000
,  // measure 63
0100
1000
0000
1100
0000
0001
0010
0001
,  // measure 64
0000
0011
0000
0001
0010
0100
1000
0000
,  // measure 65
0022
0033
2200
0000
0000
0000
3300
0000
,  // measure 66
0001
0010
0001
0010
0001
0000
1000
0100
,  // measure 67
1000
0100
1000
0000
0001
0100
0001
0100
,  // measure 68
0001
0000
1000
0100
0010
0001
0010
0100
,  // measure 69
0010
1000
0010
1000
0010
0000
0100
0001
,  // measure 70
0100
0001
0100
0000
0010
0001
0010
0001
,  // measure 71
0010
0000
0100
0001
1000
0010
1000
0001
,  // measure 72
0100
0001
0100
0001
0100
0000
0010
1000
,  // measure 73
0010
1000
0010
0000
0100
1000
0100
1000
,  // measure 74
0100
0000
0010
1000
0001
0100
0001
1000
,  // measure 75
0010
0100
1000
1100
,  // measure 76
1000
0100
0011
0010
,  // measure 77
0100
0002
0023
0230
,  // measure 78
2300
0001
3000
0002
1000
0003
2000
0001
,  // measure 79
3000
0002
1000
0003
2000
0001
3000
0002
,  // measure 80
1000
0003
0011
0000
1100
0000
0001
1000
,  // measure 81
0200
0010
0300
0020
0100
0030
0200
0010
,  // measure 82
0300
0020
0100
0030
0200
0010
0300
0010
,  // measure 83
0100
2000
3001
0020
,  // measure 84
0130
0000
0100
1000
0100
0000
0001
0000
,  // measure 85
0010
0000
0100
0000
1100
0000
0001
1000
,  // measure 86
0001
1000
0001
0010
,  // measure 87
0220
0330
0011
1100
,  // measure 88
0011
0000
0110
0000
1001
0000
0001
1000
,  // measure 89
0001
1001
0011
0110
,  // measure 90
1001
0000
1000
0010
1000
0000
0011
0000
,  // measure 91
1100
0000
1001
0000
0011
0000
1000
0100
,  // measure 92
1000
0000
0001
0010
0100
1000
0001
0010
,  // measure 93
0100
0000
1000
0000
0100
1000
0100
0000
,  // measure 94
0010
0100
0001
0100
,  // measure 95
0001
0100
0001
0000
0000
0000
0000
0000
,  // measure 96
0010
0100
0010
0100
0010
0000
0001
1000
,  // measure 97
0001
1000
0001
0000
1000
0100
0010
0001
,  // measure 98
0010
0100
1000
0100
0010
0001
0010
0100
,  // measure 99
0001
0010
0100
1000
0001
0010
0100
0001
,  // measure 100
0000
1000
0100
1000
0100
0000
0000
0000
,  // measure 101
0001
0010
0001
0010
0000
0000
0000
0000
0000
0000
0000
0000
,  // measure 102
1000
0100
0010
0001
0010
0001
0100
1000
,  // measure 103
0001
1000
0010
0100
1000
0001
0010
0100
,  // measure 104
1000
0001
1000
0001
1000
0001
0010
0100
,  // measure 105
1000
0100
0010
0001
0010
0100
1000
0000
,  // measure 106
0000
1000
0100
0010
0001
0000
0000
0000
,  // measure 107
0001
0000
1000
0000
0001
0000
1000
0000
0000
0000
0000
0000
0000
0000
0000
0000
0000
0000
1000
0000
0000
0100
0000
0000
,  // measure 108
0010
0001
0010
0100
1000
0001
1000
0100
,  // measure 109
0010
1000
0100
0010
0001
0000
0000
0000
,  // measure 110
1020
0002
0033
0011
,  // measure 111
2002
0000
0000
0000
0000
0000
0000
0000
0000
0000
0000
0000
0000
0000
0000
0000
0000
0000
0000
0000
0000
0000
0000
0000
0000
0000
0000
0000
0000
0000
0000
0000
0000
0000
0000
0000
0000
0000
0000
0000
0000
0000
0000
0000
0000
0000
0000
3003
2002
0000
0000
0000
0000
0000
0000
0000
0000
0000
0000
0000
0000
0000
0000
0000
,  // measure 112
0000
0000
0000
0000
,  // measure 113
0000
0000
0000
0000
,  // measure 114
3003
0000
0000
0000
;

//---------------dance-single - ----------------
#NOTES:
     dance-single:
     :
     Beginner:
     3:
     0.159,0.298,0.189,0.000,0.000:
0000
0000
0000
0000
,
0000
0000
0000
0000
,
0000
0000
0000
0000
,
0000
0000
0000
0000
,
0000
0000
0000
0000
,
0000
0000
0000
0000
,
0000
0000
0000
0000
,
0000
0000
0000
0000
,
1000
0000
0000
0000
,
0000
0000
0000
0000
,
0000
0000
0000
0000
,
0001
0000
0000
0000
,
0000
0000
0000
0000
,
0000
0000
0000
0000
,
0010
0000
0000
0010
,
0000
0000
0010
0000
,
0000
0010
0000
0000
,
0010
0000
0000
0010
,
0000
0000
0110
0000
,
0000
0000
0000
0000
,
1000
0000
0000
0000
,
0000
0000
0001
0000
,
0000
0001
0000
0000
,
1000
0000
0000
0000
,
0000
0000
0010
0000
,
0000
0000
0000
0000
,
0000
0000
0000
0010
,
0000
0000
0000
0000
,
0000
0100
0000
0000
,
0100
0000
0000
1000
,
0000
0000
0000
0000
,
0000
0000
0000
0000
,
0000
0000
0000
1000
,
0000
0000
1000
0000
,
0000
1000
0000
0000
,
0000
0000
0000
0001
,
0000
0000
0001
0000
,
0000
0001
0000
0000
,
0000
0000
0000
0100
,
0000
0000
0110
0000
,
0000
0110
0000
0000
,
0110
0000
0000
1001
,
0000
0000
1001
0000
,
0000
1001
0000
0000
,
1001
0000
0000
0100
,
0000
0000
0000
0000
,
0000
0010
0000
0000
,
0010
0000
0000
1000
,
0000
0000
0000
0000
,
0000
1000
0000
0000
,
0001
0000
0000
1001
,
0000
0000
0000
0000
,
0000
0010
0000
0000
,
0010
0000
0000
0100
,
0000
0000
0000
0000
,
0000
0000
0000
1000
,
1000
0000
0001
0001
,
0000
0000
1001
0000
,
0000
0000
0000
0000
,
0000
0000
0000
0000
,
0000
0000
0000
0000
,
0000
0000
0000
0000
,
0000
0000
0000
0000
,
0000
0000
0000
0000
,
0001
0001
0000
0000
,
1000
0000
0000
1000
,
0000
0000
1000
0000
,
0000
1000
0000
0000
,
0001
0000
0000
0100
,
0000
0000
0010
0000
,
0000
1000
0000
0000
,
0001
0000
0000
1000
,
0000
0000
0001
0000
,
0000
0100
0000
0000
,
0110
0000
0000
0110
,
0000
0000
0110
0000
,
0000
0001
0001
0001
,
1000
0000
0000
1000
,
0000
0000
1000
0000
,
0000
1000
0000
0000
,
0001
0000
0000
0001
,
0000
0000
0001
0000
,
0000
0001
0000
0000
,
0010
0000
0000
0000
,
0000
0000
0010
0000
,
0000
0000
0000
0000
,
0110
0000
0000
0000
,
0000
0000
0100
0000
,
0000
0000
0000
0000
,
1001
0000
0000
0000
,
0000
0000
0010
0000
,
0000
0000
0000
0000
,
1001
0000
0000
1000
,
0000
0000
0000
0000
,
0000
0001
0000
0000
,
1001
0000
0000
0010
,
0000
0000
0100
0000
,
0000
1001
0000
0000
,
0110
0000
0000
0000
,
0000
0000
0100
0000
,
0000
0100
0000
0000
,
1000
0000
0000
0000
,
0000
0000
0001
0000
,
0000
0000
0000
0000
,
0010
0000
0000
0000
,
0000
0000
0100
0000
,
0000
0100
0000
0000
,
1000
0000
0000
0000
,
0000
0000
1001
0000
,
0010
0010
0000
0100
,
0100
0000
0000
1001
;
