#TITLE:heaven above;
#SUBTITLE:;
#ARTIST:kors k;
#TITLETRANSLIT:;
#SUBTITLETRANSLIT:;
#ARTISTTRANSLIT:;
#CREDIT:;
#BANNER:bn.PNG;
#BACKGROUND:bg.PNG;
#LYRICSPATH:;
#CDTITLE:IIDX GOLD.png;
#MUSIC:heaven above.mp3;
#OFFSET:-3.650;
#SAMPLESTART:25.460;
#SAMPLELENGTH:14.540;
#SELECTABLE:YES;
#BPMS:0.000=132.000,96.000=66.000,112.000=132.000,225.000=66.000,233.000=132.000;
#STOPS:144.000=1.364
;
#BGCHANGES:;

//---------------dance-single - ----------------
#NOTES:
     dance-single:
     :
     Hard:
     7:
     0.312,0.447,0.024,0.210,0.109:
0001
0000
0000
0100
0000
0000
1000
0100
,
0000
0000
0000
0000
0000
0001
0100
0001
,
0010
0000
0000
0000
0000
0000
1000
0001
,
0000
0000
0000
0010
,
0100
0000
0000
0100
0000
0000
0100
1000
,
0000
0000
0000
0000
0000
1000
0100
0010
,
0001
0000
0000
0000
,
0001
1000
0200
0000
,
1300
0000
0100
0000
0010
0001
0010
0000
,
0001
0000
0100
0000
0010
1000
0001
0000
,
0100
0000
1000
0000
0001
0010
0100
0000
,
1000
0000
0001
0000
0100
1000
0010
0000
,
0001
0000
1000
0000
0100
2000
0000
0100
,
0000
0100
0000
0100
0000
0010
0000
0002
,
0000
0000
0000
3000
0000
0000
0000
0000
,
1003
0001
1000
0001
1000
0000
0010
0000
,
0200
0000
1300
0000
1000
0100
0010
0000
,
0001
0000
0010
0000
0100
1000
1001
0000
,
0002
0000
1003
0000
1000
0100
1000
0000
,
0010
0000
0100
0000
0010
0001
0010
0000
,
0001
0100
0001
1000
,
0010
0100
1000
0100
,
0010
0000
0001
0000
0000
1000
0100
0000
0010
0000
0010
0100
0010
0000
0100
0000
,
0010
0000
0010
1000
0010
0000
0100
0000
0001
0000
0010
0000
0100
0000
1000
0000
,
0100
0000
0000
0001
1000
0100
0000
0010
0000
0001
0000
0010
0000
0002
0000
0200
,
0000
0000
0003
0002
0000
0000
0000
0000
0000
0000
0000
0000
0000
0000
0303
0000
,
0000
0000
0000
0010
1000
0010
0000
1000
0000
0000
0100
0010
0000
0001
0000
2000
,
0000
0000
0000
0020
0000
0000
0000
0000
0000
0000
3030
0000
0000
1000
0000
0100
,
0020
0000
0030
0100
,
0010
0000
0001
1000
0000
0200
0000
0020
,
0000
0000
0000
0000
,
0000
0000
0330
0000
0000
0002
0000
0000
,
1003
0000
0000
0000
0000
0000
0100
1000
,
0000
0000
0100
1000
0000
0010
0000
2000
,
0000
0000
0000
0000
,
0002
0000
0000
0000
,
3003
0000
0001
0000
0100
0000
1000
0100
,
1000
0000
0010
0000
1000
0000
0001
0100
,
0001
0000
0010
0000
1000
0000
0001
1000
,
0100
0000
1000
0000
0100
0000
0010
0100
,
0001
0000
0100
0000
1000
0000
0100
2000
,
0000
0100
0000
0010
0000
0001
0000
0010
,
0000
3200
0000
0000
0000
2000
0000
0000
,
3300
0000
1010
0000
0110
0000
0010
0001
,
0010
0000
0001
1000
0001
0000
0000
0000
1000
0000
0000
0000
0100
0000
1000
0000
,
0200
0000
0310
0000
0100
0000
0010
0001
,
0020
0000
0031
0000
0100
0000
0001
0100
,
0002
0000
0103
0000
1000
0000
0100
1000
,
0200
0000
0310
0000
1000
0000
0001
1000
,
0002
0000
1003
0000
0100
0000
0010
0100
,
0020
0000
0130
0000
1000
0000
0010
0001
,
0010
0000
0100
0000
0001
0000
0010
1000
,
0010
0000
0001
0000
0000
1000
0000
0000
,
0100
1000
0000
0000
0000
0000
0000
1000
,
0100
0010
0001
0000
0000
0000
0000
0000
,
0010
0010
0000
0000
0000
0000
0000
0000
,
1000
0000
0000
0000
0001
0000
0000
1000
0000
0000
0100
0001
0000
0000
0000
0000
,
0000
0010
0100
1000
0001
0000
0000
0000
0000
0000
0000
0000
1000
0100
0010
0001
,
0000
0200
0300
0000
0000
0000
0000
0000
;

//---------------dance-single - ----------------
#NOTES:
     dance-single:
     :
     Medium:
     5:
     0.252,0.330,0.024,0.243,0.004:
1000
0000
0000
0001
0000
0000
1000
0001
,
0000
0000
0000
0000
0000
0001
0100
0001
,
0100
0000
0000
0000
0000
0000
1000
0100
,
0000
0000
0000
0010
,
0001
0000
0000
1000
0000
0000
1000
0001
,
0000
0000
0000
0000
0000
1000
0100
0010
,
0100
0000
0000
0000
,
0002
0000
0000
0003
,
0100
0001
0100
0001
,
1000
0100
1000
0100
,
0010
1000
0010
1000
,
0001
0010
0001
0010
,
1000
0001
2000
3200
,
0320
0032
0203
0302
,
0200
0000
0003
0002
0000
0000
0000
0303
,
0001
1000
0002
0103
,
0010
1000
0100
1100
,
1000
0100
0010
0101
,
0001
0100
0001
1000
,
0001
0000
0010
0000
1000
0100
1000
0000
,
1000
0001
1000
0001
,
0100
0010
0100
0010
,
1100
0000
0000
0000
0001
0100
0001
0000
,
0100
0000
1000
0000
1000
0100
0010
0001
,
1000
0000
0001
0000
,
0010
0000
0100
0000
,
2000
3000
0002
0003
,
0020
0030
0200
0300
,
2000
0000
3000
0001
,
1000
0100
0010
0002
,
0200
0000
0000
0000
,
0000
0000
0303
0000
0000
2000
0000
0000
,
0002
0000
0000
0000
3003
0000
0000
0200
,
0000
0000
0000
1300
0000
0100
0000
2000
,
0000
0000
0000
0000
0000
0000
0000
0020
,
0000
0000
0000
0000
,
3030
0100
0001
0200
,
0301
1000
0010
2000
,
3010
1000
0100
0020
,
0031
0010
0001
0200
,
0301
0000
1000
0000
0100
0000
0001
0200
,
0000
0001
0000
0001
0000
0001
0000
0001
,
0000
0002
0000
0300
0000
0200
0000
0000
,
0303
0000
1000
0000
0001
0000
1000
0001
,
1000
1000
0100
0010
,
0001
0010
0100
1000
,
0001
1000
0001
0100
,
0010
0100
1000
0100
,
0001
0010
0001
0010
,
1000
0001
1000
0100
,
0010
0001
0010
0100
,
1000
0001
1000
0100
,
0010
0000
0001
0000
0000
1000
0000
0000
,
0100
0000
0000
0000
,
0010
0001
0000
0000
,
1000
0000
0000
0000
,
0001
0000
0000
0000
1000
0000
0000
0001
0000
0000
0010
0000
0000
0000
0000
0000
,
0000
0100
0100
0000
0000
0000
2000
0000
,
0000
0001
3001
0000
0000
0000
0000
0000
;

//---------------dance-single - ----------------
#NOTES:
     dance-single:
     :
     Easy:
     3:
     0.204,0.283,0.008,0.251,0.000:
1000
0000
0000
0000
,
0000
0000
0000
0000
,
0001
0000
0000
0000
,
0000
0000
0000
0000
,
0100
0000
0000
0000
,
0000
0000
0000
0010
,
0010
0000
0000
0000
,
0000
0000
0000
0000
,
2000
3100
1000
0100
,
0001
0100
0001
0100
,
0001
0010
0001
1000
,
0010
1000
0001
1000
,
0001
1000
0200
0000
,
2300
0000
3200
0000
,
2000
0000
0000
3300
,
0000
0000
0000
0000
,
0001
0100
1000
0100
,
0001
1000
0100
0002
,
1003
0001
1000
0001
,
0100
0001
0200
1300
,
1000
0100
0020
0031
,
0001
0010
0100
1000
,
1001
0000
1000
0001
,
0200
0301
0002
0100
,
1003
0000
0001
0000
,
0010
0000
0100
0000
,
1000
0000
0001
0000
,
1000
0000
0100
0000
,
0002
0000
0000
0000
,
2003
0000
0000
0000
,
3002
0000
0000
0000
,
0000
0000
0000
0000
,
0203
0000
0000
0000
,
0302
0000
0000
0000
,
0023
0000
0000
0000
,
0032
0000
0203
0000
,
0310
1000
0001
2000
,
3001
0001
0100
0002
,
0103
0010
0100
0020
,
0130
1000
0100
2000
,
3100
1000
0100
0002
,
0000
0203
0000
0302
,
0000
2000
0000
0000
,
3003
1000
1000
1000
,
2000
3001
1000
0001
,
0100
0010
1000
0001
,
0200
0301
0100
0001
,
0100
2000
3100
0020
,
1030
0001
1000
0100
,
0001
0010
0001
0100
,
1000
0001
1000
0010
,
1000
0100
0001
0100
,
1000
0000
0001
0000
0000
1000
0000
0000
,
0001
0000
0000
0000
,
0010
0010
0000
0000
,
0100
0000
0000
0000
,
0001
0000
1000
0000
0000
0001
0000
0000
,
0000
0010
0010
0000
0000
0000
2000
0000
,
0000
3000
0000
0000
;

//---------------dance-single - ----------------
#NOTES:
     dance-single:
     :
     Beginner:
     1:
     0.046,0.094,0.000,0.000,0.000: // measure 1
1000
0000
0000
0000
,  // measure 2
0000
0000
0000
0000
,  // measure 3
0000
0000
0000
0000
,  // measure 4
0000
0000
0000
0000
,  // measure 5
0100
0000
0000
0000
,  // measure 6
0000
0000
0000
0000
,  // measure 7
0000
0000
0000
0000
,  // measure 8
0000
0000
0000
0000
,  // measure 9
0001
0000
0000
0000
,  // measure 10
0000
0000
0000
0000
,  // measure 11
1000
0000
0000
0000
,  // measure 12
0000
0000
0000
0000
,  // measure 13
0010
0000
0000
0000
,  // measure 14
0000
0000
0000
0000
,  // measure 15
0001
0000
1000
0000
,  // measure 16
1000
0000
0000
0000
,  // measure 17
0001
0000
0000
0000
,  // measure 18
1000
0000
0000
0000
,  // measure 19
0100
0000
0000
0000
,  // measure 20
0010
0000
0000
0000
,  // measure 21
0100
0000
0000
0000
,  // measure 22
0100
0000
0000
0000
,  // measure 23
1000
0000
0000
0000
,  // measure 24
0000
0000
0000
0000
,  // measure 25
0001
0000
0000
0000
,  // measure 26
0000
0000
0000
0000
,  // measure 27
0010
0000
0000
0000
,  // measure 28
0000
0000
0000
0000
,  // measure 29
0100
0000
0000
0000
,  // measure 30
0000
0000
0000
0000
,  // measure 31
0000
0000
0000
0000
,  // measure 32
0000
0000
0000
0000
,  // measure 33
1000
0000
0000
0000
,  // measure 34
0000
0000
0000
0000
,  // measure 35
0001
0000
0000
0000
,  // measure 36
0000
0000
0000
0000
,  // measure 37
0000
0100
0000
0000
,  // measure 38
0000
0100
0000
0000
,  // measure 39
0000
0010
0000
0000
,  // measure 40
0000
0001
0000
0000
,  // measure 41
0000
1000
0000
1000
,  // measure 42
0000
0000
0000
0000
,  // measure 43
0000
0001
0000
0000
,  // measure 44
0000
0100
0100
0100
,  // measure 45
0000
0010
0000
0000
,  // measure 46
0000
0000
0000
0000
,  // measure 47
0000
0001
0000
0000
,  // measure 48
0000
0000
0000
0000
,  // measure 49
0000
1000
0000
0000
,  // measure 50
0000
0000
0000
0000
,  // measure 51
0000
0010
0000
0000
,  // measure 52
0000
0000
0000
0000
,  // measure 53
0000
0100
0000
0000
,  // measure 54
0000
0000
0000
0000
,  // measure 55
0000
1000
0000
0000
,  // measure 56
0001
0000
0000
0000
,  // measure 57
0000
0100
0000
0000
,  // measure 58
0000
0010
0000
0000
,  // measure 59
0000
0001
0000
0000
;
