#TITLE:gigadelic;
#SUBTITLE:;
#ARTIST:teranoid feat. MC Natsack;
#TITLETRANSLIT:;
#SUBTITLETRANSLIT:;
#ARTISTTRANSLIT:;
#CREDIT:;
#BANNER:bn.bmp;
#BACKGROUND:bg.bmp;
#LYRICSPATH:;
#CDTITLE:Beatmania IIDX.png;
#MUSIC:gigadelic.mp3;
#OFFSET:-3.140;
#SAMPLESTART:33.682;
#SAMPLELENGTH:12.000;
#SELECTABLE:YES;
#BPMS:0.000=173.000,184.000=86.500,200.000=173.000,300.000=86.500,302.000=173.000;
#STOPS:23.000=0.020
,55.000=0.020
,86.000=0.020
,103.000=0.020
,151.000=0.020
,184.000=0.020
,231.000=0.020
,247.000=0.020
,294.000=0.020
;
#BGCHANGES:;

//---------------dance-single - ----------------
#NOTES:
     dance-single:
     :
     Hard:
     9:
     0.592,0.758,0.488,0.163,0.721:
0000
0000
0000
0000
,
0000
0000
0000
0000
,
0000
0000
0000
0000
,
0000
0000
0000
0000
,
0000
0000
0000
0000
,
0000
0000
0000
0000
,
0010
0000
0000
0100
0000
0000
0010
0100
0010
0100
0000
0000
,
0010
1000
0010
1000
0001
1000
0001
0000
0000
0010
0000
0000
,
0100
0000
0000
0010
0000
0000
0001
1000
0001
1000
0000
0000
,
0001
0100
0001
0100
0000
0010
1000
0000
0000
1001
0000
0000
,
1100
0000
0000
0110
0000
0000
0001
0100
0001
0100
0000
0000
,
0010
0100
0010
0100
0000
0001
1000
0000
0100
1000
0000
0000
,
0011
0000
0000
1100
0000
0000
0001
1000
0010
0100
0000
0000
,
1000
0001
0010
0100
1000
0100
0010
0000
0000
0000
0000
0000
,
0101
0000
0000
0110
0000
0000
0010
0100
0010
0100
0000
0000
,
0110
0000
0000
1001
0000
0000
1000
0100
1000
0100
0000
0000
,
1100
0000
0000
0110
0000
0000
0001
0100
0001
0100
0000
0000
,
1001
0000
0000
0001
0000
0001
1000
0000
0000
0000
0000
0000
,
1001
0000
0000
0101
0000
0000
0010
0100
0010
0100
0000
0000
,
0110
0000
0000
1001
0000
0000
1000
0100
1000
0100
0000
0000
,
0010
0000
0010
0100
0000
0100
1000
0000
0010
0001
0000
0000
,
0001
0000
1000
0000
0020
0000
0200
0000
0000
0330
0000
0000
,
1001
0000
0000
1001
0000
0000
0001
0100
0001
0100
0000
0000
,
0110
0000
0000
1001
0000
0000
1000
0100
1000
0100
0000
0000
,
0110
0000
0000
1001
0000
0000
0001
0100
0001
0100
0000
0000
,
0010
0100
0001
1000
0010
0100
0001
0000
0000
0000
0000
0000
,
1100
0000
0000
1100
0000
0000
0010
1000
0010
1000
0000
0000
,
0101
0000
0000
1100
0000
0000
0001
0100
0001
0100
0000
0000
,
1001
0000
0000
0110
0000
0000
0001
1000
0001
1000
0000
0000
,
0202
0000
0303
0000
,
0110
0000
0000
0110
0000
0000
0010
1000
0001
1000
0000
0000
,
1010
0000
0000
1010
0000
0000
0001
1000
0010
1000
0000
0000
,
1001
0000
0000
1001
0000
0000
0001
0100
0001
0100
0000
0000
,
0010
0000
0000
0010
0000
0100
0000
0000
0100
0010
0000
0000
,
1001
0000
0000
1001
0000
0000
1000
0100
1000
0100
0000
0000
,
0101
0000
0000
0110
0000
0000
0001
1000
0010
1000
0000
0000
,
1001
0000
0000
1100
0000
0000
0010
1000
0001
0100
0000
0000
,
0010
0000
1000
0000
0002
0000
0200
0000
0000
0303
0000
0000
,
1000
0000
0000
0100
0000
0000
0010
0100
0010
0100
0000
0000
,
0010
0000
0000
1000
0000
0000
0001
0100
0001
0100
0000
0000
,
0001
1000
0100
0010
,
0001
0100
1000
0000
,
0002
0000
0000
0000
,
0000
0000
1000
0000
,
2000
0000
0000
3003
,
0001
0100
0001
0100
0001
0100
0001
0100
0001
0100
0001
0100
,
0002
0000
2003
0000
,
3002
0000
0200
0303
,
0020
0000
0230
0000
,
0302
0000
2000
3003
,
0001
0001
1000
1000
,
0010
0010
0100
0100
,
0010
1000
0001
0100
,
0001
1000
0010
0001
,
0100
1000
0100
0010
,
0001
0100
1000
0010
,
1000
0001
1000
0100
1000
0100
0010
0001
0010
0100
0010
1000
,
0001
0100
0010
0100
0001
1000
0010
1000
0001
1000
0000
0000
,
1000
0000
0000
0100
0000
0000
0010
0100
0010
0100
0000
0000
,
0110
0000
0000
0110
0000
0000
0010
0100
0010
0100
0000
0000
,
0001
1000
0001
1000
0001
1000
0001
0100
0001
0100
0001
0010
,
0100
1000
0100
0001
0010
0100
1000
0001
1000
0001
0000
0000
,
1100
0000
0000
0110
0000
0000
0001
1000
0010
1000
0000
0000
,
0001
0000
0000
1000
0000
0000
0001
0100
0001
0100
0000
0000
,
0001
1000
0001
1000
0010
1000
0001
1000
0010
1000
0010
1000
,
0001
0000
0000
0000
0000
0000
0000
0000
0000
0000
0000
1000
,
1100
0000
0000
0010
0000
0010
0110
0000
0000
0001
0000
0001
,
0101
0000
0000
0001
0000
0001
1001
0000
0000
0001
0000
0001
,
1001
0000
0000
1000
0000
0010
0110
0000
0000
0010
0000
1000
,
1100
0000
0000
0100
0000
0001
0101
0000
0000
0000
0000
1000
,
1001
0000
0000
0001
0000
1000
1100
0000
0000
0100
0000
0010
,
0011
0000
0000
0001
0000
0001
0101
0000
0000
1000
0000
1000
,
1001
0000
0000
0010
0000
0010
0110
0000
0000
0010
0000
1000
,
0001
0010
1000
0100
0010
0002
0200
0000
0000
0303
0000
0000
,
1000
0100
0010
0001
0010
0100
0010
1000
0001
0010
0001
1000
,
1001
0000
0000
1001
0000
0000
0001
0100
0001
0100
0001
0100
,
0010
0000
0000
0000
0000
0000
0000
0000
0000
0000
0000
0000
0000
0000
0000
0000
1000
0000
0000
0000
0000
0000
0000
0000
0000
0000
0000
0000
0000
0000
0000
0000
0100
0000
0000
0000
0000
0000
0000
0000
0000
0000
0000
0000
0000
0000
0000
0000
1000
0000
0000
0000
0000
0000
0000
0000
0000
0000
0000
0000
0000
0000
0000
0000
0001
0000
0000
0000
0000
0000
0000
0000
0000
0000
0000
0000
0000
0000
0000
0000
1000
0000
0000
0000
0000
0000
0000
0000
0000
0000
0000
0000
0000
0000
0000
0000
0001
0000
0000
0000
0000
0000
0000
0000
0000
0000
0000
0000
1000
0000
0000
0000
0000
0000
0000
0000
0000
0000
0000
0000
0001
0000
0000
0000
0000
0000
0000
0000
0000
0000
0000
0000
0000
0000
0000
0000
0000
0000
0000
0000
0000
0000
0000
0000
0000
0000
0000
0000
0000
0000
1001
0000
0000
0000
0000
0000
0000
0000
0000
0000
0000
0000
0000
0000
0000
0000
0000
0000
0000
0000
0000
0000
0000
0000
0000
0000
0000
0000
0000
0000
0000
0000
0000
0000
0000
0000
0000
0000
0000
0000
0000
0000
,
1000
0000
0000
0000
0000
0000
0000
0000
0000
0000
0000
0000
0001
0000
0000
0000
0000
0000
0000
0000
0000
0000
0000
0000
1000
0000
0000
0000
0000
0000
0000
0000
0000
0000
0000
0000
0000
0000
0000
0000
0000
0000
0000
0000
0000
0000
0000
0000
0000
0000
0000
0000
0000
0000
1001
0000
0000
0000
0000
0000
0000
0000
0000
0000
0000
0000
0000
0000
0000
0000
0000
0000
0000
0000
0000
0000
0000
0000
0000
0000
0000
0000
0000
0000
0000
0000
0000
0000
0000
0000
0000
0000
0000
0000
0000
0000
1000
0000
0000
0000
0000
0000
0000
0000
0000
0000
0000
0000
0000
0000
0000
0000
0100
0000
0000
0000
0000
0000
0000
0000
0000
0000
0000
0000
0000
0000
0000
0000
0010
0000
0000
0000
0000
0000
0000
0000
0000
0000
0000
0000
0000
0000
0000
0000
0001
0000
0000
0000
0000
0000
0000
0000
0000
0000
0000
0000
0000
0000
0000
0000
0010
0000
0000
0000
0000
0000
0000
0000
0000
0000
0000
0000
0000
0000
0000
0000
1000
0000
0000
0000
0000
0000
0000
0000
0000
0000
0000
0000
0000
0000
0000
0000
,
0001
0100
0010
1000
0001
0100
0001
0000
1000
0001
0000
0002
,
2000
0000
0000
3003
0000
0000
1000
0100
0010
0001
0010
0100
,
1000
0001
0100
0010
1000
0001
0100
0000
0010
0000
1000
0000
,
0002
0000
0003
0000
;

//---------------dance-single - ----------------
#NOTES:
     dance-single:
     :
     Medium:
     7:
     0.442,0.569,0.566,0.140,0.244:
0000
0000
0000
0000
,
0000
0000
0000
0000
,
0000
0000
0000
0000
,
0000
0000
0000
0000
,
0000
0000
0000
0000
,
0000
0000
0000
0000
,
1001
1001
0001
0101
,
0010
0100
0110
1001
,
1000
1100
1000
1100
,
0010
0000
0100
0010
0000
0010
0100
0000
0000
0000
0000
0000
,
1001
0110
0001
1001
,
1000
1100
0101
1100
,
0010
0110
0010
1010
,
0001
0000
0001
0100
0000
0100
0010
0000
0000
0000
0000
0000
,
1001
0000
0000
1001
0000
0000
0001
0000
0001
0100
0000
0000
,
0010
0000
0000
0100
0000
0000
1000
0000
1000
0100
0000
0000
,
1000
0000
0000
0100
0000
0000
0010
0000
0001
0010
0000
0000
,
0001
0000
0000
0100
0000
0010
0100
0000
0000
0000
0000
0000
,
1001
1001
0001
0101
,
1000
1100
0010
0110
,
0010
1000
0001
1000
,
0001
0000
0100
0000
0010
0000
1000
0000
0000
0000
0000
0000
,
1100
0110
0001
0101
,
0001
1001
1000
1100
,
0100
0110
0010
0010
,
0001
0010
0001
0010
0001
0010
0001
0000
0000
0000
0000
0000
,
1001
0000
0000
1001
0000
0000
0001
0100
0001
0100
0000
0000
,
0010
0010
0100
0100
,
0010
1010
0010
0110
,
2002
0000
3003
0000
,
1001
0000
0000
1001
0000
0000
0001
0000
0100
0001
0000
0000
,
0010
0000
0000
0100
0000
0000
1000
0000
1000
0100
0000
0000
,
0100
0000
0000
0010
0000
0000
0001
0000
0001
0100
0000
0000
,
0010
0000
0000
0100
0000
0010
0000
0000
0010
0100
0000
0000
,
0110
0110
1010
0001
,
0100
0000
0000
0010
0000
0000
1000
0000
0001
1000
0000
0000
,
1000
0000
0000
0100
0000
0000
0010
0000
0001
0010
0000
0000
,
0202
0000
0303
0000
,
0101
1000
1100
0010
,
0110
0010
0011
0010
,
0110
1000
1100
0010
,
1000
0001
1000
0001
1000
0001
1000
0000
0000
0000
0000
0000
,
0020
0000
0000
0000
,
0000
0000
0230
0000
,
0002
0000
0000
0000
,
0300
0000
0000
0000
,
2003
0000
3002
0000
,
0203
0000
0302
0000
,
2003
0000
3200
0000
,
2300
0000
3020
0000
,
0130
0100
0010
0010
,
1000
1000
0001
0001
,
1000
0001
0100
0010
,
1000
0100
0010
0001
,
0010
0100
1000
0100
,
0010
0001
0100
1000
,
0002
0000
0000
0000
,
1000
0100
0010
0013
,
0011
1100
0110
1001
,
1100
0110
0011
0110
,
0001
0000
0001
0100
0000
0100
0001
0000
0001
0100
0000
0100
,
0010
0000
0010
0100
0000
1000
0100
0000
0100
1000
0000
0000
,
1100
1100
1100
1100
,
0101
0101
0101
0101
,
0010
0000
0010
0100
0000
1000
0100
0000
0010
0001
0000
0010
,
0001
0000
0000
0000
0000
0000
0000
0000
0000
0000
0000
0001
,
1000
0000
0000
0000
0000
1000
0100
0000
0000
0000
0000
0010
,
0001
0000
0000
0000
0000
0001
0100
0000
0000
0000
0000
0010
,
0100
0000
0000
0000
0000
1000
0100
0000
0000
0000
0000
0010
,
0001
0000
0000
0000
0000
0001
0100
0000
0000
0000
0000
0001
,
1000
0000
0000
0000
0000
1000
0001
0000
0000
0000
0000
0010
,
0100
0000
0000
0000
0000
1000
0100
0000
0000
0000
0000
0010
,
0001
1000
0100
0010
,
1001
1001
1001
0000
,
0010
0000
0010
0100
0000
0100
0001
0000
1000
0100
0000
0100
,
1100
0011
1000
1100
,
0011
0000
0000
0110
0000
0000
0001
0100
0001
0100
0000
0000
,
1000
0100
1000
0100
0000
0000
0110
0000
0000
1001
0000
0000
,
1100
0000
0000
0011
0000
0000
0001
0000
0001
0100
0000
0100
,
0020
0000
0130
0100
,
1000
0000
0000
0100
0000
0000
1000
0000
0100
0000
0010
0000
,
0002
0000
0003
0000
;

//---------------dance-single - ----------------
#NOTES:
     dance-single:
     :
     Easy:
     4:
     0.329,0.505,0.504,0.101,0.000: // measure 1
0000
0000
0000
0000
,  // measure 2
0000
0000
0000
0000
,  // measure 3
0000
0000
0000
0000
,  // measure 4
0000
0000
0000
0000
,  // measure 5
0000
0000
0000
0000
,  // measure 6
0000
0000
0000
0000
,  // measure 7
0001
1000
0001
0100
,  // measure 8
0001
0100
0001
0101
,  // measure 9
0001
0100
1000
0100
,  // measure 10
1000
0100
0010
0000
,  // measure 11
1001
0001
1000
0001
,  // measure 12
0100
0100
0010
0010
,  // measure 13
0100
0010
1000
0001
,  // measure 14
1000
0001
0100
0000
,  // measure 15
1001
0001
1000
0100
,  // measure 16
0010
0001
0010
0100
,  // measure 17
1000
0100
0010
0001
,  // measure 18
0100
0100
0100
0000
,  // measure 19
0010
1000
0001
1000
,  // measure 20
0100
0010
0001
0100
,  // measure 21
1000
0100
0010
0001
,  // measure 22
1001
1001
1001
0000
,  // measure 23
1001
0001
1000
0001
,  // measure 24
0100
0001
0100
0010
,  // measure 25
1000
0100
0010
0001
,  // measure 26
0011
1100
1001
0000
,  // measure 27
0010
0010
0100
0100
,  // measure 28
0010
1000
0100
0010
,  // measure 29
0001
0010
0100
1000
,  // measure 30
1001
0000
0000
0000
,  // measure 31
0110
0010
0010
0010
,  // measure 32
0100
0010
1000
0001
,  // measure 33
0100
0001
1000
0010
,  // measure 34
1000
0100
0100
0100
,  // measure 35
1100
0100
0010
0001
,  // measure 36
0011
0001
0100
0010
,  // measure 37
0110
0010
1000
0010
,  // measure 38
1001
0001
1000
0000
,  // measure 39
1001
0001
1000
0100
,  // measure 40
0010
0001
0010
0100
,  // measure 41
1000
0001
0100
0001
,  // measure 42
0100
0010
1000
0000
,  // measure 43
2000
0000
0000
0000
,  // measure 44
0000
0000
0000
0000
,  // measure 45
0002
0000
0000
0000
,  // measure 46
0000
0000
3003
0000
,  // measure 47
0220
0000
0000
0000
,  // measure 48
0300
0000
0000
0000
,  // measure 49
0200
0000
0000
0000
,  // measure 50
0000
0000
0000
0030
,  // measure 51
0302
0000
0000
0000
,  // measure 52
2003
0000
0000
0000
,  // measure 53
3200
0000
0000
0000
,  // measure 54
2300
0000
0000
0000
,  // measure 55
3020
0000
0000
0000
,  // measure 56
0000
0000
0230
0000
,  // measure 57
0002
0000
0000
0000
,  // measure 58
0303
0000
0000
0000
,  // measure 59
1001
1001
0001
0100
,  // measure 60
0101
0101
1000
0100
,  // measure 61
1100
1100
0110
0110
,  // measure 62
0011
0011
0101
0000
,  // measure 63
1001
1001
0001
0001
,  // measure 64
1001
1001
1000
1000
,  // measure 65
1100
0110
0011
0101
,  // measure 66
1001
0000
0000
0000
,  // measure 67
0110
0000
0110
0000
,  // measure 68
1100
0000
0011
0000
,  // measure 69
0101
0000
1010
0000
,  // measure 70
1100
0000
1001
0000
,  // measure 71
0110
0000
1001
0000
,  // measure 72
1100
0000
0011
0000
,  // measure 73
0101
1010
1100
0011
,  // measure 74
0110
1010
1001
0000
,  // measure 75
1001
1000
0100
0010
,  // measure 76
0001
0001
0101
0010
,  // measure 77
0110
1000
1100
0100
,  // measure 78
0011
0010
0001
0100
,  // measure 79
0010
1000
1001
0110
,  // measure 80
1001
0000
1000
0100
,  // measure 81
0010
0001
0200
0000
,  // measure 82
0000
0000
0301
0000
;

//---------------dance-single - ----------------
#NOTES:
     dance-single:
     :
     Beginner:
     2:
     0.145,0.250,0.101,0.000,0.000: // measure 1
0000
0000
0000
0000
,  // measure 2
0000
0000
0000
0000
,  // measure 3
0000
0000
0000
0000
,  // measure 4
0000
0000
0000
0000
,  // measure 5
0000
0000
0000
0000
,  // measure 6
0000
0000
0000
0000
,  // measure 7
0010
0000
0000
0000
,  // measure 8
0010
0000
0010
0000
,  // measure 9
0010
0000
0000
0000
,  // measure 10
0100
0100
0100
0000
,  // measure 11
1000
0000
0000
0000
,  // measure 12
1000
0000
1000
0000
,  // measure 13
1000
0000
0000
0000
,  // measure 14
0001
0001
0001
0000
,  // measure 15
0001
0000
0000
0000
,  // measure 16
1000
0000
0000
0000
,  // measure 17
0010
0000
0000
0000
,  // measure 18
0100
0100
0100
0000
,  // measure 19
1000
0000
0000
0000
,  // measure 20
0001
0000
0000
0000
,  // measure 21
0100
0000
0000
0000
,  // measure 22
0110
0110
0110
0000
,  // measure 23
0010
0000
0000
0000
,  // measure 24
0010
0000
0000
0000
,  // measure 25
0001
0000
0000
0000
,  // measure 26
0000
0000
0000
0000
,  // measure 27
1000
0000
0000
0000
,  // measure 28
1000
0000
0000
0000
,  // measure 29
1000
0000
0000
0000
,  // measure 30
0110
0000
0000
0000
,  // measure 31
0010
0000
0000
0000
,  // measure 32
0010
0000
0000
0000
,  // measure 33
0100
0000
0000
0000
,  // measure 34
1000
1000
0001
0001
,  // measure 35
1000
0000
0000
0000
,  // measure 36
0001
0000
0000
0000
,  // measure 37
0100
0000
0000
0000
,  // measure 38
0010
0010
0010
0000
,  // measure 39
0010
0000
0000
0000
,  // measure 40
0100
0000
0000
0000
,  // measure 41
1000
0000
0000
0000
,  // measure 42
0001
0000
0000
0000
,  // measure 43
1000
0000
0000
0000
,  // measure 44
0000
0000
0001
0000
,  // measure 45
0001
0000
0000
0000
,  // measure 46
1000
0000
0000
0000
,  // measure 47
1001
0000
0010
0000
,  // measure 48
0010
0000
0010
0000
,  // measure 49
0100
0000
0100
0000
,  // measure 50
0100
0000
0100
0000
,  // measure 51
1000
0000
0000
0000
,  // measure 52
1000
0000
0000
0000
,  // measure 53
0001
0000
0000
0000
,  // measure 54
0001
0000
0000
0000
,  // measure 55
0001
0000
0000
0000
,  // measure 56
0000
0000
0001
0000
,  // measure 57
1000
0000
0000
0000
,  // measure 58
0000
0000
0000
0000
,  // measure 59
0110
0010
0010
0000
,  // measure 60
0100
0000
0010
0000
,  // measure 61
1000
1000
1000
1000
,  // measure 62
1000
1000
1000
0000
,  // measure 63
0001
0000
0001
0000
,  // measure 64
0001
0000
0001
0000
,  // measure 65
0100
0100
0100
0100
,  // measure 66
0110
0000
0000
0000
,  // measure 67
0010
0000
0110
0000
,  // measure 68
0100
0000
0110
0000
,  // measure 69
0001
0000
1001
0000
,  // measure 70
1000
0000
1001
0000
,  // measure 71
0001
0000
1000
0000
,  // measure 72
0001
0000
0100
0000
,  // measure 73
0010
0000
0100
0000
,  // measure 74
0010
0010
0010
0000
,  // measure 75
1000
0000
0000
0000
,  // measure 76
0001
0001
0001
0000
,  // measure 77
0000
0000
1001
0000
,  // measure 78
1001
0000
1000
0000
,  // measure 79
0000
0000
0001
0001
,  // measure 80
0001
0000
0000
0000
,  // measure 81
0000
0000
1000
0000
;
