#TITLE:full-consciousness green;
#SUBTITLE:;
#ARTIST:D-crew;
#TITLETRANSLIT:;
#SUBTITLETRANSLIT:;
#ARTISTTRANSLIT:;
#CREDIT:;
#BANNER:bn.PNG;
#BACKGROUND:bg.PNG;
#LYRICSPATH:;
#CDTITLE:NEMESetupLOGO.PNG;
#MUSIC:full-consciousness green.mp3;
#OFFSET:-5.280;
#SAMPLESTART:29.540;
#SAMPLELENGTH:12.000;
#SELECTABLE:YES;
#BPMS:0.000=157.920,165.000=180.000;
#STOPS:164.000=0.120
;
#BGCHANGES:;

//---------------dance-single - ----------------
#NOTES:
     dance-single:
     :
     Hard:
     8:
     0.545,0.553,0.203,0.044,0.088:
1000
0100
0000
0000
,
0010
0000
0000
0000
0001
0000
0000
0000
0010
0000
0000
0001
0010
0000
0100
0000
,
1000
0100
0000
0000
,
0010
0001
0000
0000
,
0001
0100
0010
1000
,
0100
1000
0100
0010
,
0001
0100
0001
0100
0001
0100
0001
0100
,
0001
1000
0001
1000
0001
1000
0001
1000
,
0001
0100
0001
0100
0001
0100
0001
0100
,
0010
0001
0010
0001
0010
0001
0010
0000
,
0100
1000
0100
1000
0100
1000
0100
1000
,
0010
0100
0010
0100
0010
0100
0010
0100
,
0001
0100
0001
0100
0001
0100
0001
0100
,
0001
0100
0001
0100
0001
0100
0001
0100
,
0001
0100
0001
0100
0001
0100
0001
0100
,
0001
0010
0100
1000
0100
0010
0001
0010
,
1000
0000
0100
2000
0000
3100
0000
1000
,
0100
0000
0010
0001
0000
0100
0000
0001
,
0100
0000
0010
0100
0010
0000
0100
0000
,
1000
1000
1100
0000
,
1000
0000
1000
0200
0000
0310
0000
0000
,
0001
0000
0001
0100
0000
0001
0000
0001
,
0100
1100
0010
0011
,
0010
0000
0100
0010
1000
0000
0001
0000
,
1000
0000
1000
0200
0000
0310
0000
0000
,
0001
0000
0001
0020
0000
0130
0000
0100
,
1000
1100
0010
0011
,
0001
0101
0110
0010
,
1000
0000
0001
1000
0000
0010
0000
1000
,
0100
0000
1000
0100
0000
0010
0000
0001
,
0100
0010
0100
1000
,
1100
0011
0010
0110
,
1000
0100
1000
0000
0001
0100
0001
0000
,
0010
0001
0010
0000
1000
0100
1000
0000
,
1100
0011
0110
1010
,
0101
1100
0012
0013
,
0010
0100
0010
0100
0010
0000
1000
0000
,
0001
0100
0001
0100
0001
0000
0010
0000
,
0010
1000
0010
0000
0001
0100
0001
0000
,
0010
0001
0010
0100
,
1000
0000
0000
0001
0000
0000
0010
0000
0100
0000
0000
1000
0000
0000
0100
0000
,
1000
0000
0000
0000
,
1000
0000
0000
0100
0000
0000
0000
0000
1000
0000
0100
0000
1000
0000
0000
0000
,
0010
0000
0000
0100
0000
0000
0001
0000
0100
0000
0000
0010
0000
0000
1000
0000
,
0001
0000
1000
0100
0000
0010
0001
0000
,
0011
0000
0100
0000
,
0110
0000
0100
1000
0000
1000
0100
0000
,
1100
0000
0010
0000
,
0101
0000
0001
0100
0000
0010
1000
0000
,
0110
0000
1000
0100
,
0010
0001
0010
0001
0010
0100
1000
0000
,
0010
0000
1010
0000
1000
0100
0010
0000
,
0001
0000
0100
0000
0001
0100
0001
0000
,
0010
0000
1000
0000
0001
1000
0001
0000
,
0100
0000
1000
0000
0100
1000
0100
0000
,
0010
0000
1000
0000
0001
0100
0001
0000
,
0010
0000
0001
0000
0100
1000
0100
0000
,
0010
0000
1000
0000
0001
1000
0001
0000
,
0010
0000
1000
0000
0100
1000
0100
0000
,
1000
0000
0000
0100
0000
0000
0010
0000
0001
0010
0000
0010
,
0001
0000
0000
0001
0000
0000
0100
0000
0001
0100
0000
0100
,
0001
0000
0000
0010
0000
0000
0100
0000
1000
0100
0000
0010
,
0001
0000
0000
0010
0000
0000
1000
0000
0001
1000
0000
1000
,
0001
0000
0000
0010
0000
0000
0100
0000
1000
0100
0000
0010
,
0001
0000
0000
0100
0000
0000
0001
0000
0001
0100
0000
0010
,
1000
0000
0000
0010
0000
0000
0001
0000
0001
1000
0000
1000
,
0001
1000
0001
1000
0010
1000
0010
1000
,
0001
0100
0010
0001
0010
0001
0010
1000
,
0100
0001
0010
0100
1000
0100
0001
1000
,
0010
1000
0001
0100
0010
1000
0001
1000
,
0100
0010
0001
0100
0001
0100
0010
1000
,
0001
1000
0010
1000
0100
1000
0100
0010
,
0001
0010
0001
0100
0010
1000
0001
1000
,
0100
1000
0010
1000
0001
0100
1000
0001
;

//---------------dance-single - ----------------
#NOTES:
     dance-single:
     :
     Medium:
     6:
     0.444,0.520,0.264,0.185,0.000:
0001
0001
0000
0000
,
1000
1000
0000
0000
,
0001
0001
0000
0000
,
1000
0100
0000
0000
,
0010
0001
1000
0100
,
0010
0001
2000
3002
,
1003
0000
1000
0000
1000
0000
1000
0100
,
0001
0000
0001
0000
0001
0000
0001
0010
,
0100
0000
0100
0000
0100
0000
0100
1000
,
0010
0000
0010
0000
0010
0000
0010
0001
,
1000
0000
1000
0000
1000
0000
1000
0001
,
0100
0000
0100
0000
0100
0000
0001
0100
,
1000
1000
1000
1000
,
1000
1000
1000
1000
,
1000
1000
1000
1000
,
0002
1000
0100
0013
,
0001
0010
0100
1000
,
0100
1000
0100
0000
0001
0100
0001
0000
,
0001
1000
0100
0010
,
0001
0100
0001
0000
0010
1000
0010
0000
,
0100
1000
0100
0010
,
0001
0100
0001
0000
0010
1000
0010
0000
,
1000
0100
0010
0001
,
1000
0001
1000
0000
0010
0100
0010
0000
,
1000
0001
0100
0010
,
1000
0100
1000
0000
0001
0100
0001
0000
,
0010
0001
0100
1000
,
1100
0010
0011
0001
,
0100
0001
0100
0000
1000
0000
0100
0000
,
0010
1000
0010
0000
0100
0000
0010
0000
,
1001
0010
0110
0100
,
1100
0010
0011
0100
,
1000
0001
1000
0000
0010
1000
0010
0000
,
0001
0100
0001
0000
0010
0001
0010
0000
,
0100
1000
0100
0000
0010
1000
0010
0000
,
0001
0100
0001
0000
0010
0000
0001
0000
,
0100
1000
0100
0000
0010
0000
0100
0000
,
0001
0100
0001
0000
1000
0000
0100
0000
,
1000
0100
1000
0000
0010
0001
0010
0000
,
0100
0001
0100
0000
0010
1000
0010
0000
,
1100
0000
0101
0000
,
1010
0000
0000
0000
,
1000
0000
0001
0000
0001
1000
0001
0000
,
2000
0000
3002
0000
,
0203
0000
0000
0001
0000
0000
0000
0000
,
0001
0300
0000
0000
0000
0000
0000
0000
,
0012
0000
0000
0100
0000
0000
0000
0000
,
0013
0000
0000
0000
,
2100
0000
0000
0010
0000
0000
3000
0000
,
1001
0000
0000
0000
,
0010
0100
1000
0010
,
0001
0000
1000
0000
0100
1000
0100
0000
,
1000
0000
0100
0000
0010
0001
0010
0000
,
0100
0000
0001
0000
0100
0001
0100
0000
,
0010
0000
1000
0000
0010
1000
0010
0000
,
2000
0000
3100
0000
,
0020
0000
0031
0000
,
0200
0000
0301
0000
,
2000
0000
3010
0000
,
0001
1000
1100
0011
,
0110
0001
1100
0011
,
0110
1000
1100
0011
,
0110
0001
1100
0011
,
0110
0001
0110
1100
,
0011
1001
0010
0100
,
1100
0010
0011
0100
,
2000
0000
3100
0000
0010
0001
0010
0000
,
0200
0000
0301
0000
0010
0001
0010
0000
,
0020
0000
0130
0000
1000
0100
1000
0000
,
0002
0000
1003
0000
0010
1000
0010
0000
,
0002
0000
0103
0000
0010
0001
0010
0000
,
0200
0000
1300
0000
1000
0100
1000
0000
,
0020
0000
1030
0000
0001
0100
0001
0000
,
1000
0100
1000
0000
0002
0000
2000
3003
;

//---------------dance-single - ----------------
#NOTES:
     dance-single:
     :
     Easy:
     4:
     0.347,0.487,0.159,0.564,0.000:
0000
0000
0000
0000
,
0000
0000
0000
0000
,
0000
0000
0000
0000
,
0000
0000
0000
0000
,
0000
0000
0000
0000
,
0000
0000
0000
0000
,
1000
1000
1000
1000
,
0001
0001
0001
0001
,
0100
0100
0100
0100
,
0010
0010
0010
0010
,
1000
0001
1000
0001
,
0100
0001
0100
0001
,
0010
1000
0010
1000
,
0010
1000
0010
1000
,
0010
1000
0010
1000
,
0002
0000
0000
0000
,
1003
0001
1000
0001
,
2000
0000
0000
0000
,
3001
0100
0001
0100
,
0002
0000
0000
0000
,
0013
0001
0010
0001
,
0020
0000
0000
0000
,
0130
0010
0100
0010
,
0100
1000
0001
0000
,
1000
0100
1000
0100
,
2000
0000
0000
0000
,
3100
0010
0001
0100
,
1000
0002
0200
0303
,
0001
0100
1000
0100
,
0001
0010
0100
1000
,
0001
1000
0001
0100
,
0001
0010
1000
0100
,
2000
0100
0100
3100
,
0002
0100
0100
0103
,
0020
0031
0200
1300
,
0002
0100
0013
0000
,
2000
0100
0100
3100
,
0002
0100
0100
0103
,
0011
0100
1100
0010
,
1010
0100
0101
1100
,
1100
0000
0011
0000
,
1001
0000
0000
0000
,
1000
1000
1000
2000
,
0002
0000
0000
3003
,
0202
0000
0000
0300
,
0200
0000
0303
0000
,
2200
0000
0300
0000
,
0200
0000
3300
0000
,
0022
0000
0030
0000
,
0020
0000
0033
0000
,
0000
0000
0000
0000
,
2002
3000
2000
3000
,
2000
3000
2000
3003
,
2002
0003
0002
0003
,
0002
0003
0002
3003
,
0220
0030
0020
0030
,
0020
0030
0020
0330
,
0220
0300
0200
0300
,
0200
0300
0200
0330
,
0202
0300
0200
0300
,
0200
0300
0200
0303
,
2200
0300
0200
0300
,
0200
0300
0200
3300
,
2020
3000
2000
3000
,
2000
3000
2000
3000
,
2000
3000
2000
3030
,
0001
1000
0001
0100
,
0010
0001
0010
0100
,
1000
0100
0010
0001
,
1000
0001
0100
0001
,
0010
1000
0010
1000
,
0001
0100
1000
0100
,
0010
0001
1000
0010
,
2000
3100
0002
0103
;

//---------------dance-single - ----------------
#NOTES:
     dance-single:
     :
     Beginner:
     1:
     0.067,0.162,0.009,0.000,0.000: // measure 1
0000
0000
0000
0000
,  // measure 2
0000
0000
0000
0000
,  // measure 3
0000
0000
0000
0000
,  // measure 4
0000
0000
0000
0000
,  // measure 5
0000
0000
0000
0000
,  // measure 6
0000
0000
0000
0000
,  // measure 7
0001
0000
0000
0000
,  // measure 8
0001
0000
0000
0000
,  // measure 9
0100
0000
0000
0000
,  // measure 10
0100
0000
0000
0000
,  // measure 11
0010
0000
0000
0000
,  // measure 12
0010
0000
0000
0000
,  // measure 13
1000
0000
0000
0000
,  // measure 14
0000
0000
0000
0000
,  // measure 15
0000
0000
0000
0000
,  // measure 16
1000
0000
0000
0000
,  // measure 17
0001
0000
0000
0000
,  // measure 18
0000
0000
0000
0000
,  // measure 19
0100
0000
0000
0000
,  // measure 20
0000
0000
0000
0000
,  // measure 21
1000
0000
0000
0000
,  // measure 22
0000
0000
0000
0000
,  // measure 23
0010
0000
0000
0000
,  // measure 24
0000
0000
0000
0000
,  // measure 25
0100
0000
0000
0000
,  // measure 26
0000
0000
0000
0000
,  // measure 27
0001
0000
0000
0000
,  // measure 28
0000
0000
0000
0000
,  // measure 29
1000
0000
0000
0000
,  // measure 30
0000
0000
0000
0000
,  // measure 31
0010
0000
0000
0000
,  // measure 32
0000
0000
0000
0000
,  // measure 33
0001
0000
0000
0000
,  // measure 34
0000
0000
0000
0000
,  // measure 35
1000
0000
0000
0000
,  // measure 36
0000
0000
0000
0000
,  // measure 37
0100
0000
0000
0000
,  // measure 38
0000
0000
0000
0000
,  // measure 39
0010
0000
0000
0000
,  // measure 40
0000
0000
0000
0000
,  // measure 41
1000
0000
0001
0000
,  // measure 42
1001
0000
0000
0000
,  // measure 43
1000
0000
0000
0000
,  // measure 44
0000
0000
0000
0000
,  // measure 45
0100
0000
0000
0000
,  // measure 46
0000
0000
0000
0000
,  // measure 47
0010
0000
0000
0000
,  // measure 48
0000
0000
0000
0000
,  // measure 49
0001
0000
0000
0000
,  // measure 50
0000
0000
0000
0000
,  // measure 51
0000
0000
0000
0000
,  // measure 52
1000
0000
0000
0000
,  // measure 53
0001
0000
0000
0000
,  // measure 54
1000
0000
0000
0000
,  // measure 55
0001
0000
0000
0000
,  // measure 56
1000
0000
0000
0000
,  // measure 57
0100
0000
0000
0000
,  // measure 58
0100
0000
0000
0000
,  // measure 59
0010
0000
0000
0000
,  // measure 60
0001
0000
0000
0000
,  // measure 61
1000
0000
0000
0000
,  // measure 62
1000
0000
0000
0000
,  // measure 63
0001
0000
0000
0000
,  // measure 64
0100
0000
0000
0000
,  // measure 65
0100
0000
0000
0000
,  // measure 66
0010
0000
0010
0000
,  // measure 67
0010
0000
0000
0000
,  // measure 68
0100
0000
0000
0000
,  // measure 69
1000
0000
0000
0000
,  // measure 70
0001
0000
0000
0000
,  // measure 71
0001
0000
0000
0000
,  // measure 72
0100
0000
0000
0000
,  // measure 73
0010
0000
0000
0000
,  // measure 74
1000
0000
0001
0000
;
