#TITLE:four pieces of heaven;
#SUBTITLE:;
#ARTIST:LION;
#TITLETRANSLIT:;
#SUBTITLETRANSLIT:;
#ARTISTTRANSLIT:;
#CREDIT:;
#BANNER:bn.PNG;
#BACKGROUND:bg.PNG;
#LYRICSPATH:;
#CDTITLE:15 trooper.png;
#MUSIC:four pieces of heaven.mp3;
#OFFSET:-4.360;
#SAMPLESTART:7.700;
#SAMPLELENGTH:9.820;
#SELECTABLE:YES;
#BPMS:0.000=195.001,72.000=97.501,80.000=195.001,144.000=97.501,152.000=87.500,160.000=84.000,164.000=80.000,166.000=67.500,168.000=62.500,172.000=65.000,176.000=67.500,180.000=70.000,184.000=145.000,192.000=150.000,200.000=160.000,204.000=170.000,208.000=180.000,212.000=195.000;
#STOPS:7.000=0.920
;
#BGCHANGES:;

//---------------dance-single - ----------------
#NOTES:
     dance-single:
     :
     Hard:
     9:
     0.530,0.838,0.081,0.081,0.228:
0000
0000
0000
0000
,
0000
0000
0000
0000
,
1001
0000
0101
0000
0010
1000
0001
1000
,
0010
0000
1100
0000
1000
0100
1000
0100
,
1000
0000
0100
0000
0000
1000
0100
0000
,
0010
0000
0001
0000
0001
1000
0001
0100
,
0001
0000
1001
0000
0000
0001
0100
0000
,
0010
0000
0110
0000
0010
1000
0001
1000
,
0010
0000
0100
0000
0000
1000
0100
0000
,
0010
0000
0001
0000
0001
0100
0001
1000
,
0010
0100
0010
0100
0000
1000
0000
0100
,
0000
0010
0000
0001
1000
0001
1000
0010
,
1000
0001
1000
0010
0000
1000
0000
0100
,
0000
0010
0000
0001
0100
0001
1000
0010
,
1000
0010
1000
0010
0000
1000
0000
0100
,
0000
0010
0000
0001
1000
0001
0100
0010
,
1000
0001
0100
0010
0000
1000
0000
0100
,
0000
0010
0000
0001
0010
0100
1000
0100
,
1100
0000
0100
0000
0000
0000
0000
0000
0000
0000
0000
0000
0001
0010
1000
0010
,
0100
0000
0000
0101
0000
0000
0000
0000
0000
0000
0000
0000
0001
0010
0100
1000
0001
1000
0001
0100
0001
0010
1000
0100
,
1000
0100
0010
0001
0010
1000
0001
0000
,
0010
0100
0001
0000
1000
0100
0010
0001
,
0010
0100
0001
0000
1000
0100
1000
0000
,
0010
0100
0010
0000
0001
0100
0010
1000
,
0001
1000
0010
0000
1000
0100
1000
0000
,
0010
0001
0010
0000
0001
1000
0010
0100
,
0001
1000
0010
0000
1000
0100
1000
0000
,
0001
0100
0001
0000
0001
1000
0010
1000
,
0001
1000
0010
0000
1000
0100
1000
0000
,
0010
0001
0010
0000
0001
0100
0010
1000
,
0100
0010
0001
0010
0100
1000
0100
0000
,
0010
1000
0001
0000
1000
0100
0001
0010
,
1000
0001
1000
0000
0001
1000
0001
0000
,
0001
0100
0001
0000
0010
1000
0001
1000
,
0010
0100
1000
0000
1000
0100
0001
0000
,
0010
1000
0001
0100
0010
1000
0010
1000
,
0001
2000
0000
3001
0000
0000
0000
0000
0000
0000
0000
0000
0100
1000
0010
0001
,
0010
0200
0000
1300
0000
0000
0000
0000
0000
0000
0000
0000
0000
0000
0000
0000
,
1000
0000
0001
0000
,
0001
0010
0100
1000
,
0002
0000
0000
0000
,
0200
0000
0000
0000
0000
0000
0000
0303
,
0010
0100
0010
1000
0001
0000
1000
0000
1000
0100
0010
0001
0010
0100
1000
0100
,
0010
0001
1000
0010
1000
0000
0100
0000
1000
0200
0000
1300
0100
0010
0001
0010
,
0100
1000
0001
1000
0010
0000
0010
1000
0100
0010
0001
0000
0010
0000
1000
0100
,
0000
0000
0000
0000
0010
0000
0001
0000
0000
0000
0010
0000
0100
0000
1000
0000
0001
0000
0000
0000
0010
0000
1000
0000
0010
0000
0000
0000
0001
0100
0001
0100
,
0001
0000
0000
0000
1000
0100
1000
0100
1000
0000
0000
0000
0000
0000
0010
0000
,
0200
0000
0000
0000
0000
0000
0320
2000
,
0000
0000
0000
0000
,
0000
0000
0000
0000
0000
0000
0000
0000
3030
0000
0000
0000
0001
0010
1000
0100
,
0010
0000
0000
0000
0100
0001
1000
0001
1000
0000
0000
0000
1000
0000
0000
0000
,
0001
0100
0001
1000
0010
0000
0100
0000
,
1000
0001
1000
0001
0010
0100
1000
0100
,
0010
0000
0001
0000
0010
0000
0100
0000
1000
0000
0100
0000
0001
0000
0010
0000
0001
0000
0010
0000
0000
1100
0000
0000
,
0001
1000
0000
0100
1000
0100
0010
0001
,
0010
0010
0000
0100
0100
0000
0010
1000
,
0001
1000
0010
1000
0100
0010
0001
1000
,
0010
0100
0000
1000
0100
0000
0010
0001
,
0010
0100
1000
0100
0010
0001
0010
1000
,
0001
1000
0000
0001
0100
0000
0010
0100
,
0001
1000
0010
0000
1000
0100
0010
0000
,
1001
0000
0000
0001
0010
0000
0000
0010
0100
0000
0000
0100
1000
0000
0000
1000
,
0001
1000
0000
0100
1000
0000
1000
0100
,
0010
0001
0000
0001
0100
0000
0010
0100
,
0001
1000
0010
0001
0100
0000
0010
1000
,
0001
1000
0010
1000
0000
0100
1000
0100
,
0010
0001
0010
0100
0000
0001
0100
0001
,
0100
0001
0000
0010
1000
0000
0100
0000
,
1000
0100
0010
0001
0010
0100
0010
1000
,
0202
0000
0000
0000
,
0000
0000
0000
0000
,
0303
0000
0000
0000
;

//---------------dance-single - ----------------
#NOTES:
     dance-single:
     :
     Medium:
     7:
     0.408,0.520,0.016,0.106,0.045:
0000
0000
0000
0000
,
0000
0000
0000
0000
,
0001
0000
1000
0000
0000
0100
1000
0000
,
0100
0000
0010
0000
0001
0100
0001
0100
,
0001
0000
0100
0000
0000
0010
0100
0000
,
0010
0000
1000
0000
0001
1000
0001
1000
,
0001
0000
0100
0000
0000
0010
1000
0000
,
0100
0000
1000
0000
0100
1000
0100
1000
,
0100
0000
1000
0100
0000
0000
0010
0000
,
0100
0000
0001
0000
0001
1000
0001
1000
,
0001
0000
0100
0000
0000
0010
0100
0000
,
1000
0000
0100
0000
1000
0100
1000
0100
,
1000
0000
0100
0000
0000
0010
0100
0000
,
0001
0000
1000
0000
0001
0100
0001
0100
,
0001
0000
0100
0000
0000
0010
0100
0000
,
0010
0000
1000
0000
0100
1000
0100
1000
,
0100
0000
1000
0000
0000
0001
0100
0000
,
0010
0000
1000
0000
0001
1000
0010
1000
,
0001
0000
0000
0000
0000
0000
0001
0100
,
0120
0130
0000
0000
1000
1000
0001
0001
,
1000
0001
1000
0000
0100
0000
1000
0000
,
0100
1000
0100
0000
0010
0001
0010
0001
,
0010
0100
0001
0000
0010
1000
0010
0000
,
1000
0000
0001
0000
0001
0100
0001
0100
,
0001
0100
0001
0000
0010
0100
0010
0000
,
0001
1000
0001
0000
1000
0100
1000
0100
,
1000
0100
1000
0000
0010
0100
0010
0000
,
0001
1000
0001
0000
0001
0000
0001
0000
,
0001
1000
0001
0000
0010
0100
0010
0000
,
1000
0000
0100
0000
0010
0001
0010
0001
,
0010
0000
0100
0000
1000
0100
1000
0000
,
0010
0000
0100
0000
0010
0100
0001
1000
,
0010
0000
1000
0000
0100
1000
0100
0000
,
0010
0000
0100
0000
0001
1000
0010
0000
,
0001
1000
0001
0000
0100
1000
0100
0000
,
0010
0001
0010
0100
0010
1000
0010
1000
,
0001
1000
0000
0001
0000
0000
0000
0000
0000
0000
0000
0000
1000
0000
1000
0000
,
1000
0001
0000
1000
0000
0000
0000
0000
0000
0000
0000
0000
0000
0000
0000
0000
,
1000
0000
1000
0000
,
1000
0100
0010
0001
,
0200
0000
0000
0000
,
0020
0000
0330
0000
,
0001
1000
0100
0010
0001
0010
0100
1000
,
0001
0000
1000
0000
0100
0000
0010
0000
0001
0020
0000
0000
0100
0000
0100
0000
,
0130
0000
0010
0000
1000
0000
0001
0000
0001
0010
0100
0000
0001
0000
1000
0100
,
0000
0000
0000
0010
0000
0001
0100
0002
0000
0000
0000
0000
0000
0000
1000
1000
,
2000
0000
0000
0000
3003
0000
0000
0001
,
0200
0000
0000
0000
0000
0000
0320
2000
,
0000
0000
0000
0000
,
0000
0000
0000
0000
3030
0000
0001
0100
,
0001
0000
1000
0100
1000
0000
0010
0000
,
0100
0000
1000
0100
,
0010
0001
0100
1000
,
0001
1000
0010
1000
0001
1000
0010
1000
,
0001
1000
0000
0100
1000
0000
0100
0000
,
1000
0000
0000
0100
0000
0000
0010
0001
,
0010
0000
0100
0000
1000
0000
0001
1000
,
0001
0000
0000
0100
0000
0000
0010
0100
,
0010
1000
0100
0010
,
0001
0000
0000
0010
0000
0000
0100
0000
,
1000
0100
0000
1000
0100
0000
0010
0000
,
0002
0103
0020
1030
,
0001
1000
0000
0001
1000
0000
0100
0000
,
1000
0100
0000
0010
0001
0000
0001
0100
,
0001
0000
0010
1000
0000
1000
0100
0010
,
0001
0010
0000
0001
1000
0000
0001
1000
,
0001
0100
0000
0010
0100
0000
1000
0100
,
1000
0100
0000
1000
0100
0000
0010
0000
,
0001
1000
0010
1000
0001
0100
0010
1000
,
0202
0000
0000
0000
,
0000
0000
0000
0000
,
0303
0000
0000
0000
;

//---------------dance-single - ----------------
#NOTES:
     dance-single:
     :
     Easy:
     4:
     0.277,0.289,0.065,0.090,0.004: // measure 1
0000
0000
0000
0000
,  // measure 2
0000
0000
0000
0000
,  // measure 3
0001
0100
0000
1000
,  // measure 4
0100
0010
0001
1000
,  // measure 5
0001
0100
0000
0010
,  // measure 6
0100
1000
0001
0001
,  // measure 7
1000
1001
0000
0001
,  // measure 8
0100
1000
0100
1000
,  // measure 9
0100
0110
0000
0010
,  // measure 10
0001
0100
0001
1000
,  // measure 11
0001
0101
0000
0010
,  // measure 12
0100
1000
0010
0001
,  // measure 13
0010
0011
0000
0001
,  // measure 14
0100
1000
0100
0010
,  // measure 15
0001
1000
0000
0001
,  // measure 16
0100
1000
0100
1000
,  // measure 17
0100
0100
0000
1000
,  // measure 18
0100
0010
0001
0010
,  // measure 19
1000
0000
0000
0000
0000
0000
0001
0100
,  // measure 20
0010
1001
0000
0000
2000
0000
0000
0000
,  // measure 21
3001
1000
0100
0010
,  // measure 22
0001
0100
0001
0001
,  // measure 23
0100
1000
0100
0010
,  // measure 24
0001
1000
0001
0100
,  // measure 25
0010
1000
0001
0100
,  // measure 26
0010
0001
0100
1000
,  // measure 27
0100
0010
0001
1000
,  // measure 28
0001
0100
0010
0010
,  // measure 29
0010
0100
1000
0100
,  // measure 30
0010
0001
1000
0001
,  // measure 31
0100
0001
0100
0001
,  // measure 32
0010
1000
0100
0010
,  // measure 33
0001
0010
0100
1000
,  // measure 34
0001
0100
1000
0100
,  // measure 35
0010
0001
0100
1000
,  // measure 36
0100
0010
0001
0010
,  // measure 37
1001
0000
0000
0000
0000
0000
0010
0100
,  // measure 38
0010
0000
0000
0000
,  // measure 39
1000
0000
0001
0000
,  // measure 40
0001
0010
0100
1000
,  // measure 41
0200
0000
0000
0000
,  // measure 42
0320
0000
0000
0030
,  // measure 43
0100
0000
0010
0000
,  // measure 44
1000
0000
0001
0000
,  // measure 45
1000
0001
0100
0000
,  // measure 46
0010
0000
0000
0000
0100
0000
0000
0000
1000
0000
0000
0000
0000
0000
0001
1000
,  // measure 47
0002
0000
0000
0000
,  // measure 48
0203
0000
0000
0000
,  // measure 49
0320
0000
0000
0000
,  // measure 50
0000
0000
0000
0000
0030
0000
1000
0100
,  // measure 51
2000
0000
0000
0100
,  // measure 52
0100
0000
3100
0000
,  // measure 53
1000
0100
0010
0001
,  // measure 54
2002
0000
0000
3003
,  // measure 55
0001
0100
0010
1000
,  // measure 56
0100
0010
0001
0010
,  // measure 57
0100
1000
0001
1000
,  // measure 58
0001
0100
0001
0100
,  // measure 59
0010
1000
0100
0010
,  // measure 60
0001
0010
0100
1000
,  // measure 61
0100
0010
0001
0010
,  // measure 62
1000
1000
1000
1000
,  // measure 63
0001
0000
0000
1000
0000
0000
0100
0000
,  // measure 64
1000
0000
0000
0100
0000
0000
0010
0000
,  // measure 65
0001
0000
0000
0100
0000
0000
0010
0000
,  // measure 66
0100
0000
0000
0010
0000
0000
1000
0000
,  // measure 67
0100
0000
0000
0010
0000
0000
0001
0000
,  // measure 68
0100
0000
0000
0001
0000
0000
1000
0000
,  // measure 69
0001
0100
0010
1000
,  // measure 70
2002
0000
0000
0000
,  // measure 71
0000
0000
0000
0000
,  // measure 72
0000
3003
0000
0000
0000
0000
0000
0000
0000
0000
0000
0000
0000
0000
0000
0000
0000
0000
0000
0000
0000
0000
0000
0000
0000
0000
0000
0000
0000
0000
0000
0000
0000
0000
0000
0000
0000
0000
0000
0000
0000
0000
0000
0000
0000
0000
0000
0000
0000
0000
0000
0000
0000
0000
0000
0000
0000
0000
0000
0000
0000
0000
0000
0000
0000
0000
0000
0000
0000
0000
0000
0000
0000
0000
0000
0000
0000
0000
0000
0000
0000
0000
0000
0000
0000
0000
0000
0000
0000
0000
0000
0000
0000
0000
0000
0000
0000
0000
0000
0000
0000
0000
0000
0000
0000
0000
0000
0000
0000
0000
0000
0000
0000
0000
0000
0000
0000
0000
0000
0000
0000
0000
0000
0000
0000
0000
0000
0000
0000
0000
0000
0000
0000
0000
0000
0000
0000
0000
0000
0000
0000
0000
0000
0000
0000
0000
0000
0000
0000
0000
0000
0000
0000
0000
0000
0000
0000
0000
0000
0000
0000
0000
0000
0000
0000
0000
0000
0000
0000
0000
0000
0000
0000
0000
0000
0000
0000
0000
0000
0000
0000
0000
0000
0000
0000
0000
0000
0000
0000
0000
0000
0000
;

//---------------dance-single - ----------------
#NOTES:
     dance-single:
     :
     Beginner:
     2:
     0.126,0.169,0.024,0.000,0.000: // measure 1
0000
0000
0000
0000
,  // measure 2
0000
0000
0000
0000
,  // measure 3
0010
0000
0000
0000
,  // measure 4
0100
0000
0000
0000
,  // measure 5
1000
0000
0000
0000
,  // measure 6
0001
0000
0000
0000
,  // measure 7
0100
0000
0000
0000
,  // measure 8
0010
0000
0000
0000
,  // measure 9
1000
0000
0000
0000
,  // measure 10
0001
0000
1000
1000
,  // measure 11
1000
0000
0000
0000
,  // measure 12
0000
0000
0001
0001
,  // measure 13
0001
0000
0000
0000
,  // measure 14
0000
0000
0010
0010
,  // measure 15
0010
0000
0000
0000
,  // measure 16
0000
0000
0100
0100
,  // measure 17
0100
0000
0000
0000
,  // measure 18
0000
0000
1000
1000
,  // measure 19
1000
0000
0000
0000
,  // measure 20
0000
1001
0000
0000
0000
0000
0000
0000
,  // measure 21
1000
0000
0000
0000
,  // measure 22
0001
0000
1000
1000
,  // measure 23
1000
0000
0001
0000
,  // measure 24
0100
0000
0010
0010
,  // measure 25
0010
0000
0100
0000
,  // measure 26
0010
0000
1000
1000
,  // measure 27
1000
0000
0001
0000
,  // measure 28
1000
0000
0100
0100
,  // measure 29
0100
0000
0000
0000
,  // measure 30
0010
0000
0010
0010
,  // measure 31
0010
0000
0010
0000
,  // measure 32
0010
0000
0100
0100
,  // measure 33
0100
0000
0100
0000
,  // measure 34
1000
0000
0001
0001
,  // measure 35
0001
0000
1000
0000
,  // measure 36
0001
0000
1000
1000
,  // measure 37
0001
0000
0000
0100
,  // measure 38
0100
0000
0000
0000
,  // measure 39
0010
0000
0000
0000
,  // measure 40
0000
0000
0000
0000
,  // measure 41
1000
0000
0000
0000
,  // measure 42
0001
0000
0000
0000
,  // measure 43
0100
0000
0000
0000
,  // measure 44
0000
0000
0000
0000
,  // measure 45
0010
0000
0000
0000
,  // measure 46
1000
0000
0000
0000
,  // measure 47
0001
0000
0000
0000
,  // measure 48
1000
0000
0000
0000
,  // measure 49
0100
0000
0000
0000
,  // measure 50
0010
0000
0000
0000
,  // measure 51
1001
0000
0000
0000
,  // measure 52
0001
0000
0000
0000
,  // measure 53
1000
0000
0000
0000
,  // measure 54
0001
0000
0000
0000
,  // measure 55
0100
0000
0000
0000
,  // measure 56
0010
0000
0000
0000
,  // measure 57
1000
0000
0000
0000
,  // measure 58
0001
0000
0000
0000
,  // measure 59
1000
0000
0000
0000
,  // measure 60
0100
0000
0000
0000
,  // measure 61
0010
0000
0000
0000
,  // measure 62
0001
0001
1000
1000
,  // measure 63
0001
0000
0000
1000
,  // measure 64
1000
0000
0000
0010
,  // measure 65
0010
0000
0000
0100
,  // measure 66
0100
0000
0000
0001
,  // measure 67
0001
0000
0000
1000
,  // measure 68
1000
0000
0001
0000
,  // measure 69
0100
0000
0010
0000
,  // measure 70
1001
0000
0000
0000
;
