#TITLE:e-motion 2003;
#SUBTITLE:-romatic extra-;
#ARTIST:e.o.s, remixed by dj TAKA;
#TITLETRANSLIT:;
#SUBTITLETRANSLIT:;
#ARTISTTRANSLIT:;
#CREDIT:;
#BANNER:bn.PNG;
#BACKGROUND:bg.PNG;
#LYRICSPATH:;
#CDTITLE:;
#MUSIC:e-motion 2003.mp3;
#OFFSET:-0.020;
#SAMPLESTART:14.936;
#SAMPLELENGTH:11.960;
#SELECTABLE:YES;
#BPMS:0.000=145.000;
#STOPS:32.000=1.241
;
#BGCHANGES:;

//---------------dance-single - ----------------
#NOTES:
     dance-single:
     :
     Hard:
     7:
     0.382,0.431,0.077,0.058,0.340:
0000
0000
0000
0000
,
0000
0000
0000
0000
,
0000
0000
0000
0000
,
0000
0000
0000
0000
0000
0000
0000
0001
,
2002
0000
0000
0000
,
0000
0000
0000
0000
,
0000
0000
0000
0000
,
0000
0000
0000
0000
,
3003
0000
0000
0000
0100
0000
0000
0001
0000
0000
0100
0000
0010
0000
0000
1000
,
0000
0000
0001
0000
1000
0000
0000
0100
0000
0000
1000
0000
0100
0000
0000
0001
,
0000
0000
0100
0000
0001
0000
0000
0100
0000
0000
1000
0000
0100
0000
0000
0010
,
0000
0000
0001
0000
0100
0000
0000
0001
0000
0000
0100
0000
1000
0000
0000
0100
,
0000
0000
1000
0000
0100
0000
0000
1000
0000
0000
0100
0000
0010
0000
0000
0100
,
0000
0000
0010
0000
0001
0000
0000
0010
0000
0000
0100
0000
0001
0000
0000
0100
,
0000
0000
0010
0000
1000
0000
0000
0010
0000
0000
1000
0000
0100
0000
0000
1000
,
0000
0000
0100
0000
0010
0000
0000
0001
0000
0000
0100
0000
1000
0000
0000
0010
,
0000
0000
0100
0000
0110
0000
0000
0110
0000
0000
0010
0000
0010
0000
0000
0100
,
0000
0000
1000
0000
0100
0000
0000
0010
0000
0000
0001
0000
0010
0000
0000
0100
,
0000
0000
1000
0000
0100
0000
0000
1000
0000
0000
0100
0000
0010
0000
0000
0001
,
0000
0000
0100
0000
1000
0000
0000
0100
0000
0000
0001
0000
1000
0000
0000
0001
,
0000
0000
0010
0000
0100
0000
0000
0010
0000
0000
0100
0000
1000
0000
0000
0100
,
0000
0000
0010
0000
0001
0000
0000
0010
0000
0000
0100
0000
0001
0000
0000
0100
,
0000
0000
1000
0000
0100
0000
0000
0010
0000
0000
0001
0000
0100
0000
0000
1000
,
0000
0000
0100
0000
1100
0000
0000
0010
0000
0000
0001
0000
0100
0000
0000
0001
,
0000
1000
0002
0000
2003
0000
3200
0000
,
2300
0000
3100
0000
0000
0010
0000
0000
,
0001
0000
0000
0010
0000
0000
0100
0010
1000
0001
0100
0010
,
1000
0000
0001
0000
0100
0000
0010
0000
0000
0000
0000
0000
1000
0000
0000
0100
0000
0000
1000
0000
0000
0000
0000
0000
,
1000
0000
1100
0000
0010
0001
0000
0000
,
0010
0000
0000
0100
0000
0000
1000
0000
,
0100
0010
0001
0000
0000
0010
0100
0000
,
0000
0000
1000
0000
0000
0001
0000
0000
,
0100
0000
0110
0010
0100
0010
0100
1000
,
0000
0000
1000
0100
0010
0001
0010
0100
,
0000
0000
1000
0100
1000
0000
0000
0000
0000
0000
0000
0000
0010
0000
0000
0000
,
0000
0001
0000
0010
,
0000
0100
1000
0100
,
0010
0001
0100
1000
,
0001
1000
0010
1000
,
0001
0010
0001
0100
,
1000
0000
0000
0000
1001
0000
0000
0001
0000
0000
1000
0000
0001
0000
0000
1000
,
0000
0000
0100
0000
1000
0000
0000
0100
0000
0000
0010
0000
0001
0000
0000
0010
,
0000
0000
0100
0000
0010
0000
0000
0100
0000
0000
0010
0000
1000
0000
0000
0100
,
0000
0000
0010
0000
0001
0000
0000
0010
0000
0000
0100
0000
0001
0000
0000
0100
,
0000
0000
0010
0000
1000
0000
0000
0010
0000
0000
1000
0000
0100
0000
0000
1000
,
0000
0000
0100
0000
0010
0000
0000
0001
0000
0000
0010
0000
0001
0000
0000
0010
,
0000
0000
0100
0000
0001
0000
0000
0100
0000
0000
0001
0000
1000
0000
0000
0010
,
0000
0000
1000
0000
0100
0000
0000
0001
0000
0000
0100
0000
0010
0000
0000
0100
,
0000
0000
1000
0000
0100
0000
0000
1000
0000
0000
0100
0000
0010
0000
0000
0001
,
0000
0000
0100
0000
0001
0000
0000
1000
0000
0000
0100
0000
1000
0000
0000
0010
,
0000
0000
1000
0000
0010
0000
0000
0100
0000
0000
0010
0000
0001
0000
0000
0010
,
0000
0000
0100
0000
1000
0000
0000
0100
0000
0000
0001
0000
1000
0000
0000
0100
,
0000
0000
0010
0000
0001
0000
0000
0010
0000
0000
0100
0000
1000
0000
0000
0100
,
0000
0000
1000
0000
0100
0000
0000
0010
0000
0000
0001
0000
1000
0000
0000
0001
,
0000
0000
0100
0000
1000
0000
0000
0100
0000
0000
0010
0000
0001
0000
0000
0010
,
0000
0000
1000
0000
0100
0000
0000
0001
0000
0000
0010
0000
1000
0000
0000
0001
,
0000
0100
1001
0000
0000
0000
0000
0000
;

//---------------dance-single - ----------------
#NOTES:
     dance-single:
     :
     Medium:
     5:
     0.355,0.377,0.029,0.585,0.000:
0000
0000
0000
0000
,
0000
0000
0000
0000
,
0000
0000
0000
0000
,
0000
0000
0000
0000
0000
0000
0000
1000
,
2000
0000
0000
0000
,
0000
0000
0000
0000
,
0000
0000
0000
0000
,
0000
0000
0000
0000
,
3000
0002
0103
2000
,
3100
0020
1030
0020
,
0031
0002
0103
2000
,
3100
0020
1030
0200
,
1300
0100
2000
0000
3100
0000
0020
0000
,
0031
0200
0301
0020
,
1030
0200
0310
0020
,
0031
0200
0301
0020
,
1030
1001
2000
3001
,
0002
1003
0200
1300
,
0010
1000
0020
0000
1030
0000
0200
0000
,
0301
0020
0031
0200
,
1300
0100
2000
0000
3100
0000
0020
0000
,
0031
0200
0301
0020
,
1030
2000
3001
0002
,
0103
0020
2030
3200
,
2300
3100
0001
0010
,
0001
0000
1000
0000
0000
0001
0000
0000
,
1000
0001
0200
0302
,
0203
0000
0301
0000
0000
0100
0000
0000
,
1000
0000
0010
0000
1000
0100
0010
0000
,
0001
0000
0001
1000
0000
1000
0100
0000
,
0010
0000
0001
0000
0000
1000
0100
0000
,
0000
0000
0010
0000
0000
0001
0000
0000
,
1000
0000
0100
0000
1000
0000
0010
0001
,
0000
0000
0010
0000
0000
0100
0000
0000
,
1000
0001
0000
1000
,
0100
0010
0000
0001
,
0000
1000
0100
0100
,
0010
0001
1000
0100
,
0010
0001
0000
1000
,
0001
0101
0000
1000
,
0000
0020
1030
0200
,
0310
0002
0013
0200
,
1300
0100
2000
0000
3010
0000
0200
0000
,
0310
0002
1003
0200
,
1300
0100
2000
0000
3100
0000
0020
0000
,
0130
0002
0013
0200
,
0301
0100
0002
0000
0013
0000
0002
0000
,
0103
2000
3100
0020
,
0130
0010
2000
0000
3100
0000
0020
0000
,
0031
0200
0301
0020
,
1030
0100
0020
0000
0130
0000
0002
0000
,
1003
0200
1300
0020
,
0031
0100
0001
0000
0100
0000
1000
0000
,
0100
0010
0001
0010
,
1000
0100
0010
0001
,
0100
1000
0010
0001
,
0100
1001
0000
0000
;

//---------------dance-single - ----------------
#NOTES:
     dance-single:
     :
     Easy:
     3:
     0.218,0.270,0.038,0.029,0.000:
0000
0000
0000
0000
,
0000
0000
0000
0000
,
0000
0000
0000
0000
,
0000
0000
0000
0000
,
0000
0000
0000
0000
,
0000
0000
0000
0000
,
0000
0000
0000
0000
,
0000
0000
0000
0000
,
0000
0001
1000
0001
,
1000
0001
1000
0001
,
1000
0010
0100
0010
,
0100
0010
0100
0010
,
0100
0001
0100
0001
,
0100
0001
0100
0001
,
0100
1000
0100
1000
,
0100
1000
0100
1000
,
0100
1010
1000
0010
,
1000
0010
1000
0010
,
1000
0001
0100
0001
,
0100
0001
0100
0001
,
0100
0010
0100
0010
,
0100
0010
0100
0010
,
0100
1000
0001
1000
,
0001
1000
0001
1000
,
0001
1001
1000
1000
,
0000
0001
0000
0000
,
0100
0100
0002
0000
,
0000
1003
0000
0000
,
0010
0100
0000
1000
,
0000
0000
1000
0001
,
0100
0010
0000
1000
,
0000
0001
0000
0100
,
0000
2000
0000
0000
,
0000
0001
0000
0000
,
0000
0001
0000
0000
,
0000
0001
0000
0000
,
3000
0002
0000
0000
,
0000
0000
0000
0000
,
0000
1003
0000
0010
,
0100
1000
0000
0000
,
0000
0001
0001
0001
,
0001
1000
1000
1000
,
1000
0100
0100
0100
,
0100
0010
0010
0010
,
0010
0001
0010
0100
,
1000
0100
0010
0001
,
0010
0100
1000
0100
,
0010
0001
1000
0001
,
0101
0100
0010
1000
,
0001
0100
0010
1000
,
0001
1000
0100
0001
,
0100
1000
0010
0001
,
0010
1000
0010
0100
,
0000
0001
0010
0100
,
0000
1000
0000
0001
,
0000
0100
0010
0100
,
0010
0110
0000
0000
;

//---------------dance-single - ----------------
#NOTES:
     dance-single:
     :
     Beginner:
     1:
     0.056,0.081,0.019,0.000,0.000: // measure 1
0000
0000
0000
0000
,  // measure 2
0000
0000
0000
0000
,  // measure 3
0000
0000
0000
0000
,  // measure 4
0000
0000
0000
0000
,  // measure 5
0000
0000
0000
0000
,  // measure 6
0000
0000
0000
0000
,  // measure 7
0000
0000
0000
0000
,  // measure 8
0000
0000
0000
0000
,  // measure 9
0000
1000
0000
0000
,  // measure 10
0000
0000
0000
0000
,  // measure 11
0000
0001
0000
0000
,  // measure 12
0000
0000
0000
0000
,  // measure 13
0000
0010
0000
0000
,  // measure 14
0000
0000
0000
0000
,  // measure 15
0000
0100
0000
0000
,  // measure 16
0000
1000
0000
0000
,  // measure 17
0000
0001
0000
0000
,  // measure 18
0000
0001
0000
0000
,  // measure 19
0000
0001
0000
0000
,  // measure 20
0000
1000
0000
0000
,  // measure 21
0000
1000
0000
0000
,  // measure 22
0000
0100
0000
0000
,  // measure 23
0000
0100
0000
0000
,  // measure 24
0000
0010
0000
0000
,  // measure 25
0000
0110
0000
0000
,  // measure 26
0000
0001
0000
0000
,  // measure 27
0000
0000
0000
0000
,  // measure 28
0000
1000
0000
0000
,  // measure 29
0000
0000
0000
0000
,  // measure 30
0000
0000
0000
0000
,  // measure 31
0000
0010
0000
0000
,  // measure 32
0000
0100
0000
0000
,  // measure 33
0000
0001
0000
0000
,  // measure 34
0000
0000
0000
0000
,  // measure 35
0000
1000
0000
0000
,  // measure 36
0000
0000
0000
0000
,  // measure 37
0000
0010
0000
0000
,  // measure 38
0000
0000
0000
0000
,  // measure 39
0000
0100
0000
0000
,  // measure 40
0000
0000
0000
0000
,  // measure 41
0000
1000
0000
0000
,  // measure 42
0000
1000
0000
0000
,  // measure 43
0000
1000
0000
0000
,  // measure 44
0000
1000
0000
0000
,  // measure 45
0000
0100
0000
0000
,  // measure 46
0000
0100
0000
0000
,  // measure 47
0000
0100
0000
0000
,  // measure 48
0000
0100
0000
0000
,  // measure 49
0000
0001
0000
0000
,  // measure 50
0000
0001
0000
0000
,  // measure 51
0000
0001
0000
0000
,  // measure 52
0000
0001
0000
0000
,  // measure 53
0000
0010
0000
0000
,  // measure 54
0000
0010
0000
0000
,  // measure 55
0000
0010
0000
0000
,  // measure 56
0000
0010
0000
0000
,  // measure 57
0000
1001
0000
0000
;
