#TITLE:disable dA STACK;
#SUBTITLE:;
#ARTIST:D-Crew;
#TITLETRANSLIT:;
#SUBTITLETRANSLIT:;
#ARTISTTRANSLIT:;
#CREDIT:;
#BANNER:bn.PNG;
#BACKGROUND:disable.png;
#LYRICSPATH:;
#CDTITLE:Pop'n Music.png;
#MUSIC:disable dA STACK.mp3;
#OFFSET:-6.803;
#SAMPLESTART:40.160;
#SAMPLELENGTH:12.000;
#SELECTABLE:YES;
#BPMS:0.000=92.500,4.000=185.000,132.000=92.500,138.000=185.000,142.000=92.500,148.000=185.000,238.000=185.000,239.000=92.500,247.000=185.000;
#STOPS:188.000=0.973
,193.000=0.973
,214.000=0.973
;
#BGCHANGES:;

//---------------dance-single - ----------------
#NOTES:
     dance-single:
     :
     Hard:
     9:
     0.713,0.791,0.768,0.088,0.348:
0000
0000
0000
0000
0000
0000
1001
1001
1001
0000
0000
0000
0010
0100
0010
0000
,
1100
0010
0011
0001
,
0101
0010
1010
0010
,
0110
0100
1100
0010
,
0011
0010
0110
1002
,
0103
0010
1010
0010
,
0011
0010
0110
0100
,
1001
0010
1100
1010
,
0010
0000
0100
0000
0010
0000
1000
0000
0010
0000
0100
0000
0001
0100
0001
0100
,
0001
1000
0010
1000
0001
1000
0010
1000
,
0001
0010
0100
1000
0001
1000
0001
0100
,
0010
0100
0010
0001
0010
0100
0001
0100
,
1000
0100
0010
0001
1000
0100
0010
1000
,
0010
0100
0010
1000
0010
0100
0010
0100
,
0001
0100
0010
1000
0001
0100
0010
1000
,
0100
0010
0100
0010
0001
1000
0001
0100
,
0010
0001
1000
0000
1000
1000
1001
0000
,
0001
1000
0001
1000
0100
0010
0001
0000
,
0001
1000
0100
0010
0001
1000
1001
0000
,
0100
0001
0010
1000
0100
1000
1100
0000
,
0110
0000
1001
0000
0010
1000
1010
0000
,
0010
0100
0010
1000
0001
0100
1100
0000
,
0010
1000
0001
0100
0010
1000
0011
0000
,
0001
0010
0110
1010
,
0011
0000
1100
0000
0010
0010
0110
0000
,
0001
1000
0001
1000
0010
1000
0010
1000
,
0001
0100
0001
0100
0010
0001
0010
0001
,
0010
0100
1000
0100
0010
0001
0010
0100
,
0001
1000
0010
1000
0001
0010
1000
0100
,
0010
0001
0010
0100
0001
1000
0001
1000
,
0010
1000
0001
1000
0010
1000
0001
0100
,
1000
0100
0010
0001
0010
0100
0010
1000
,
0010
0100
0010
0000
0001
0001
0001
0000
,
1000
0000
0000
0100
0000
0000
0010
0000
0001
0000
0000
0010
0000
0000
0100
0000
1000
0000
0000
0100
0000
0000
0001
0000
0100
0000
0000
0010
0000
0000
0001
0000
,
1000
0000
0000
0100
0000
0000
0010
0000
0001
0000
0000
0100
0000
0000
0001
0000
1000
0000
0000
0000
0000
0000
0000
0000
0012
0000
0000
0000
0000
0000
0000
0000
,
1000
0000
0000
0000
2000
0000
0000
0000
0000
0000
0000
0000
3003
0000
0000
0000
0010
0000
0000
0100
0000
0000
0001
0000
1000
0000
0000
0100
0000
0000
0001
0000
,
0010
0000
0000
1000
0000
0000
0001
0000
0010
0000
0000
0100
0000
0000
1000
0000
0001
0000
0000
0100
0000
0000
0010
0000
1000
0000
0000
0001
0000
0000
0100
0000
,
0010
0000
0100
0000
1000
0000
0100
0000
0010
0000
0001
0010
0001
0000
0100
1000
,
0100
0000
0000
0110
0000
0000
0010
0000
0100
0000
0000
1100
0000
0000
0010
0000
,
0100
0000
0000
0110
0000
0000
0001
0000
1000
0000
0000
1010
0000
0000
0001
0000
,
0100
0000
0000
0011
0000
0000
0001
0000
0100
0000
0000
1001
0000
0000
0010
0000
,
0100
0000
0000
0011
0000
0000
0100
0000
1000
0000
0000
0000
0010
0000
0000
0000
,
0011
0000
0000
0101
0000
0000
1000
0000
0100
0000
0000
1100
0000
0000
0010
0000
,
0100
0000
0000
0110
0000
0000
0010
0000
1000
0000
0000
1010
0000
0000
0001
0000
,
0100
0000
0000
0110
0000
0000
1000
0000
0100
0000
0000
1100
0000
0000
0010
0000
,
0001
0100
0001
0100
0001
0100
0001
0100
0001
0100
0001
0100
0001
0100
0001
0100
,
0001
0000
0000
1010
0000
0000
0100
0000
1100
0000
0000
0010
0000
0000
0001
0000
,
1001
0000
0000
0000
0011
0000
0000
0010
0000
0000
0100
0000
1010
0000
0000
0010
,
0000
0000
0001
0000
1100
0000
0000
0000
0001
0000
0000
0100
0000
0000
1000
0000
,
0100
0000
0000
1000
0000
0000
0010
0000
0101
0000
0000
0110
0000
0000
1100
0000
,
1010
0000
0000
1000
0000
0000
0001
0000
0010
0000
0100
1000
0100
1000
0200
0000
,
0000
0001
0000
1000
2300
0000
0002
0000
,
0000
0000
0000
0000
3003
0000
0000
0000
1001
0000
0000
0100
0000
0000
0010
0000
,
1000
0000
0000
0001
0000
0000
0100
0000
0001
0000
0000
0000
1001
0000
0000
0010
,
0000
0000
0100
0000
1000
0000
0000
0001
0000
0000
0010
0000
1010
0000
0000
0010
,
0000
0000
0100
0000
0110
0000
0000
0010
0000
0000
0010
0000
0110
0000
0000
0011
,
0000
0000
1100
0000
0101
0000
0000
0110
0000
0000
1100
0000
1001
0000
0000
0110
,
0000
0000
0011
0000
1100
0000
0000
0110
0000
0000
0011
0000
1100
0000
0000
0011
,
0000
0000
1100
0000
0110
0000
0000
0011
0000
0000
0110
0000
1001
0000
1000
0000
,
0001
0000
0010
0000
0100
0000
1000
0000
0100
1000
0100
1000
0100
0000
0010
0000
,
0001
0000
0010
0000
0100
0000
1000
0100
,
0010
0000
0001
0000
0001
0010
1000
0001
0010
1000
0100
0001
1000
0000
0100
0000
,
0010
0000
0001
0100
0010
0000
1000
0100
,
0010
0000
0001
1000
0010
0000
0100
1000
,
0010
0000
0001
0100
0010
0000
1000
0100
,
0010
1000
2002
0000
0000
3003
0010
0010
,
0010
0000
0100
0100
0100
0000
1000
1000
,
1000
0000
0001
0001
0001
0000
1001
0000
,
0001
0001
0001
0000
1001
0000
1100
0000
,
0011
0101
0011
2002
,
0000
0000
0000
0000
,
0000
0000
0000
3003
;

//---------------dance-single - ----------------
#NOTES:
     dance-single:
     :
     Medium:
     8:
     0.626,0.760,0.803,0.221,0.265:
0000
0000
0000
0000
0000
0000
1000
0100
1000
0000
0000
0000
0010
0100
0010
0000
,
0011
0001
0011
0010
,
0011
0001
0011
0010
,
0011
0001
0011
0001
,
0011
0010
0011
2100
,
3010
0010
1010
0100
,
1100
0010
1010
0010
,
1001
0010
0100
1100
,
0010
0000
1000
0100
0010
0001
0010
0000
,
0010
1000
0010
0000
0010
0100
0010
0000
,
0010
0001
0010
0000
0010
0100
0010
0000
,
0010
0100
0010
0000
0010
1000
0010
0000
,
0101
1100
0011
0110
,
0001
1000
0001
0000
0010
1000
0010
0000
,
0001
0100
0010
0000
1000
0100
0010
0000
,
0101
0000
0010
0010
0010
0000
0100
0000
,
1000
0000
0100
0000
0001
1000
0010
0000
,
1000
0000
0100
0000
0010
1000
0000
0000
,
1100
0000
0011
0000
0010
0100
0000
0000
,
1001
0010
1100
0011
,
0110
0000
1001
0000
0001
0001
0000
0000
,
0001
0010
1020
0130
,
0001
0010
1100
0010
,
0101
0010
1100
0011
,
0110
1100
0011
0010
,
1000
0100
0010
0001
1000
0100
0010
0001
,
1000
0100
0010
0001
1000
0100
0010
0001
,
1000
0100
0010
0001
1000
0100
0010
0001
,
1000
0100
0010
0001
0010
0100
1000
0000
,
0001
0010
0100
1000
0001
0010
0100
1000
,
0001
0010
0100
1000
0001
0010
0100
1000
,
0001
0000
0010
0010
0010
0000
0100
0000
,
1000
0000
0001
0000
1001
0110
1001
0000
,
1000
0000
0000
0100
0000
0000
1000
0000
0100
0000
0000
1000
0000
0000
0100
0000
1000
0000
0000
0100
0000
0000
1000
0000
0100
0000
0000
1000
0000
0000
0100
0000
,
1000
0000
0000
0100
0000
0000
1000
0000
0100
0000
0000
1000
0000
0000
0100
0000
1000
0000
0000
0000
0000
0000
0000
0000
1002
0000
0000
0000
0000
0000
0000
0000
,
1000
0000
0000
0000
1003
0000
0000
0000
0000
0000
0000
0000
0000
0000
0000
0000
0001
0000
0000
0010
0000
0000
0001
0000
0010
0000
0000
0001
0000
0000
0010
0000
,
0001
0000
0000
0010
0000
0000
0001
0000
0010
0000
0000
0001
0000
0000
0010
0000
0001
0000
0000
0010
0000
0000
0001
0000
0010
0000
0000
0001
0000
0000
0010
0000
,
0001
0010
0100
1000
0001
0100
0110
0100
,
0101
0000
0000
0100
0000
0000
1000
0000
0100
0000
0000
0010
0000
0000
0100
0000
,
0001
0000
0000
1000
0000
0000
0100
0000
1000
0000
0000
0010
0000
0000
0100
0000
,
1000
0000
0000
0010
0000
0000
0100
0000
0001
0000
0000
0010
0000
0000
0100
0000
,
1000
0000
0000
0100
0000
0000
0010
0000
1000
0000
0000
0001
0000
0000
0100
0000
,
1000
0000
0000
0100
0000
0000
0010
0000
1000
0000
0000
0001
0000
0000
0010
0000
,
0100
0000
0000
1000
0000
0000
0100
0000
0010
0000
0000
0001
0000
0000
0010
0000
,
0100
0000
0000
1000
0000
0000
0100
0000
0010
0000
0000
1000
0000
0000
0010
0000
,
2002
0000
0000
0000
0000
0000
0000
3003
,
0100
0000
0000
1100
0000
0000
0010
0000
0110
0000
0000
0010
0000
0000
0010
0000
,
0011
0000
0000
0000
0001
0000
0000
0100
0000
0000
1000
0000
0010
0000
0000
0100
,
0000
0000
1000
0000
1100
0000
0000
0000
0110
0000
0000
0010
0000
0000
0100
0000
,
1000
0000
0000
0100
0000
0000
1000
0000
1001
0000
0000
1001
0000
0000
0110
0000
,
0110
0000
0000
0110
0000
0000
1000
0000
0100
0000
0001
0000
0010
0000
0200
0000
,
0000
1000
0000
1000
1300
0000
0000
0000
,
0000
0000
0000
0000
0000
0000
0000
0000
1000
0000
0000
0100
0000
0000
0010
0000
,
1000
0000
0000
0001
0000
0000
0100
0000
1000
0000
0000
0000
1000
0000
0000
0100
,
0000
0000
0010
0000
0001
0000
0000
0010
0000
0000
1000
0000
0001
0000
0000
1000
,
0000
0000
0101
0000
0101
0000
0000
0101
0000
0000
0101
0000
1100
0000
0000
1100
,
0000
0000
1100
0000
0110
0000
0000
0110
0000
0000
0110
0000
0011
0000
0000
0011
,
0000
0000
0011
0000
1100
0000
0000
1100
0000
0000
1100
0000
0110
0000
0000
0110
,
0000
0000
0110
0000
1001
0000
0000
1001
0000
0000
1001
0000
2002
0000
0000
0000
,
0000
0000
0000
0000
3003
0000
1000
0100
,
0010
0000
0001
0000
0010
0000
0100
1000
,
0100
0010
2000
3200
0320
0031
0100
0000
,
1100
0120
0130
2100
,
3100
0012
0013
0102
,
0103
0120
0130
2100
,
0100
0020
3030
0120
,
0130
2100
3010
0012
,
0013
0102
0103
0120
,
0100
0100
0100
0000
0130
0000
1100
0000
,
0110
0011
1100
2002
,
0000
0000
0000
0000
,
0000
0000
0000
3003
;

//---------------dance-single - ----------------
#NOTES:
     dance-single:
     :
     Easy:
     6:
     0.500,0.570,0.882,0.124,0.000:
0000
0000
0000
2000
3000
0000
0001
0001
,
1100
0010
0100
1000
,
0100
0001
0100
1000
,
0100
0001
0100
1000
,
0100
0001
0100
0020
,
1030
0100
1000
0100
,
0010
0001
0100
1000
,
1001
0010
0100
1000
,
0100
0000
1000
0000
0010
0000
0100
0010
,
0100
0100
0100
0100
,
1000
1000
1000
1000
,
0010
0010
0011
1100
,
0011
1100
0011
1100
,
0001
0001
0001
0001
,
0100
1000
0010
0100
,
1000
0000
0001
1000
0001
0000
0100
0000
,
1000
0000
0010
0000
1000
0100
0010
0000
,
0001
0100
1000
0100
,
0001
0010
1000
0100
,
0010
1000
0001
1000
,
0010
0110
0100
1100
,
0010
1000
1020
0031
,
0100
1000
0100
0001
,
0100
1000
1001
1001
,
1001
1001
0001
0010
,
1100
1100
1100
1100
,
0101
0101
0101
0101
,
0011
0011
0011
0011
,
1010
1010
1010
1010
,
1001
1001
1001
1001
,
0110
0110
0110
0110
,
1100
0000
0010
0010
0010
0000
0001
0000
,
0100
0000
1000
0000
0001
0001
0001
0000
,
1001
0010
0010
0010
,
0010
0010
0100
1000
,
0020
0200
0000
0330
1000
0000
0001
0000
,
0100
0010
1000
0100
,
0001
1000
0010
0100
1000
0100
0010
0000
,
0001
0011
0100
1100
,
0010
0110
1000
1100
,
0010
1010
0001
0011
,
0001
0101
0010
0110
,
1000
1001
0010
1010
,
0001
0011
0001
0101
,
1000
1100
0010
1010
,
2002
0000
0000
0000
0000
0000
0000
3003
,
1000
0100
0010
0001
,
1010
0001
0100
1000
,
0010
0101
1000
0100
,
0010
1000
1001
0010
,
0100
0000
1000
0000
0010
0100
0010
2000
,
0000
0100
0000
0100
3100
0000
0000
0000
,
0000
0000
0001
0100
,
1000
0010
0110
1000
,
0100
0010
0100
0010
,
0010
1000
0010
0000
0000
0001
0101
0000
,
0000
0100
1100
0000
0000
0010
0110
0000
,
0000
0001
0011
0000
0000
0001
0101
0000
,
0000
0010
1010
0000
0000
0010
0110
0000
,
0000
0000
0000
0000
1000
0100
0020
0000
,
0000
0032
0000
1003
,
0100
0000
0010
0001
0010
0001
1100
0000
,
1100
1100
1100
1100
,
1100
1100
1100
1100
,
1100
1100
1100
1100
,
1100
2200
3300
0011
,
0011
0011
0011
0011
,
0011
0011
0011
0011
,
0011
0011
0011
0000
0011
0000
1001
0000
,
0110
1001
0110
2002
,
0000
0000
0000
0000
,
0000
0000
0000
3003
;

//---------------dance-single - ----------------
#NOTES:
     dance-single:
     :
     Beginner:
     3:
     0.160,0.308,0.194,0.000,0.000: // measure 1
0000
0000
0000
0000
,  // measure 2
1000
0000
0000
0000
,  // measure 3
1000
0000
0000
0000
,  // measure 4
1000
0000
0000
0000
,  // measure 5
1000
0000
0000
0100
,  // measure 6
0100
0000
0000
0000
,  // measure 7
0000
0000
0000
0000
,  // measure 8
0100
0000
0000
0000
,  // measure 9
0000
0100
0100
0100
,  // measure 10
0100
0000
0000
0000
,  // measure 11
0010
0000
0000
0000
,  // measure 12
0010
0000
0000
0000
,  // measure 13
0001
0001
0001
0000
,  // measure 14
0001
0000
0000
0000
,  // measure 15
1000
0000
0000
0000
,  // measure 16
0100
0100
0100
0000
,  // measure 17
0000
0000
0010
0110
,  // measure 18
0100
0000
0000
0000
,  // measure 19
0100
0000
0000
0000
,  // measure 20
0100
0000
0000
0000
,  // measure 21
0000
0000
0000
0000
,  // measure 22
1000
0000
0000
0000
,  // measure 23
1000
0000
0000
0000
,  // measure 24
0001
0000
0000
0000
,  // measure 25
0001
0000
0000
0000
,  // measure 26
1001
0000
0000
0000
,  // measure 27
0100
0000
0000
0000
,  // measure 28
0100
0000
0000
0000
,  // measure 29
0100
0100
0100
0000
,  // measure 30
0010
0000
0010
0000
,  // measure 31
0010
0000
0010
0000
,  // measure 32
0010
0010
0010
0000
,  // measure 33
1000
0000
0001
1000
,  // measure 34
1001
0000
0000
0000
,  // measure 35
0000
0000
1000
0001
,  // measure 36
1000
0000
0100
0000
,  // measure 37
0010
0000
1000
1000
,  // measure 38
0001
1000
0001
1000
,  // measure 39
1001
0000
0000
0000
,  // measure 40
0100
0000
0000
0000
,  // measure 41
0010
0000
0000
0000
,  // measure 42
1000
0000
0000
0000
,  // measure 43
1001
0000
0000
0000
,  // measure 44
0110
0000
0000
0000
,  // measure 45
0110
0000
1001
0000
,  // measure 46
0110
0000
0000
0000
,  // measure 47
0110
0000
0000
0000
,  // measure 48
1000
0000
0000
0000
,  // measure 49
0000
0001
1000
0000
,  // measure 50
0000
0000
0100
0000
,  // measure 51
0000
0000
0010
0000
,  // measure 52
0000
0000
0100
0000
,  // measure 53
0000
0000
0001
0000
,  // measure 54
0000
0000
1000
1000
,  // measure 55
0000
0000
0000
0110
,  // measure 56
0000
0000
0000
0110
,  // measure 57
0000
0110
0000
1001
,  // measure 58
0000
1001
0000
0110
,  // measure 59
0000
1001
0000
0110
,  // measure 60
0000
1001
1001
1001
,  // measure 61
0000
1000
0000
1000
,  // measure 62
1000
1000
0000
0001
,  // measure 63
0000
0000
0000
1000
,  // measure 64
0000
0000
0000
0100
,  // measure 65
0000
0000
0000
0010
,  // measure 66
0000
0010
0000
0010
,  // measure 67
0000
0000
0000
0100
,  // measure 68
0000
0000
0000
1000
,  // measure 69
1000
1000
0000
0001
,  // measure 70
0000
0000
0100
0110
;
