#TITLE:cobalt;
#SUBTITLE:;
#ARTIST:Des-ROW・組スペシアル;
#TITLETRANSLIT:;
#SUBTITLETRANSLIT:;
#ARTISTTRANSLIT:Des-ROW Kumi Special;
#CREDIT:;
#BANNER:bn.bmp;
#BACKGROUND:bg.bmp;
#LYRICSPATH:;
#CDTITLE:;
#MUSIC:cobalt.mp3;
#OFFSET:-5.490;
#SAMPLESTART:41.136;
#SAMPLELENGTH:12.000;
#SELECTABLE:YES;
#BPMS:0.000=175.000,161.000=87.500,177.000=175.000;
#STOPS:64.000=2.400
;
#BGCHANGES:;

//---------------dance-single - ----------------
#NOTES:
     dance-single:
     :
     Hard:
     8:
     0.560,0.622,0.093,0.124,0.031:
1000
0000
0100
0000
0010
0000
0001
0010
,
0000
0001
0010
0000
0200
0000
1300
0000
,
1000
0000
0100
0000
0010
0000
0001
1000
,
0000
1000
0001
0000
0200
0000
0310
0000
,
0010
0000
1000
0000
0010
0000
0001
0100
,
0000
0100
0001
0000
0200
0000
0310
0000
,
1000
0000
0100
0000
0010
0000
0001
1000
,
0000
1000
0100
0000
2000
0000
3010
0000
,
1000
0000
0100
0000
0010
0000
0001
0100
,
0000
0010
1000
0000
0001
1000
0001
0000
,
1000
0000
0100
0000
0010
0000
0001
0100
,
0000
0010
1000
0000
0010
1000
0010
0000
,
1000
0000
0100
0000
0010
0000
0001
0100
,
0000
0001
0100
0000
0010
0100
0010
0000
,
1000
0000
0100
0000
0010
0000
0001
0100
,
0000
0010
1000
0000
0010
0000
2002
0000
,
3003
0000
1000
0100
0010
0001
0010
0100
,
1000
0100
0010
1000
0010
1000
0001
0100
,
0001
0000
0010
0001
0010
0000
0100
1000
,
0100
0000
1000
0100
0010
0001
0010
0000
,
1000
0000
1001
0000
1000
0100
0010
0000
,
0011
0000
0001
0000
0001
0100
0020
0000
,
1030
0000
0200
0000
1300
0000
1000
0100
,
0010
0000
0001
1000
0001
1000
0010
0000
,
1000
0000
1000
0100
0010
0001
0010
0100
,
1000
0010
0001
0001
0001
0000
1000
1000
,
1000
0000
1000
0100
0010
0001
0010
0100
,
0001
1000
0010
0010
0010
0000
0100
0100
,
0100
0000
1000
0100
0010
0001
0010
0100
,
0001
0100
0010
1000
0010
1000
0010
1000
,
1001
0000
0001
1000
0001
1000
0010
1000
,
0010
1000
0100
0010
0001
0010
0100
1000
,
0100
0000
1000
0000
1000
0100
0000
0010
,
0001
0000
0100
0000
0001
0100
0000
0010
,
1000
0000
1001
0000
0001
1000
0000
1000
,
0100
0000
1000
0000
1000
0100
0000
0010
,
0001
0010
0001
0000
0010
0100
0000
0100
,
1000
0000
1000
0000
1000
0001
0000
0001
,
0100
0000
0110
0000
0010
0100
0000
0100
,
0010
0000
1010
0000
0001
1000
0000
1000
,
0100
0000
0000
0000
1000
0000
0100
1000
0100
0000
1000
0000
0100
0000
0010
0000
,
0001
0000
0000
0000
0001
0000
0010
0100
0010
0000
0100
0000
1000
0000
0100
0000
,
0010
0000
0000
0000
0001
0000
0001
1000
0001
0000
1000
0100
1000
0000
0100
0000
,
0010
0000
0001
0000
0100
0000
0001
0000
0010
1000
0010
0000
0001
0100
0001
0000
,
1000
0100
0010
0000
0001
0000
1000
0000
,
0100
1000
0000
0100
1000
0000
2000
0000
,
3010
1000
0100
0010
,
0001
0100
0000
0010
1000
0000
1002
0000
,
0103
0010
1000
0100
,
1000
0100
0000
0010
0001
0000
0012
0000
,
0103
0001
0100
0010
,
0010
1000
0000
1000
0100
0000
0020
0000
,
0130
0000
1000
0100
1000
0100
1000
0100
,
1000
0100
0010
0001
0010
0001
0010
0001
,
0010
0100
0001
0100
0001
0100
0001
0100
,
0001
0100
0010
1000
0010
1000
0010
1000
,
0010
1000
0001
1000
0001
1000
0010
1000
,
0010
1000
0010
0100
0010
0100
0001
0010
,
0100
1000
0100
0010
0001
1000
0001
1000
,
0010
0100
1000
0100
0010
0001
1000
0001
,
1000
0000
0000
0000
;

//---------------dance-single - ----------------
#NOTES:
     dance-single:
     :
     Medium:
     6:
     0.421,0.529,0.052,0.124,0.000:
1000
0001
1000
0001
,
1000
0001
0200
0301
,
0001
0010
0100
1000
,
0100
1000
0020
1030
,
0001
1000
0001
0100
,
0010
1000
0200
1300
,
1000
0100
0010
0001
,
0100
0001
0200
0301
,
0001
1000
0001
0100
,
0010
1000
0200
1300
,
1000
0100
0010
0001
,
1000
0001
2000
3100
,
1000
0100
0010
0001
,
0100
0001
0010
1000
,
0001
1000
0100
0010
,
0001
0100
1100
0101
,
0000
1000
1000
0001
,
0001
0000
0100
0001
0100
0000
1000
0100
,
1000
1000
1000
0100
,
0010
0100
0010
1001
,
0000
0000
0001
0000
0100
0010
0100
0000
,
0010
0000
1000
0000
0100
1000
0100
0000
,
1000
0000
0100
0000
1100
0000
0010
1000
,
0010
0100
0010
0100
,
0010
1000
0100
0010
,
0001
0000
0001
0100
0001
0000
0010
1000
,
0010
1000
0001
0100
,
0010
0000
0001
0100
0001
0000
1000
0100
,
1000
0010
1000
0001
,
0100
0000
1000
0000
0100
0000
0010
0100
,
0010
0100
1000
0100
,
0010
0000
0001
0000
0100
0000
0001
0100
,
0001
0000
1000
0000
0000
0001
0000
0000
,
0100
0000
0020
0000
0000
0130
0000
0000
,
0000
0000
1000
0000
0000
0001
0000
0000
,
0100
0000
0020
0000
0000
0130
0000
0000
,
0010
0000
0100
0000
0000
0010
0000
0000
,
1000
0000
0001
0000
0000
1000
0000
0000
,
0000
0000
1000
0000
0000
0100
0000
0000
,
0000
0020
0000
0002
,
0033
0000
1100
0000
0010
0000
0001
0100
,
1000
0000
0010
0000
0100
0000
0001
0010
,
1000
0100
0001
0000
1000
0000
0001
0010
,
0100
1000
0001
1000
0100
0010
0001
0100
,
1000
0001
1000
0100
,
1000
0100
0000
1000
0100
0000
1000
0000
,
0100
0010
0001
0100
,
0001
0100
0000
0001
0100
0000
0001
0000
,
0100
0010
0001
0010
,
0010
0200
0000
0000
0010
0000
0010
0000
,
0310
1000
0001
0100
,
1000
0100
0000
0000
2000
0000
0100
0000
,
3100
0000
1000
0100
1000
0000
0010
0001
,
0010
0000
0100
0001
0100
0000
0010
1000
,
0010
0001
1000
0100
,
0010
0001
0100
0010
,
1000
0000
0001
1000
0001
1000
0001
1000
,
0001
1000
0001
1000
0001
1000
0001
1000
,
0001
1000
0001
1000
0001
1000
0001
1000
,
0001
1000
0001
1000
0001
1000
0001
1000
,
0001
0000
0000
0000
;

//---------------dance-single - ----------------
#NOTES:
     dance-single:
     :
     Easy:
     4:
     0.344,0.373,0.062,0.145,0.000: // measure 1
1000
0000
1000
0000
,  // measure 2
1000
0001
0100
0001
,  // measure 3
0100
0000
0010
0000
,  // measure 4
1000
0001
0100
0010
,  // measure 5
1000
0000
1000
0000
,  // measure 6
1000
0100
0010
0001
,  // measure 7
0100
0000
0001
0000
,  // measure 8
1000
0001
0100
0010
,  // measure 9
1000
0000
1000
0000
,  // measure 10
0001
1000
0001
0100
,  // measure 11
0001
0000
0100
0000
,  // measure 12
0010
1000
0100
0010
,  // measure 13
0001
0000
1000
0000
,  // measure 14
0001
1000
0100
0010
,  // measure 15
0001
1000
0001
0100
,  // measure 16
0010
1000
0010
1001
,  // measure 17
0000
0001
0001
1000
,  // measure 18
1000
0100
0100
0010
,  // measure 19
0010
1000
1000
0001
,  // measure 20
0001
0100
0100
0010
,  // measure 21
0000
1000
0100
0010
,  // measure 22
0011
0001
0010
0100
,  // measure 23
1100
0010
0110
0010
,  // measure 24
0100
1000
0001
0100
,  // measure 25
0101
1000
0001
0100
,  // measure 26
0010
2000
3100
0002
,  // measure 27
0103
1000
0001
1000
,  // measure 28
0001
0020
0031
0020
,  // measure 29
0130
1000
0001
0100
,  // measure 30
1000
0100
0010
0002
,  // measure 31
0103
0001
0100
0010
,  // measure 32
1000
0100
1000
0100
,  // measure 33
0010
0000
0001
0000
0000
0001
0000
0000
,  // measure 34
0001
2000
0000
3000
,  // measure 35
0000
0000
1000
0000
0000
1000
0000
0000
,  // measure 36
1000
1000
0100
0010
,  // measure 37
0001
0000
0100
0000
0000
0100
0000
0000
,  // measure 38
0001
0000
0200
0000
0000
0301
0000
0000
,  // measure 39
0000
0000
0002
0000
0000
1003
0000
0000
,  // measure 40
0000
2000
0000
3100
,  // measure 41
0000
1100
0100
0010
,  // measure 42
0001
0100
0001
0001
,  // measure 43
0000
0100
0010
1000
,  // measure 44
0001
1000
0100
0010
,  // measure 45
0001
1000
0001
0100
,  // measure 46
0010
1000
0010
2000
,  // measure 47
3100
1000
0100
0010
,  // measure 48
0001
0010
0100
0002
,  // measure 49
0103
0001
1000
0010
,  // measure 50
1000
0010
0100
0020
,  // measure 51
0130
0010
0100
1000
,  // measure 52
0001
0100
0001
2000
,  // measure 53
3001
1000
1000
1000
,  // measure 54
1000
0001
0001
0001
,  // measure 55
0001
0100
0100
0100
,  // measure 56
0100
0010
0010
0010
,  // measure 57
0010
1000
1000
0001
,  // measure 58
0001
0100
0100
0010
,  // measure 59
0010
1000
0100
0010
,  // measure 60
0001
0010
0100
2000
,  // measure 61
3001
0000
0000
0000
;

//---------------dance-single - ----------------
#NOTES:
     dance-single:
     :
     Beginner:
     1:
     0.077,0.124,0.000,0.000,0.000: // measure 1
1000
0000
0000
0000
,  // measure 2
0000
0000
0000
0000
,  // measure 3
0001
0000
0000
0000
,  // measure 4
0000
0000
0000
0000
,  // measure 5
0010
0000
0000
0000
,  // measure 6
0000
0000
0000
0000
,  // measure 7
0100
0000
0000
0000
,  // measure 8
0100
0000
0000
0000
,  // measure 9
0100
0000
0000
0000
,  // measure 10
0000
0000
0000
0000
,  // measure 11
1000
0000
0000
0000
,  // measure 12
0001
0000
0000
0000
,  // measure 13
1000
0000
0000
0000
,  // measure 14
0001
0000
0000
0000
,  // measure 15
1000
0000
0000
0000
,  // measure 16
0001
0000
0000
0000
,  // measure 17
0000
0100
0000
0000
,  // measure 18
0000
0100
0000
0000
,  // measure 19
0000
0001
0000
0000
,  // measure 20
0000
0001
0000
0000
,  // measure 21
0000
1000
0000
0000
,  // measure 22
0000
1000
0000
0000
,  // measure 23
0000
1000
0000
0000
,  // measure 24
0000
0100
0000
0000
,  // measure 25
0000
0100
0000
0000
,  // measure 26
0000
0000
0000
0000
,  // measure 27
0000
0010
0000
0000
,  // measure 28
0000
0000
0000
0000
,  // measure 29
0000
1000
0000
0000
,  // measure 30
0000
0000
0000
0000
,  // measure 31
0000
0001
0000
0000
,  // measure 32
0000
0000
0000
0000
,  // measure 33
0000
1000
0000
0000
,  // measure 34
0000
0001
0000
0000
,  // measure 35
0000
0100
0000
0000
,  // measure 36
0000
0010
0000
0000
,  // measure 37
0000
0100
0000
0000
,  // measure 38
0000
0010
0000
0000
,  // measure 39
0000
1000
0000
0000
,  // measure 40
0000
0001
0000
1000
,  // measure 41
0000
0001
0000
0000
,  // measure 42
0000
1000
0000
0000
,  // measure 43
0000
0100
0000
0000
,  // measure 44
0000
0000
0000
0000
,  // measure 45
0000
0001
0000
0000
,  // measure 46
0000
0000
0000
0000
,  // measure 47
0000
1000
0000
0000
,  // measure 48
0000
0000
0000
0000
,  // measure 49
0000
0010
0000
0000
,  // measure 50
0000
0000
0000
0000
,  // measure 51
0000
0100
0000
0000
,  // measure 52
0000
0000
0000
0000
,  // measure 53
0000
1000
0000
0000
,  // measure 54
0000
1000
0000
0000
,  // measure 55
0000
0001
0000
0000
,  // measure 56
0000
0001
0000
0000
,  // measure 57
0000
0100
0000
0100
,  // measure 58
0000
0100
0000
0100
,  // measure 59
0000
0010
0000
0010
,  // measure 60
0000
0010
0000
0010
;
