#TITLE:bloomin' feeling;
#SUBTITLE:;
#ARTIST:RYU*;
#TITLETRANSLIT:;
#SUBTITLETRANSLIT:;
#ARTISTTRANSLIT:;
#CREDIT:;
#BANNER:bn.png;
#BACKGROUND:bg.png;
#LYRICSPATH:;
#CDTITLE:;
#MUSIC:03 - bloomin' feeling.mp3;
#OFFSET:-0.360;
#SAMPLESTART:75.960;
#SAMPLELENGTH:12.000;
#SELECTABLE:YES;
#BPMS:0.000=181.000;
#STOPS:;
#BGCHANGES:;

//---------------dance-single - ----------------
#NOTES:
     dance-single:
     :
     Hard:
     8:
     0.602,0.666,0.672,0.336,0.019: // measure 1
0000
0000
0000
0000
,  // measure 2
0000
0000
0000
0000
,  // measure 3
0000
0000
0000
0000
,  // measure 4
0000
0000
0000
0000
,  // measure 5
0000
0000
0000
0000
,  // measure 6
1001
0000
0110
0000
0010
1000
0100
1000
,  // measure 7
0001
1000
0100
0000
,  // measure 8
0001
1000
0001
0010
1000
0100
0001
0100
,  // measure 9
0010
0100
1000
0002
2000
0003
3000
0000
,  // measure 10
1001
0000
1100
0000
1000
0100
1000
0010
,  // measure 11
1010
1100
2002
3003
,  // measure 12
0101
0000
0011
0000
0001
0100
0001
0010
,  // measure 13
0001
0010
0100
0010
0001
0000
0000
0000
,  // measure 14
1001
0000
0100
0000
0010
0100
1000
0100
,  // measure 15
0010
1000
0100
0000
1001
0000
0000
0000
,  // measure 16
0100
0000
0101
0000
0001
0010
0100
1000
,  // measure 17
0001
1000
0001
0100
0001
0011
0011
0000
,  // measure 18
2100
0000
3001
0000
0001
0010
0001
0100
,  // measure 19
0120
0100
0200
0330
,  // measure 20
1001
0000
1001
0000
0001
0100
0010
1000
,  // measure 21
0001
1000
0100
0010
0200
0000
0300
0000
,  // measure 22
1001
0000
1100
0000
0001
0100
0010
1000
,  // measure 23
0100
2000
0100
0000
0200
0000
3300
0000
,  // measure 24
1000
0000
0001
0000
1000
0001
0010
0001
,  // measure 25
0100
0010
1000
0200
2000
0000
3300
0000
,  // measure 26
1000
0000
0001
0000
0100
0010
1000
0000
,  // measure 27
1001
0000
0000
1100
0000
0000
0001
1000
,  // measure 28
0100
0000
0010
0000
0001
0000
1000
0001
,  // measure 29
0101
0000
0000
1010
0000
0000
0001
1000
,  // measure 30
1100
0000
1000
0001
0100
0000
0010
0000
,  // measure 31
0110
0000
0000
0010
0010
0000
1000
0001
,  // measure 32
0100
0000
0010
1000
0001
0000
1000
0002
,  // measure 33
0200
0000
0000
0000
0000
0003
0300
0000
,  // measure 34
1000
0001
0100
0001
,  // measure 35
0010
0001
0010
0001
,  // measure 36
1000
0001
0100
0010
,  // measure 37
1000
0001
0100
0010
,  // measure 38
0000
0100
0000
0100
0000
0100
0000
0100
,  // measure 39
0000
0010
0000
0010
0000
0010
0000
0010
,  // measure 40
0100
0000
0001
0000
1000
0000
0001
0000
0100
0001
0100
0001
0100
0001
0100
0002
,  // measure 41
0200
0000
0000
0000
0000
0003
0300
0000
,  // measure 42
2000
0100
0100
3100
,  // measure 43
1100
0000
0000
0011
0000
0000
0001
1000
,  // measure 44
0002
0100
0100
0103
,  // measure 45
0101
0000
0000
1010
0000
0000
0001
1000
,  // measure 46
1002
1000
1000
1003
,  // measure 47
1001
0000
0000
0010
0010
0000
0010
0000
,  // measure 48
1000
0001
0100
0010
,  // measure 49
1000
0100
0010
0002
2000
0003
3000
0000
,  // measure 50
1001
0000
0000
1001
0000
1000
0100
0000
,  // measure 51
0012
0000
0000
0103
0000
0000
0001
1000
,  // measure 52
1100
0000
0000
0011
0000
0000
0001
0100
,  // measure 53
0110
0000
0000
0110
0000
0000
1000
0001
,  // measure 54
0100
0000
0010
0000
1000
0001
0010
0001
,  // measure 55
0020
0001
0002
0033
,  // measure 56
0001
0010
1000
0100
0001
0010
0001
1000
,  // measure 57
0100
0010
1000
0002
0200
0003
0300
0000
,  // measure 58
1001
0000
1100
0000
1000
0100
0010
1000
,  // measure 59
1100
1100
2200
3300
,  // measure 60
0101
0000
0011
0000
0001
0010
0100
0001
,  // measure 61
0100
0001
0010
0100
0001
0000
0000
0000
,  // measure 62
0110
0000
0110
0000
0010
1000
0100
0010
,  // measure 63
0001
0010
0011
0000
2002
0000
3003
0000
,  // measure 64
1001
0000
1001
0000
0001
1000
0001
0100
,  // measure 65
0001
0010
0100
0020
0002
0030
0003
0000
,  // measure 66
1100
0000
1100
0000
1000
0001
0100
0010
,  // measure 67
0110
0110
1001
1001
,  // measure 68
1001
0000
0101
0000
0001
0010
0100
1000
,  // measure 69
1000
0001
0100
0010
0200
0000
0300
0000
,  // measure 70
1001
0000
1100
0000
0001
1000
0001
0100
,  // measure 71
0101
0001
0011
0000
1100
0000
1001
0000
,  // measure 72
1001
0000
1100
0000
0011
0010
0001
0010
,  // measure 73
0001
1000
0001
0200
0020
0300
0030
0000
,  // measure 74
1001
0000
0000
0000
;

//---------------dance-single - ----------------
#NOTES:
     dance-single:
     :
     Medium:
     6:
     0.513,0.596,0.893,0.115,0.000: // measure 1
0000
0000
0000
0000
,  // measure 2
0000
0000
0000
0000
,  // measure 3
0000
0000
0000
0000
,  // measure 4
0000
0000
0000
0000
,  // measure 5
0000
0000
0000
0000
,  // measure 6
1001
0000
1001
0000
0001
1000
0001
1000
,  // measure 7
1001
1001
1001
0000
,  // measure 8
0101
1010
0010
0100
,  // measure 9
0010
1000
0001
1000
0001
0000
0000
0000
,  // measure 10
1100
1100
1100
1100
,  // measure 11
1100
1100
1100
0000
,  // measure 12
0101
0101
0101
0101
,  // measure 13
0001
0100
0001
0100
0001
0000
0000
0000
,  // measure 14
0011
0011
0011
0011
,  // measure 15
0011
1100
0011
0000
,  // measure 16
1001
0010
0100
0010
,  // measure 17
0010
0100
0001
1000
0010
0000
0000
0000
,  // measure 18
1010
0101
1010
0101
,  // measure 19
1001
1001
1001
0000
,  // measure 20
1100
0011
1100
0011
,  // measure 21
1001
1001
1001
0000
,  // measure 22
0110
0110
0110
0110
,  // measure 23
0001
1000
0001
0000
1001
0000
0000
0000
,  // measure 24
2100
0100
0100
3100
,  // measure 25
1000
0100
0010
0001
0010
0000
0000
0000
,  // measure 26
0001
0100
0010
1000
,  // measure 27
1020
0000
0000
1000
0000
0000
1030
0000
,  // measure 28
1000
0100
0010
0001
,  // measure 29
1002
0000
0000
1003
0000
0000
0001
0000
,  // measure 30
0100
0010
1000
0010
,  // measure 31
0210
0000
0000
0010
0000
0000
0310
0000
,  // measure 32
0010
0000
1000
0001
0000
0000
0001
0100
,  // measure 33
0010
0000
0000
0000
0000
0010
0010
0000
,  // measure 34
0110
0010
0100
0010
,  // measure 35
1000
0001
1000
0001
,  // measure 36
0100
0001
0100
0001
,  // measure 37
0010
0010
0001
0010
,  // measure 38
0000
0001
0000
0001
0000
0001
0000
0001
,  // measure 39
0000
0001
0000
0001
0000
0001
0000
0001
,  // measure 40
1000
0001
1000
0001
1000
0001
1000
0001
,  // measure 41
0200
0000
0000
0000
0000
0010
0310
0000
,  // measure 42
0010
0100
0010
1000
,  // measure 43
0002
0000
0000
1003
0000
0000
0000
0000
,  // measure 44
1000
0100
0010
0001
,  // measure 45
0020
0000
0000
0031
0000
0000
0000
0000
,  // measure 46
0001
0100
0010
1000
,  // measure 47
0020
0000
0000
1030
0000
0000
1000
0000
,  // measure 48
0001
0000
0100
0000
,  // measure 49
0010
0010
0010
0000
,  // measure 50
0100
0010
1000
0001
,  // measure 51
1000
1000
2000
3000
,  // measure 52
0001
0100
0010
1000
,  // measure 53
0010
0010
0020
0030
,  // measure 54
0100
0010
1000
0010
,  // measure 55
1001
1001
2002
3003
,  // measure 56
0001
0100
0010
1000
,  // measure 57
0010
0100
0001
1000
0010
0000
0000
0000
,  // measure 58
1100
1100
0011
0011
,  // measure 59
1001
0110
1001
0000
,  // measure 60
0110
1010
0101
1100
,  // measure 61
0010
0001
0010
0001
0010
0000
0000
0000
,  // measure 62
0011
1100
0110
1001
,  // measure 63
1010
0101
0110
0000
,  // measure 64
0110
1001
1100
0011
,  // measure 65
0001
1000
0010
0100
0001
0000
0000
0000
,  // measure 66
0101
0000
0101
0000
0001
0100
0010
0100
,  // measure 67
0110
0110
0110
0110
,  // measure 68
1001
0000
1100
0000
0001
0100
0001
0000
,  // measure 69
0101
1010
0110
0000
,  // measure 70
0110
0110
1001
1001
,  // measure 71
0001
1000
0010
1000
0010
0000
1000
0000
,  // measure 72
1100
0010
0011
0001
,  // measure 73
0001
0010
0100
1000
0001
0000
0000
0000
,  // measure 74
1001
0000
0000
0000
;

//---------------dance-single - ----------------
#NOTES:
     dance-single:
     :
     Easy:
     5:
     0.411,0.631,0.557,0.106,0.000: // measure 1
0000
0000
0000
0000
,  // measure 2
0000
0000
0000
0000
,  // measure 3
0000
0000
0000
0000
,  // measure 4
0000
0000
0000
0000
,  // measure 5
0000
0000
0000
0000
,  // measure 6
1000
0001
0100
0001
,  // measure 7
0100
0100
0100
0000
,  // measure 8
0010
1000
0010
1000
,  // measure 9
0001
0000
0000
0000
0000
0001
1000
0000
,  // measure 10
0001
1000
0001
0100
,  // measure 11
0001
0001
0002
0003
,  // measure 12
1000
0001
0100
0010
,  // measure 13
0100
0100
0200
0300
,  // measure 14
0010
1000
0010
1000
,  // measure 15
0001
0001
0002
0003
,  // measure 16
1000
0001
0100
0010
,  // measure 17
1000
0001
0100
0000
,  // measure 18
0110
0010
0100
0010
,  // measure 19
1010
1010
1010
0000
,  // measure 20
1000
0001
0100
0010
,  // measure 21
0110
0110
0110
0000
,  // measure 22
1000
0001
0100
0001
,  // measure 23
0101
0101
0101
0000
,  // measure 24
1001
0001
0100
0001
,  // measure 25
0100
0010
1000
0000
,  // measure 26
1000
1000
1000
1000
,  // measure 27
2002
0000
0000
3003
,  // measure 28
0001
0001
0001
0001
,  // measure 29
2002
0000
0000
3003
,  // measure 30
0010
0010
0010
0010
,  // measure 31
0220
0000
0000
0330
,  // measure 32
0100
0000
0100
0000
,  // measure 33
0110
0000
0000
0000
0000
0010
0100
0000
,  // measure 34
0010
0010
0010
0010
,  // measure 35
0100
0100
0100
0100
,  // measure 36
0010
0010
0010
0010
,  // measure 37
1000
1000
1000
1000
,  // measure 38
0001
0000
0000
0000
,  // measure 39
0000
0000
0000
0000
,  // measure 40
1000
0000
0001
0000
0100
0000
0001
0100
,  // measure 41
0001
0000
0000
0000
0000
1000
0001
0000
,  // measure 42
1000
1000
0001
0100
,  // measure 43
0001
0001
0001
0000
,  // measure 44
0100
0001
0010
1000
,  // measure 45
0010
0010
0010
0000
,  // measure 46
0100
0010
1000
0001
,  // measure 47
1000
1000
1000
0000
,  // measure 48
0001
0100
0010
1000
,  // measure 49
0010
0100
0010
0000
,  // measure 50
0110
0010
1000
0010
,  // measure 51
2000
0000
0000
3100
0000
0000
0000
0000
,  // measure 52
0010
0001
0100
0010
,  // measure 53
0200
0000
0000
0310
0000
0000
0000
0000
,  // measure 54
0010
1000
0010
0100
,  // measure 55
0010
1000
0001
0000
,  // measure 56
0001
1000
0001
0100
,  // measure 57
0001
1000
0001
1000
0001
0000
0000
0000
,  // measure 58
1001
0001
0100
0010
,  // measure 59
0110
0110
0110
0000
,  // measure 60
0010
1000
0001
1000
,  // measure 61
1001
0110
1001
0000
,  // measure 62
1010
0010
0100
0010
,  // measure 63
1010
0110
1001
0000
,  // measure 64
0101
0010
0100
1000
,  // measure 65
1001
0110
1001
0000
,  // measure 66
1100
1100
1100
1100
,  // measure 67
0101
0101
0101
0101
,  // measure 68
0011
0011
0011
0011
,  // measure 69
1010
1010
1010
0000
,  // measure 70
0110
0110
0110
0110
,  // measure 71
1001
0110
1001
0000
,  // measure 72
0110
1001
0110
1001
,  // measure 73
1000
0100
0010
0001
0010
0000
0000
0000
,  // measure 74
1001
0000
0000
0000
;

//---------------dance-single - ----------------
#NOTES:
     dance-single:
     :
     Beginner:
     2:
     0.108,0.210,0.019,0.000,0.000:
0000
0000
0000
0000
,
0000
0000
0000
0000
,
0000
0000
0000
0000
,
0000
0000
0000
0000
,
0000
0000
0000
0000
,
1000
0000
0000
0000
,
0000
0000
0000
0000
,
0001
0000
0000
0000
,
0001
0000
0000
0000
,
1000
0000
0000
0000
,
0000
0000
0000
0000
,
0010
0000
0000
0000
,
0000
0000
0000
0000
,
0100
0000
0000
0000
,
0000
0000
0000
0000
,
0010
0000
0000
0000
,
1000
0000
0000
0000
,
0001
0000
0000
0000
,
0001
0001
0001
0000
,
0000
0000
0000
0000
,
1000
1000
1000
0000
,
0000
0000
0000
0000
,
0010
0010
0010
0000
,
0000
0000
0000
0000
,
0100
0100
0100
0000
,
1000
0000
0000
0000
,
0001
0000
0000
0000
,
0001
0000
0000
0000
,
1000
0000
0000
0000
,
0010
0000
0000
0000
,
0100
0000
0000
0000
,
0010
0000
0000
0000
,
0100
0000
0000
0000
,
1000
0000
0000
0000
,
1000
0000
0000
0000
,
0001
0000
0000
0000
,
0001
0000
0000
0000
,
1001
0000
0000
0000
,
0000
0000
0000
0000
,
0000
0000
0000
0000
,
0000
0000
0000
0000
,
0010
0000
0000
0000
,
0000
0000
0000
0000
,
0010
0000
0000
0000
,
0000
0000
0000
0000
,
0010
0000
0000
0000
,
0000
0000
0000
0000
,
0010
0000
0000
0000
,
0000
0000
0000
0000
,
1000
0000
0000
0000
,
0000
0000
0000
0000
,
0001
0000
0000
0000
,
0001
0000
0000
0000
,
1000
0000
0000
0000
,
1000
0000
0000
0000
,
0010
0000
0010
0000
,
0010
0000
0000
0000
,
0100
0000
0000
0000
,
0100
0100
0100
0000
,
0000
0000
0000
0000
,
1000
1000
1000
0000
,
0000
0000
0000
0000
,
0001
0001
0001
0000
,
0000
0000
0000
0000
,
0010
0010
0010
0000
,
1000
0000
0000
0000
,
0001
0001
0001
0000
,
1000
0000
0000
0000
,
1000
1000
1000
0000
,
0010
0000
0000
0000
,
0100
0100
0100
0000
,
0010
0000
0100
0000
,
0010
0010
0010
0000
,
1001
0000
0000
0000
;

//---------------dance-single - ----------------
#NOTES:
     dance-single:
     :
     Challenge:
     9:
     0.768,0.876,0.768,0.528,0.230: // measure 1
0000
0000
0000
0000
,  // measure 2
0000
0000
0000
0000
,  // measure 3
0000
0000
0000
0000
,  // measure 4
0000
0000
0000
0000
,  // measure 5
0000
0000
0000
0000
,  // measure 6
1100
0000
0011
0000
0001
0100
0010
1000
,  // measure 7
1200
0000
0010
0300
2002
0000
3003
0000
,  // measure 8
0001
0100
0010
1000
0100
0001
0010
0001
,  // measure 9
0200
0310
2000
3002
0103
0011
1001
0000
,  // measure 10
1100
0000
0101
0000
0001
0100
0001
0001
,  // measure 11
0101
1010
2002
3003
,  // measure 12
1100
0000
0011
0000
0001
0001
1000
0001
,  // measure 13
0100
0100
0010
0200
0020
0000
0330
0000
,  // measure 14
0110
0000
1100
0000
0001
1000
0001
0100
,  // measure 15
0001
0001
0001
0000
2200
0000
3300
0000
,  // measure 16
1100
0000
1001
0000
0001
0100
0100
0010
,  // measure 17
1000
0001
0010
1000
0100
1100
1001
0000
,  // measure 18
0101
0000
0110
0000
0010
1000
0001
0020
,  // measure 19
0001
0100
0002
0033
,  // measure 20
0101
0000
1010
0000
0001
1000
0010
0100
,  // measure 21
0020
1030
2000
3200
2000
0000
3300
0000
,  // measure 22
1100
0000
0101
0000
0010
1000
0001
0010
,  // measure 23
0002
0010
0023
0000
0200
0000
0330
0000
,  // measure 24
0001
0000
1000
0000
0001
0100
0010
1000
,  // measure 25
0100
0100
1000
0100
0020
0000
0030
0000
,  // measure 26
0001
0000
0100
0000
1000
0001
1000
0000
0000
0000
0010
0000
0001
0000
0000
0000
,  // measure 27
1001
0000
0000
0000
0010
0000
0110
0000
0000
0000
1000
0000
0001
1000
0100
0000
,  // measure 28
1000
0000
1000
0100
1000
0200
0000
0000
0000
0000
1000
0000
1300
0000
0000
0000
,  // measure 29
1100
0000
0000
0000
0000
0000
0101
0000
0000
0000
0000
0000
1000
0001
0010
0001
,  // measure 30
0200
0000
0000
0000
0310
1000
0001
0000
0000
0000
0100
0000
0100
0000
0000
0000
,  // measure 31
0120
0000
0000
0200
0030
0320
2000
0030
,  // measure 32
3010
0000
0100
0000
0010
1000
0010
0000
1000
0000
0001
0000
0010
0001
0100
0000
,  // measure 33
2002
0000
0000
0000
0000
0000
0000
0000
0000
0000
0000
0000
0000
0000
0000
0000
0000
0000
0000
0000
0000
0000
0000
0000
0000
0000
0000
0000
0000
0000
0000
0000
0000
0000
0000
0000
0000
0000
0000
3003
0110
0000
0000
0000
0000
0000
0000
0000
1001
0000
0000
0000
0000
0000
0000
0000
0000
0000
0000
0000
0100
0000
0000
0000
,  // measure 34
1000
0000
0000
1000
0100
0000
0000
0100
1000
0000
0000
1000
0100
0000
0000
0100
,  // measure 35
0001
0000
0000
0001
0100
0000
0000
0100
0001
0000
0000
0001
0100
0000
0000
0100
,  // measure 36
0001
0000
0000
0001
0010
0000
0000
0010
0001
0000
0000
0001
0010
0000
0000
0010
,  // measure 37
1000
0000
0000
1000
0001
0000
0000
0001
1000
0000
0000
1000
0001
0000
1000
0000
,  // measure 38
0200
1000
0000
1000
0000
1000
0000
1000
,  // measure 39
0000
0010
0000
0010
0000
0010
0000
0010
,  // measure 40
0310
0000
0001
0000
1000
0000
0001
0000
1000
0100
1000
0100
0010
1000
0001
1000
,  // measure 41
0002
0000
0000
0000
0000
0103
0011
0000
,  // measure 42
2200
3300
1100
0000
1000
1000
0001
0100
,  // measure 43
0002
0000
0000
0000
0010
0000
0000
0000
0200
0000
0303
0000
0001
0100
0010
1000
,  // measure 44
0200
0000
1300
0000
1000
0001
0010
0001
,  // measure 45
0110
0010
1000
0011
0020
0000
0001
0031
,  // measure 46
0011
0000
1000
0000
0001
0100
0020
0000
0230
0000
0000
0000
0300
0000
0000
0000
,  // measure 47
0110
0100
0000
0010
1001
0000
1000
1000
,  // measure 48
1000
0000
0001
0000
0100
0001
0100
0000
0001
0000
1000
0000
0001
0000
1000
0000
,  // measure 49
1000
0001
0100
0001
0010
0011
1100
0000
,  // measure 50
1000
0000
1000
0100
1000
0000
0100
0000
1000
0000
0100
0000
1000
0000
0100
0000
,  // measure 51
1100
0110
0022
0033
,  // measure 52
0001
0000
0100
0000
0001
0100
0001
0000
0100
0000
0001
0000
0100
0000
0001
0000
,  // measure 53
0100
0001
0010
0100
1000
0000
0000
0000
,  // measure 54
1000
0001
0010
0001
0100
0010
1000
0100
,  // measure 55
1000
0001
0100
0001
0010
0100
1000
0001
,  // measure 56
0100
0010
0100
0010
0100
0010
0100
0010
0100
0010
0100
0010
0100
0010
0100
0010
,  // measure 57
0100
0000
0100
0000
0200
0010
0310
0000
,  // measure 58
1100
0000
0011
0000
0001
0011
0010
0011
,  // measure 59
1002
0010
0200
0303
,  // measure 60
1001
0000
1100
0000
1000
1100
0100
0110
,  // measure 61
0001
0011
0001
0101
2002
0000
3003
0000
,  // measure 62
1001
0000
0110
0000
0010
0110
1000
1001
,  // measure 63
0011
1100
1001
0000
2002
0000
3003
0000
,  // measure 64
1100
0000
1100
0000
1000
1001
0001
0101
,  // measure 65
0001
0011
0001
0101
0020
0100
0130
0000
,  // measure 66
1100
0000
0000
0000
0011
0000
0000
0000
0001
0000
0010
0000
0100
0000
0000
0001
,  // measure 67
1000
0000
0000
1000
0100
0000
0000
0001
0100
0000
0000
0010
0100
0000
0000
1000
,  // measure 68
0100
0000
1100
0000
1000
1000
0100
0100
,  // measure 69
1000
0100
0001
0010
0002
0000
0003
0000
,  // measure 70
1001
0000
1100
0000
1000
0001
0100
0001
,  // measure 71
0010
0010
0020
0000
0032
0000
0200
0003
,  // measure 72
0310
0000
0110
0000
0010
1000
0001
0010
,  // measure 73
0001
0001
0010
0001
0200
0010
0310
0000
,  // measure 74
1001
0000
0000
0000
;
