#TITLE:airflow;
#SUBTITLE:;
#ARTIST:Mr.T;
#TITLETRANSLIT:;
#SUBTITLETRANSLIT:;
#ARTISTTRANSLIT:;
#CREDIT:;
#BANNER:bn.bmp;
#BACKGROUND:bg.bmp;
#LYRICSPATH:;
#CDTITLE:Beatmania IIDX.png;
#MUSIC:airflow.mp3;
#OFFSET:-0.380;
#SAMPLESTART:40.000;
#SAMPLELENGTH:13.900;
#SELECTABLE:YES;
#BPMS:0.000=148.000,245.000=142.000,249.000=137.000,253.000=131.000,255.000=118.001,256.000=105.001,257.000=124.002,258.000=109.002,259.000=95.002,260.000=75.002,261.000=70.003,263.000=40.003;
#STOPS:;
#BGCHANGES:;

//---------------dance-single - ----------------
#NOTES:
     dance-single:
     :
     Hard:
     5:
     0.289,0.343,0.026,0.333,0.061: // measure 1
0000
0000
0000
0000
,  // measure 2
0000
0000
0000
0000
,  // measure 3
0000
0000
0000
0000
,  // measure 4
0000
0000
0000
0000
,  // measure 5
0000
1000
2000
0000
0000
0000
0000
0000
,  // measure 6
0000
0000
0000
0000
,  // measure 7
0000
0002
0000
0000
,  // measure 8
0000
3003
0000
0000
,  // measure 9
0000
0010
0000
0000
,  // measure 10
0100
1000
0000
0000
,  // measure 11
0010
0001
0000
0000
,  // measure 12
0001
0100
0002
0000
0000
0000
0013
0000
,  // measure 13
0000
0000
0100
0000
0000
0000
0000
1000
,  // measure 14
0100
0010
0001
0000
0000
0000
0100
0000
,  // measure 15
0010
2000
0000
0000
,  // measure 16
0100
0000
3100
1000
0100
0010
0001
0000
,  // measure 17
0001
0020
0000
0030
,  // measure 18
0100
2000
0000
3000
,  // measure 19
0100
0020
0000
0030
,  // measure 20
0001
0100
0002
0000
0000
0000
0013
0000
,  // measure 21
0100
2000
0000
3100
,  // measure 22
1000
0100
0010
0000
,  // measure 23
0001
0010
0200
0000
0000
0000
0000
0000
,  // measure 24
0000
2000
0000
3300
,  // measure 25
0010
1000
0020
0000
0000
0000
0031
0000
,  // measure 26
0010
0000
0000
0000
0100
0000
0000
0000
0000
0000
0001
1000
0001
0000
0000
0000
,  // measure 27
0010
0100
1000
0100
,  // measure 28
0001
0100
0000
0000
,  // measure 29
0010
1000
0010
0000
0000
0000
0001
0000
,  // measure 30
0010
0000
0000
0000
0100
0000
0000
0000
0000
0000
0010
1000
0010
0000
0000
0000
,  // measure 31
1000
0000
0000
0000
0100
0000
0000
0000
0000
0000
0001
0100
0001
0000
0000
0000
,  // measure 32
0000
0000
1000
0100
2000
0000
0000
0000
0000
0000
0000
0000
0000
0000
0000
0000
,  // measure 33
0000
3100
0010
0001
,  // measure 34
0100
0010
1000
0020
,  // measure 35
0030
0000
0100
1000
0100
0000
0000
0000
0010
0000
0000
0000
0001
0000
0000
0000
,  // measure 36
0100
1002
1000
2000
,  // measure 37
3003
0000
0100
0010
0200
0000
0000
0000
0310
0000
0000
0000
0001
0000
0000
0000
,  // measure 38
0010
1000
0100
0010
,  // measure 39
0001
0000
0001
0010
0001
0000
0000
0000
0000
0000
1000
0100
1000
0000
0000
0000
,  // measure 40
0010
0000
0000
0000
0100
0000
0000
0000
0000
0000
1000
0100
1000
0000
0000
0000
,  // measure 41
0000
0000
0010
0001
0010
0000
0000
0000
0000
0000
0001
0100
0001
0000
0000
0000
,  // measure 42
0000
2002
0000
0000
,  // measure 43
3003
0002
0000
0000
,  // measure 44
1000
0103
0000
0000
,  // measure 45
0020
0130
0000
0000
,  // measure 46
1000
0100
0020
0000
0000
0000
0001
0000
,  // measure 47
0000
0000
0130
0000
0000
0000
0000
0001
,  // measure 48
0100
0001
0200
0000
0000
0000
0310
0000
,  // measure 49
1000
0002
0000
0003
,  // measure 50
1000
0100
0010
0001
0010
0100
0002
0000
,  // measure 51
0103
1020
0000
0000
,  // measure 52
1030
0002
0000
0000
,  // measure 53
0013
0000
0000
0000
0200
0000
0000
0000
0000
0000
0000
0000
0000
0000
0000
0300
,  // measure 54
1000
0100
0020
0000
0000
0000
0031
0000
,  // measure 55
0010
0100
0000
2000
,  // measure 56
3100
0010
0002
0000
,  // measure 57
0103
0002
0200
0000
0000
0000
0000
0000
,  // measure 58
0003
0020
0000
0000
,  // measure 59
0300
2000
0000
0000
,  // measure 60
0030
0200
0000
3300
,  // measure 61
0001
1000
0001
0000
1000
0000
0100
0000
,  // measure 62
0010
0000
0001
0010
0001
0000
0000
0000
0100
0000
0000
0000
1000
0000
0000
0000
,  // measure 63
0000
0000
0100
1000
0100
0000
0000
0000
0000
0000
0000
0000
0010
0000
0000
0000
,  // measure 64
0001
0000
0001
0100
0001
0000
0000
0000
0000
0000
0000
0000
1000
0000
0000
0000
,  // measure 65
0000
0002
2000
0000
0000
0000
0000
0000
,  // measure 66
0000
3003
0000
0000
;

//---------------dance-single - ----------------
#NOTES:
     dance-single:
     :
     Medium:
     4:
     0.222,0.286,0.026,0.219,0.000:
0000
0000
0000
0000
,
0000
0000
0000
0000
,
0000
0000
0000
0000
,
0000
0000
0000
0000
,
0000
2000
0000
0000
,
0000
0000
0000
0000
,
0000
0002
0000
0000
,
0000
0000
0000
0000
,
3003
0010
0000
0000
,
0100
0100
0000
0000
,
1000
1000
0000
0000
,
0001
0100
0001
0000
0000
0000
0200
0000
,
0000
0000
1300
0000
0000
0000
0000
0010
,
1000
0010
1000
0000
0000
0000
1000
0000
,
0100
0010
0000
0000
,
0002
0100
0200
0000
0000
0000
0000
0000
,
0303
1010
0000
0000
,
0001
1000
0000
0000
,
0010
0100
0000
0000
,
1000
0100
0001
0000
0000
0000
0010
0000
,
0100
1000
0000
0001
,
0010
0100
1000
0000
,
0010
2000
0002
0000
0000
0000
0000
0000
,
0000
3003
0000
0001
,
0001
1000
0000
0001
,
1000
0100
0000
2000
,
3100
0010
0001
0010
,
1000
0010
0000
0000
,
0100
0001
0000
1000
,
0010
0001
0000
2000
,
3100
0020
0000
0032
,
0000
2000
0000
3003
,
0000
0100
1000
0100
,
0010
0001
0010
0100
,
0000
0001
0100
0000
1000
0000
0100
0000
,
0010
0002
2003
3020
,
0000
1030
0100
0000
0010
0000
0001
0000
,
0100
1000
0010
0001
,
0100
1000
0000
0001
,
0000
0200
0000
1300
,
0000
0020
0000
0032
,
0000
2000
0000
0000
,
3003
1000
0000
0000
,
0001
0100
0000
0000
,
0010
1000
0000
0000
,
1000
0100
0001
0000
0000
0000
0010
0000
,
0000
0000
0011
0000
0000
0000
0000
0001
,
0100
0001
0100
0000
0000
0000
0010
0000
,
1000
0000
0100
0000
0000
0000
0000
1000
,
0100
0010
0001
0000
0000
0000
0000
0000
,
0000
0011
0000
0000
,
0100
0010
0000
0000
,
0001
1000
0000
0000
,
1000
0001
1000
0000
0000
0000
0100
0000
,
0010
0001
0000
0010
,
0100
1000
0001
0000
,
0100
2000
0020
0000
0000
0000
0000
0000
,
0000
3030
0000
0000
,
0000
0002
0000
0000
,
0000
0103
0000
0000
,
1000
0001
0100
0010
,
0001
1000
0100
0010
,
0000
0001
0000
1000
,
0010
0002
0000
2003
,
0000
0200
0000
0000
,
0000
3300
0000
0000
;

//---------------dance-single - ----------------
#NOTES:
     dance-single:
     :
     Easy:
     3:
     0.179,0.286,0.009,0.096,0.000:
0000
0000
0000
0000
,
0000
0000
0000
0000
,
0000
0000
0000
0000
,
0000
0000
0000
0000
,
0000
0000
0000
0000
,
0000
0000
0000
0000
,
0000
0000
0000
0000
,
0000
0000
0000
0000
,
0000
1000
0000
0000
,
0100
0100
0000
0000
,
0010
0010
0000
0000
,
0001
1000
0000
0100
,
0000
0010
0000
0000
,
0001
0001
0000
0100
,
0100
0100
0000
0000
,
1000
1000
0000
0000
,
0000
0010
0000
0000
,
0100
0100
0000
0000
,
0001
0001
0000
0000
,
1000
1000
0000
0100
,
1000
0100
0000
0010
,
0001
0100
0001
0000
,
1000
0010
0000
0000
,
0000
0100
0000
0000
,
0001
1000
0000
0100
,
0010
0001
0000
2000
,
3100
0010
0001
0010
,
0100
1000
0000
0000
,
0001
0100
0000
0010
,
1000
0100
0000
2000
,
3100
0001
0000
0020
,
0000
2000
0000
3030
,
0000
0001
1000
0100
,
0010
0001
0010
0100
,
0000
1000
0001
0100
,
0010
2000
3002
2003
,
3000
0001
1000
0001
,
1000
0010
0100
0010
,
1000
0100
0000
0010
,
0001
0100
0000
1000
,
0000
0010
0000
0001
,
0000
2002
0000
0000
,
3003
0100
0000
0000
,
0010
0010
0000
0000
,
0001
0001
0000
0000
,
1000
0100
0000
0010
,
0000
0001
0000
0000
,
0100
1000
0000
0010
,
0010
0010
0000
0000
,
0001
1000
0000
0000
,
0000
0010
0000
0000
,
0100
1000
0000
0000
,
0010
0001
0000
0000
,
0100
0100
0000
0010
,
1000
0010
0000
0001
,
0100
1000
0010
0000
,
0100
0001
0000
0000
,
0000
0000
0000
0000
,
0000
0000
0000
0000
,
0000
0000
0000
0000
,
1000
0100
0010
0001
,
0010
0100
0001
0100
,
0000
1000
0000
0001
,
0000
0100
0000
0010
,
0000
2000
0002
0000
0000
0000
0000
0000
,
0000
3003
0000
0000
;

//---------------dance-single - ----------------
#NOTES:
     dance-single:
     :
     Beginner:
     1:
     0.061,0.084,0.000,0.000,0.000:
0000
0000
0000
0000
,
0000
0000
0000
0000
,
0000
0000
0000
0000
,
0000
0000
0000
0000
,
0000
0010
0000
0000
,
0000
0000
0000
0000
,
0000
0100
0000
0000
,
0000
0000
0000
0000
,
0000
0001
0000
0000
,
0000
0000
0000
0000
,
0000
1000
0000
0000
,
0000
0010
0000
0010
,
0000
0010
0000
0000
,
0000
0100
0000
0000
,
0000
0000
0000
0000
,
0000
0001
0000
0000
,
0000
1000
0000
0000
,
0000
0000
0000
0000
,
0000
0100
0000
0000
,
0000
0000
0000
0000
,
0000
0001
0000
0000
,
0000
0000
0000
0000
,
0100
0100
0000
0000
,
0000
0010
0000
0000
,
0000
1000
0000
0000
,
0000
0000
0000
0000
,
0000
0001
0000
0000
,
0000
0000
0000
0000
,
0000
0010
0000
0000
,
0000
0000
0000
0100
,
0000
0001
0000
0001
,
0000
0001
0000
0000
,
0000
1000
0000
0000
,
0000
0000
0000
0000
,
0000
0010
0000
0000
,
0000
0000
0000
0000
,
0000
0001
0000
0000
,
0000
0000
0000
0000
,
0000
0010
0000
0000
,
0000
0100
0000
0000
,
0000
0100
0000
0000
,
0000
0000
0000
0000
,
0000
1000
0000
0000
,
0000
0001
0000
0000
,
0000
0010
0000
0000
,
0000
0100
0000
0100
,
0000
0100
0000
0000
,
0000
1000
0000
0000
,
0000
0001
0000
0000
,
0000
0010
0000
0000
,
0000
0100
0000
0000
,
0000
0100
0000
0000
,
0000
0100
0000
0000
,
0000
1000
0000
1000
,
0000
1000
0000
0000
,
0000
0001
0000
0000
,
0000
0010
0000
0000
,
0000
0000
0000
0000
,
0000
0100
0000
0000
,
0000
0000
0000
0000
,
0000
1000
0000
0000
,
0000
0000
0000
0000
,
0000
0001
0000
0000
,
0000
0000
0000
0000
,
0000
0100
0000
0000
;
