#TITLE:Zenius -I- Vanisher;
#SUBTITLE:;
#ARTIST:Tatsh;
#TITLETRANSLIT:;
#SUBTITLETRANSLIT:;
#ARTISTTRANSLIT:;
#CREDIT:;
#BANNER:bn.PNG;
#BACKGROUND:bg.PNG;
#LYRICSPATH:;
#CDTITLE:13 dd.png;
#MUSIC:Zenius -I- Vanisher.ogg;
#OFFSET:-3.003;
#SAMPLESTART:0.020;
#SAMPLELENGTH:12.015;
#SELECTABLE:YES;
#BPMS:0.000=80.000,23.000=160.000,256.000=80.000,272.000=160.000;
#STOPS:191.000=0.375
;
#BGCHANGES:;

//---------------dance-single - ----------------
#NOTES:
     dance-single:
     :
     Hard:
     7:
     0.400,0.562,0.054,0.062,0.074: // measure 1
0001
0000
0000
0000
,  // measure 2
1000
0000
0000
0000
,  // measure 3
1000
0000
0000
0000
,  // measure 4
0001
0000
0000
0000
,  // measure 5
0000
0000
0000
0000
1000
0001
0100
0000
,  // measure 6
0000
0000
0000
1000
,  // measure 7
0001
0000
1000
0100
0000
0000
1000
0000
,  // measure 8
0100
0000
0010
0001
0000
0000
1000
0000
,  // measure 9
0001
0000
0001
0100
0000
0000
0010
0000
,  // measure 10
0100
0000
0010
1000
0000
0001
0000
1000
,  // measure 11
0000
0100
0000
0010
0000
0001
0000
0010
,  // measure 12
0000
0100
0000
1000
0000
0001
0000
1000
,  // measure 13
0000
0100
0000
0010
0000
0001
0000
1000
,  // measure 14
0000
0001
0000
0100
0000
0001
1000
0001
,  // measure 15
1000
0000
0001
0000
0101
0000
1000
0010
,  // measure 16
1000
0000
0001
0000
1001
0000
0001
0100
,  // measure 17
1000
0000
1000
0000
1001
0000
0001
0010
,  // measure 18
1000
0000
1000
0000
1001
0000
0010
0100
,  // measure 19
0001
0000
1000
0000
0001
0000
1000
0001
,  // measure 20
1000
0001
0100
0010
,  // measure 21
1000
0000
0000
0000
0010
0000
0000
0000
0100
0000
0000
0000
0001
0000
0000
1000
,  // measure 22
0000
1000
0001
1000
0010
1000
0001
0001
,  // measure 23
0010
0100
1000
0100
0000
1000
0100
0000
,  // measure 24
0001
0100
0000
1000
0100
0010
0001
0010
,  // measure 25
0001
0010
0001
0100
0000
0010
1000
0000
,  // measure 26
0001
1000
0000
0000
0001
1000
0010
1000
,  // measure 27
0001
0100
0010
1000
0001
1000
0100
0000
,  // measure 28
0000
0000
0000
0000
1000
0000
0000
0001
0000
0000
0010
0000
1000
0000
0000
0000
,  // measure 29
0001
0100
0010
1000
0001
1000
0010
0000
,  // measure 30
0001
1000
0001
0100
0010
0001
1000
0000
,  // measure 31
0000
0001
0100
0001
1000
0100
0000
0000
,  // measure 32
0000
0001
1000
0001
0100
0001
0100
0000
,  // measure 33
0010
0100
0001
1000
0010
1000
0010
0000
,  // measure 34
0000
0000
1000
0000
0001
0000
0000
1000
0000
0000
0001
0000
0100
0000
0000
0000
,  // measure 35
0010
0100
0010
1000
0001
1000
0010
0000
,  // measure 36
0000
0000
1000
0000
0100
0000
0000
0010
0000
0000
0001
0000
0010
0000
0000
0000
,  // measure 37
0100
0010
0001
1000
0100
0010
0100
0000
,  // measure 38
0000
0000
1001
0000
0000
0000
0010
0100
,  // measure 39
0010
0000
0010
0100
0010
0000
0100
0010
,  // measure 40
0100
0000
0010
0100
0010
1000
0001
1000
,  // measure 41
0001
0000
0001
1000
0001
0000
1000
0001
,  // measure 42
1000
0000
1000
0100
0010
0001
0100
0001
,  // measure 43
0100
0000
0010
1000
0010
0000
0100
0010
,  // measure 44
0100
0000
0010
0100
0010
0000
0010
0100
,  // measure 45
0010
0100
0010
1000
0001
1000
0010
1000
,  // measure 46
0001
0100
0010
0100
0010
0100
0010
1000
,  // measure 47
0010
1000
0001
0100
0001
0100
0001
0010
,  // measure 48
0100
1000
0100
0010
0001
0010
1000
0010
,  // measure 49
0110
0000
0010
1000
0010
1000
0010
1000
,  // measure 50
0000
0000
0000
0000
0000
0000
0000
0000
0001
0000
0000
0100
0000
0000
0010
0000
,  // measure 51
1000
0000
0000
0000
0200
0000
0000
1300
,  // measure 52
0000
0000
0000
0000
0000
0000
0000
0000
0010
0000
0000
0100
0000
0000
0010
0000
,  // measure 53
1000
0000
0000
0000
0000
1000
0100
0010
,  // measure 54
0001
0000
0000
0000
0000
0000
0000
0000
0001
0000
0000
1000
0000
0000
0001
0000
,  // measure 55
0100
0000
0000
0000
0010
0100
0000
0010
,  // measure 56
2000
0000
3100
0000
,  // measure 57
0001
0100
0001
0200
0000
0000
0000
0000
,  // measure 58
0300
0000
0000
0010
0100
0100
0010
0010
,  // measure 59
1000
0001
1000
0020
0000
0000
0000
0000
,  // measure 60
0030
0000
0000
1000
0100
0100
1000
1000
,  // measure 61
0100
0000
1000
0100
0000
0001
0000
0100
,  // measure 62
0010
0000
0000
0000
0000
0000
0000
0000
0010
0000
0000
0100
0000
0000
0010
0000
,  // measure 63
1000
0000
0001
1000
0010
1000
0001
1000
,  // measure 64
0020
0000
2030
0000
,  // measure 65
3100
0000
0000
0000
1000
0100
0000
0010
0000
0001
0000
0100
0001
0100
0010
1000
,  // measure 66
0001
0000
0000
0010
0100
0010
0000
0010
0100
0000
0010
0000
1000
0000
0001
1000
,  // measure 67
0010
0000
1000
0100
0010
0001
0010
0000
,  // measure 68
0100
0000
0000
0000
1000
0100
0000
0000
0010
0000
0000
0000
0001
0000
0000
0000
,  // measure 69
2200
0000
0000
0000
,  // measure 70
3300
0000
0000
0000
;

//---------------dance-single - ----------------
#NOTES:
     dance-single:
     :
     Medium:
     5:
     0.335,0.448,0.109,0.124,0.000: // measure 1
0001
0000
0000
0000
,  // measure 2
0010
0000
0000
0000
,  // measure 3
0001
0000
0000
0000
,  // measure 4
0100
0000
0000
0000
,  // measure 5
0000
0000
0000
0000
1000
0010
0100
0000
,  // measure 6
0000
0000
0000
0001
,  // measure 7
1000
0000
0001
1000
0000
0000
0001
0000
,  // measure 8
0100
0000
0010
1000
0000
0000
0001
0000
,  // measure 9
1000
0000
0001
0100
0000
0000
0010
0000
,  // measure 10
0100
0000
0010
0100
0000
0100
0000
0010
,  // measure 11
0000
0010
0000
1000
0000
0001
0000
1000
,  // measure 12
0000
0001
0000
0010
0000
0100
0000
1000
,  // measure 13
0000
0100
0000
0010
0000
0001
0000
0010
,  // measure 14
0000
0100
0000
1000
0000
0001
1000
0000
,  // measure 15
0101
0000
0010
1000
0001
0000
0010
0000
,  // measure 16
0110
0000
0010
1000
0010
0000
0010
0000
,  // measure 17
0110
0000
0010
0100
0001
0000
0010
0000
,  // measure 18
1001
0000
0001
1000
0100
0000
0010
0000
,  // measure 19
1010
0000
0010
0100
0001
0000
0010
0000
,  // measure 20
0110
0000
0010
1000
0001
0000
1000
0000
,  // measure 21
0001
0100
0010
2000
,  // measure 22
0000
0002
3003
0001
,  // measure 23
0100
0000
0010
0100
0000
0000
0010
0000
,  // measure 24
0000
0100
0000
0000
0010
1000
0010
0000
,  // measure 25
1000
0100
0000
1000
,  // measure 26
0000
0001
0000
0000
0010
0000
0100
0000
,  // measure 27
0010
0000
1000
0010
0000
0010
0100
0000
,  // measure 28
0000
0001
1000
1001
,  // measure 29
0001
0010
0100
1000
,  // measure 30
0001
0100
0001
0100
0010
1000
0010
0000
,  // measure 31
0000
0000
0010
0100
0010
0100
0010
0000
,  // measure 32
0000
0000
0001
0100
0001
0100
0001
0000
,  // measure 33
0000
0000
1000
0100
1000
0100
1000
0000
,  // measure 34
0000
0001
0100
1010
,  // measure 35
0010
1000
0010
0100
0010
1000
0001
0000
,  // measure 36
0000
0001
1000
0001
,  // measure 37
0100
0000
0010
1000
0010
1000
0020
0000
,  // measure 38
0000
0130
0000
0010
,  // measure 39
0110
0010
1000
0010
,  // measure 40
0110
0000
0010
1000
0010
1000
0010
0000
,  // measure 41
0110
0000
0010
1000
0001
0000
0010
0000
,  // measure 42
0010
0000
0010
0100
0010
0100
0001
0000
,  // measure 43
1000
0000
0001
0100
0001
0000
0100
0000
,  // measure 44
0010
0000
1000
0010
1000
0000
0001
1000
,  // measure 45
0001
0000
0001
1000
0001
0000
1000
0001
,  // measure 46
1000
0000
1000
0001
1000
0000
0010
1000
,  // measure 47
0010
1000
0001
0100
0001
0100
0010
1000
,  // measure 48
0001
0100
0010
1000
0001
0100
1000
0000
,  // measure 49
1010
0000
0010
0000
0100
0000
0010
1000
,  // measure 50
0000
0000
0001
1000
,  // measure 51
0002
0000
0000
0000
0100
0000
0000
0013
,  // measure 52
0000
0000
0001
1000
,  // measure 53
0020
0000
0000
0000
0000
1030
0010
1000
,  // measure 54
0010
0000
1000
0100
,  // measure 55
1000
0000
0000
0000
0010
1000
0000
0010
,  // measure 56
0200
0000
0310
0000
,  // measure 57
0010
0100
0010
0100
0000
0000
0000
0000
,  // measure 58
0000
0000
0000
0001
1000
1000
0001
0001
,  // measure 59
1000
0001
1000
0001
0000
0000
0000
0000
,  // measure 60
0000
0000
0000
0001
0100
0001
0100
0001
,  // measure 61
0100
0000
0000
0010
0000
1000
0000
0001
,  // measure 62
1000
0000
2000
0000
,  // measure 63
3100
0000
0000
0000
0000
1000
0100
0010
,  // measure 64
0001
0000
0100
0000
,  // measure 65
2020
3030
0002
0000
,  // measure 66
1003
0000
0220
0300
,  // measure 67
0200
0030
0302
1003
,  // measure 68
1000
0002
0013
2000
,  // measure 69
3100
0000
0000
0000
;

//---------------dance-single - ----------------
#NOTES:
     dance-single:
     :
     Easy:
     2:
     0.150,0.211,0.023,0.116,0.000: // measure 1
1000
0000
0000
0000
,  // measure 2
1000
0000
0000
0000
,  // measure 3
0001
0000
0000
0000
,  // measure 4
0001
0000
0000
0000
,  // measure 5
0000
0000
0010
0010
,  // measure 6
0000
0000
0000
1000
,  // measure 7
0000
0000
0000
0001
,  // measure 8
0000
0000
0000
0100
,  // measure 9
0000
0000
0000
0010
,  // measure 10
0000
1000
0000
1000
,  // measure 11
0000
0001
0000
0001
,  // measure 12
0000
0100
0000
0100
,  // measure 13
0000
0010
0000
0010
,  // measure 14
0000
1000
0000
1000
,  // measure 15
0001
1000
0000
0001
,  // measure 16
0100
0001
0000
0010
,  // measure 17
1000
0010
0000
1000
,  // measure 18
0001
1000
0000
0100
,  // measure 19
0010
0100
0000
0010
,  // measure 20
1000
0010
0000
0002
,  // measure 21
0000
0000
0000
2000
,  // measure 22
0000
0000
3003
0001
,  // measure 23
0000
0000
0000
1000
,  // measure 24
0000
0000
0001
0100
,  // measure 25
0000
0000
0000
0010
,  // measure 26
0000
0000
0000
1000
,  // measure 27
0000
0001
0000
1000
,  // measure 28
0000
0001
0100
0010
,  // measure 29
0010
0010
0010
0010
,  // measure 30
2000
0000
0000
3100
,  // measure 31
0000
0002
0000
0003
,  // measure 32
0000
2000
0000
3000
,  // measure 33
0020
0000
0030
0000
,  // measure 34
0000
0200
0000
0300
,  // measure 35
0020
0000
0000
0030
,  // measure 36
0000
1000
0000
0001
,  // measure 37
0000
1000
0001
0100
,  // measure 38
0000
0100
0000
0010
,  // measure 39
0000
0000
0000
0010
,  // measure 40
0000
0000
0000
1000
,  // measure 41
0000
0000
0000
0001
,  // measure 42
0000
0000
0000
1000
,  // measure 43
0000
0000
0000
0001
,  // measure 44
0000
0000
0000
0100
,  // measure 45
0000
0000
0000
0100
,  // measure 46
0000
0000
0000
0010
,  // measure 47
0000
0010
0000
0010
,  // measure 48
1000
0001
1000
0001
,  // measure 49
1001
0000
0001
1000
,  // measure 50
0000
0000
0001
1000
,  // measure 51
0001
0000
0000
0000
0100
0000
0000
0010
,  // measure 52
0000
0000
0010
1000
,  // measure 53
1010
0000
0000
1000
,  // measure 54
1000
0000
0001
1000
,  // measure 55
0001
0000
0100
0000
,  // measure 56
0010
0000
1000
0000
,  // measure 57
0002
0000
0000
0003
0000
0000
0000
0000
,  // measure 58
0000
0000
0000
0000
,  // measure 59
2000
0000
0000
3000
0000
0000
0000
0000
,  // measure 60
0000
0000
0000
0000
,  // measure 61
0010
0000
0000
0000
0000
0100
0000
0000
,  // measure 62
0100
0000
0010
1000
,  // measure 63
0001
0000
0000
1000
,  // measure 64
0001
0000
0100
0000
,  // measure 65
2002
0000
3003
0000
,  // measure 66
0200
0000
0000
0000
,  // measure 67
2300
0000
0000
0000
,  // measure 68
3002
0000
0000
0000
,  // measure 69
1003
0000
0000
0000
;

//---------------dance-single - ----------------
#NOTES:
     dance-single:
     :
     Challenge:
     9:
     0.576,0.803,0.427,0.085,0.372: // measure 1
0210
0000
0000
0010
0000
0000
0310
0000
0000
0000
0000
0000
0000
0000
0000
0000
,  // measure 2
2001
0000
0000
0001
0000
0000
3001
0000
0000
0000
0000
0000
0000
0000
0000
0000
,  // measure 3
1020
0000
0000
1000
0000
0000
1030
0000
0000
0000
0000
0000
0000
0000
0000
0000
,  // measure 4
0102
0000
0000
0100
0000
0000
0103
0000
0000
0000
0000
0000
0000
0000
0000
0000
,  // measure 5
0000
0000
0000
0000
0010
0100
1000
0000
,  // measure 6
2002
0000
0000
0000
0000
0000
0000
0000
0000
3003
0000
0000
0010
0000
0000
0000
,  // measure 7
1100
0000
0000
0001
0010
0000
0100
0000
0000
0000
0001
0000
0100
0000
0000
0000
,  // measure 8
0011
0000
0000
0010
0100
0000
0010
0000
0000
0000
1000
0000
0100
0000
0000
0000
,  // measure 9
1010
0000
0000
0010
1000
0000
0001
0000
0000
0000
0100
0000
1000
0000
0000
0000
,  // measure 10
1010
0000
0000
0010
1000
0000
0001
0000
0001
0000
1000
0000
0100
0000
0010
0000
,  // measure 11
0001
0010
0100
1000
0010
0100
0001
1000
,  // measure 12
0010
0100
0001
1000
0010
0001
0010
0100
,  // measure 13
0001
1000
0010
0100
0010
1000
0001
0100
,  // measure 14
1000
0100
0010
0100
0001
1000
0000
0010
,  // measure 15
1000
0010
0000
0101
0000
0000
0100
0000
1000
0010
0000
1001
0000
0000
0010
0000
,  // measure 16
0100
1000
0000
1010
0000
0000
0001
0000
0100
1000
0000
1100
0000
0000
0010
0000
,  // measure 17
0100
1000
0000
0110
0000
0000
0001
0000
1000
0001
0000
0101
0000
0000
0010
0000
,  // measure 18
0100
1000
0000
1100
0000
0000
0010
0000
1000
0001
0000
0101
0000
0000
0010
0000
,  // measure 19
0100
1000
0000
0010
0000
0000
1000
0000
0100
0010
0000
0011
0000
0000
0001
0000
,  // measure 20
0001
0100
0000
1010
0000
0000
0001
0000
0010
0100
0000
0110
0000
0000
1100
0000
,  // measure 21
0000
0011
0000
0000
0011
0000
0000
0110
0000
0000
1100
0000
1000
0000
0000
1100
,  // measure 22
0000
0001
1000
1000
0100
0100
0010
0100
,  // measure 23
1000
0100
0010
0001
0000
0010
0001
0000
,  // measure 24
0010
0100
0000
1000
0001
0100
1000
1000
,  // measure 25
0010
0100
0001
0010
0000
0100
1000
0000
,  // measure 26
0010
0100
0000
0010
1000
0100
0010
0001
,  // measure 27
0010
0100
1000
0100
0010
1000
0001
0000
,  // measure 28
0000
0000
0000
0000
0110
0000
0000
0110
0000
0000
0110
0000
0100
0000
0000
0000
,  // measure 29
1000
0100
0010
1000
0001
0100
1000
0000
,  // measure 30
0010
1000
0010
1000
0010
1000
0010
0100
0001
0100
1000
0001
0100
0000
0000
0000
,  // measure 31
0000
0000
0010
1000
0001
0100
0010
1000
0010
0100
0001
1000
0100
0000
0000
0000
,  // measure 32
0000
0000
0001
1000
0010
0000
0100
0000
1000
0000
0100
0000
0001
0000
0000
0000
,  // measure 33
0000
0000
1000
0100
1000
0000
0100
0000
0010
0000
0001
0000
1100
0000
0000
0000
,  // measure 34
0000
0000
0001
0000
0010
0000
0000
0010
0000
0000
0100
0000
1001
0000
0000
0000
,  // measure 35
0001
0100
0010
1000
0010
0000
0001
0000
0010
0000
0100
0000
1000
0000
0000
0000
,  // measure 36
0000
0000
0001
0000
0010
0000
0000
0100
0000
0000
1000
0000
1001
0000
0000
0000
,  // measure 37
0000
0010
0100
0010
0100
0001
1100
0000
,  // measure 38
0000
0000
0000
0000
0000
0000
0000
1000
0001
0000
0000
0000
0000
0000
0000
0000
0000
0000
0000
0000
0000
0000
0000
0000
0010
0000
0000
0000
0100
0000
0000
0000
,  // measure 39
0010
1000
0010
1000
0001
0100
0010
0001
,  // measure 40
0010
0100
1000
0100
0001
1000
0010
0100
,  // measure 41
0001
1000
0010
0100
0010
1000
0010
1000
,  // measure 42
0010
0000
0100
0000
0010
0000
1000
0000
0010
0000
0100
0000
0001
0100
0001
0000
,  // measure 43
0100
1000
0100
0001
0010
0100
1000
0100
,  // measure 44
0010
0000
0001
0000
0010
0000
0100
0000
0010
0000
1000
0000
0010
1000
0010
0000
,  // measure 45
0001
0100
0001
0000
0010
0100
0010
0000
0010
1000
0010
0000
0001
0100
0001
0000
,  // measure 46
0010
0001
0010
0000
0100
1000
0100
0000
0010
0100
0010
0000
0010
1000
0010
1000
,  // measure 47
0010
1000
0010
0000
0001
0100
0001
0100
0001
0100
0001
0000
0010
0001
0010
0001
,  // measure 48
0010
0100
1000
0010
0100
0001
0010
1000
0100
0001
0100
0010
1000
0000
0200
0000
,  // measure 49
0301
0000
0010
0100
1000
0100
0010
0001
,  // measure 50
0000
0000
0000
0000
0000
0000
0000
0000
0010
0000
0000
0100
0000
0000
1000
0000
,  // measure 51
0100
0000
0010
1000
0001
0000
0000
0100
,  // measure 52
0000
0000
0000
0000
0000
0000
0000
0000
1100
0000
0000
0110
0000
0000
0011
0000
,  // measure 53
0110
0000
0010
0100
0010
1000
0001
0100
,  // measure 54
1000
0000
0000
0000
0000
0000
0000
0000
0010
0000
0000
0110
0000
0000
1000
0000
,  // measure 55
1001
0000
0000
0000
0010
1000
0000
0100
,  // measure 56
0010
0000
1001
0000
,  // measure 57
0120
0100
0100
0130
0000
0000
0000
0000
,  // measure 58
0000
0000
0000
1000
1100
0010
0011
0010
,  // measure 59
2001
0001
0001
3001
0000
0000
0000
0000
,  // measure 60
0000
0000
0000
0010
1010
0001
0101
0010
,  // measure 61
0110
0000
0000
0011
0000
1010
0000
0010
,  // measure 62
0110
0000
0000
0000
0000
0000
0000
0000
1000
0000
0000
0100
0000
0000
0010
0000
,  // measure 63
0001
0000
0010
0100
0010
1000
0001
0100
,  // measure 64
1000
0000
0110
0000
,  // measure 65
1000
0000
0000
0000
0100
1000
0000
0010
0000
0001
0000
0100
1000
0100
0001
0010
,  // measure 66
0100
0000
0000
1000
0100
0010
0000
0001
1000
0000
0100
0000
0010
0000
0001
0100
,  // measure 67
0010
0000
0000
0000
0000
0000
1001
0000
0100
1000
0100
0000
0011
0000
0000
0000
,  // measure 68
0110
0000
0000
0000
0000
0000
0000
0000
0000
1000
0000
0000
0100
0000
0000
0001
0000
0000
0000
0000
0000
1000
0000
0000
0010
0000
0000
0000
0000
0000
0000
0000
0000
0000
0000
0000
1100
0000
0000
0000
0000
0000
0000
0000
0000
0000
0000
2000
,  // measure 69
0002
0000
0000
0000
,  // measure 70
3003
0000
0000
0000
;

//---------------dance-single - ----------------
#NOTES:
     dance-single:
     :
     Beginner:
     1:
     0.082,0.132,0.047,0.000,0.000:
0001
0000
0000
0000
,
0001
0000
0000
0000
,
0001
0000
0000
0000
,
1000
0000
0000
0000
,
0000
0000
0000
0000
,
0110
0000
0000
0100
,
0000
0000
0000
0000
,
0000
0000
0000
0010
,
0000
0000
0000
0000
,
0000
1000
0000
0000
,
0000
0001
0000
0000
,
0000
1000
0000
0000
,
0000
0000
0000
0000
,
0000
0000
0000
0010
,
0000
0000
0000
0000
,
0000
0000
0000
0100
,
0000
0000
0000
0000
,
0000
0000
0000
1000
,
0000
0000
0000
0001
,
0000
0000
0000
1000
,
0000
0000
0000
0001
,
0000
0000
0000
1001
,
0000
0000
0000
0100
,
0000
0000
0000
0010
,
0000
0000
0000
0000
,
0000
0000
0000
0001
,
0000
1000
0000
0100
,
0000
0001
0000
0001
,
0000
0000
0000
1001
,
0000
0000
0000
0110
,
0000
0000
0000
1000
,
0000
0000
0000
0001
,
0000
0000
0000
0010
,
0000
0000
0000
0100
,
0000
0000
0000
0010
,
0000
0000
0000
0001
,
0000
0000
0000
0000
,
0000
1000
0000
0100
,
0000
0000
0000
0000
,
0000
0000
0000
0010
,
0000
0000
0000
0000
,
0000
0000
0000
0001
,
0000
0000
0000
0000
,
0000
0000
0000
1000
,
0000
1000
0000
0100
,
0000
0100
0000
0010
,
0000
0010
0000
0001
,
0000
0001
0000
0000
,
0100
0000
0000
0000
,
0000
0000
0010
0000
,
0001
0000
0000
0000
,
0000
0000
0100
0000
,
0010
0000
0000
0000
,
1000
0000
0000
0000
,
0100
0000
0000
0000
,
0010
0000
0000
0000
,
0001
0001
0000
0000
,
0000
0000
0000
0000
,
1000
1000
0000
0000
,
0000
0000
0000
0000
,
0010
0000
0000
0000
,
0100
0000
0010
0000
,
0001
0000
0000
0000
,
1000
0000
0001
0000
,
0110
0000
0000
0000
,
1000
0000
0000
0000
,
0001
0000
0000
0000
,
0010
0000
0100
0000
,
1001
0000
0000
0000
;
