#TITLE:ZETA;
#SUBTITLE:;
#ARTIST:Zektbach;
#TITLETRANSLIT:;
#SUBTITLETRANSLIT:;
#ARTISTTRANSLIT:;
#CREDIT:;
#BANNER:bn.png;
#BACKGROUND:bg.PNG;
#LYRICSPATH:;
#CDTITLE:mo126129.PNG;
#MUSIC:ZETA.mp3;
#OFFSET:-0.040;
#SAMPLESTART:40.320;
#SAMPLELENGTH:12.000;
#SELECTABLE:YES;
#BPMS:0.000=180.000,89.000=90.000,105.000=180.000,201.000=90.000,217.000=180.020,322.000=120.013,332.667=180.020;
#STOPS:;
#BGCHANGES:;

//---------------dance-single - ----------------
#NOTES:
     dance-single:
     :
     Hard:
     8:
     0.475,0.581,0.023,0.171,0.051:
0000
0000
0000
0000
,
0000
0000
0000
0000
,
0000
0000
0000
0000
,
0000
0000
0000
0000
,
0000
0000
0000
0000
,
0000
0000
0000
0000
,
0000
0000
1000
0100
1000
0100
0000
0010
,
0100
0001
0100
0001
0100
0001
0000
1000
,
0100
0010
0001
0010
0100
1000
0000
0001
,
1000
0001
1000
0010
1000
0010
0000
0001
,
0100
0001
0100
0010
0001
0010
0000
0100
,
1000
0100
0010
0001
0010
0100
0000
0001
,
1000
0001
1000
0010
1000
0010
0000
1000
,
0100
0010
0001
0010
0100
0001
0000
1000
,
0000
1000
0100
1000
0100
1000
0000
0010
,
0100
0000
0001
1000
0001
1000
0000
0010
,
1000
0000
0001
0010
0100
1000
0000
1000
,
0100
0000
1000
0100
0010
0001
0000
0001
,
0100
0000
0010
0100
0010
0100
0000
0001
,
1000
0000
1000
0100
0010
0001
0000
0001
,
0100
0000
0010
1000
0010
1000
0000
0010
,
0100
0000
0001
1000
0001
1000
0000
1000
,
0100
0010
0002
0000
0000
1000
2000
3003
,
0000
0110
0120
0000
0230
0000
0302
0000
,
0023
0130
0000
0020
,
0000
0031
2100
0000
0000
0000
0002
0000
,
3000
0000
1003
0001
1000
0000
0000
1000
,
0100
1000
0000
0000
0000
0000
0000
0000
,
0000
0000
0010
0100
0010
0000
0000
0001
,
0100
0001
0000
0000
0000
0000
0000
0000
,
0000
0000
1000
0010
0100
0000
0000
0001
,
0010
1000
0000
0000
0000
0000
0000
0000
,
0000
0000
1000
0100
0010
0000
0000
0001
,
0100
0010
0000
0000
0000
0000
0000
0000
,
0000
0000
1000
0000
0001
0001
0000
1000
,
1000
0000
0010
0010
0000
0100
0100
0000
,
1000
0000
0100
0000
1000
0100
0000
0010
,
0001
0000
0001
0100
0000
0010
1000
0000
,
0010
0000
0100
0000
1000
0100
0000
0010
,
0001
0000
0001
0100
0000
0010
0100
0000
,
1000
0000
0100
0000
0010
0100
0000
0001
,
1000
0000
1000
0100
0000
0010
0001
0000
,
0100
0000
1000
0000
0100
1000
0100
1000
,
0000
0000
0010
0001
0010
0100
0000
0010
,
0100
0000
0000
0000
0010
1000
0010
1000
,
0010
1000
0010
0100
0001
1000
0000
0001
,
1000
0000
0000
0000
1000
0100
0010
1000
,
0000
0000
0001
0100
0010
1000
0000
0001
,
1000
0000
0000
0000
1000
0001
0100
0010
,
0001
0100
1000
0100
0010
0002
0000
1000
,
1003
0000
0000
0000
1000
0000
0000
0100
0000
0000
0010
0000
0000
0001
0000
0000
,
0010
0000
0000
0100
0000
0000
1000
0000
0000
0001
0000
0000
0100
0000
0000
0010
,
0000
0000
0100
0000
0000
1000
0000
0000
0100
0000
0000
0010
0000
0000
0001
0000
,
0000
1000
0000
0000
0001
0000
0000
0200
2000
0000
0000
0000
3300
0000
0000
0000
,
0000
0000
1000
0100
0010
0001
0010
0100
,
0001
0100
0010
1000
0010
1000
0001
0100
,
0001
0000
1000
0100
1000
0000
0100
0000
0010
0000
0001
0000
0010
0000
0100
0000
,
0001
0100
0001
1000
0010
1000
0010
0001
,
0010
0100
0010
1000
0001
0100
0001
0000
,
0010
1000
0010
0000
0001
1000
0010
0100
,
1000
0100
0010
0001
1000
0100
0000
0010
,
0001
0000
0100
0010
0100
0000
1000
0100
,
0000
0010
0001
0000
0010
0100
0010
0000
,
1000
0100
0000
0010
0001
0000
0001
0100
,
0001
0000
0010
1000
0000
0100
1000
0000
,
0100
1000
0100
0000
1000
0100
0000
0010
,
0001
0000
0010
0100
0010
0000
1000
0100
,
0000
0010
0001
0000
0001
0100
0001
0000
,
0010
1000
0000
1000
0100
0000
0010
0001
,
0010
0000
0100
0010
0000
0100
0010
0000
,
1000
0000
0100
0000
0010
0001
0000
0010
,
0001
0000
0020
0000
0130
0000
1000
0100
,
0000
1000
0100
0000
0020
0000
0130
0000
,
0001
1000
0000
0010
1000
0000
0200
0000
,
1300
0000
0010
0001
0000
0100
0010
0000
,
0200
0000
0310
0000
1000
0100
0000
0010
,
0001
0000
0020
0000
0031
0000
0010
0100
,
0000
0010
0100
0000
1000
0000
0100
0000
,
0010
0001
0000
0100
1000
0000
0010
0000
,
0100
0000
1000
0100
0000
0010
0001
0000
,
0100
0000
0000
0010
0000
0000
2000
0000
0000
0000
0000
3002
,
0000
0000
0000
0000
0203
0000
0000
0000
0000
0302
0000
0000
,
0000
0000
2000
0000
0000
0000
0000
0000
0000
0003
0000
0000
,
3001
0000
0000
0000
;

//---------------dance-single - ----------------
#NOTES:
     dance-single:
     :
     Medium:
     5:
     0.320,0.355,0.101,0.171,0.012:
0000
0000
0000
0000
,
0000
0000
0000
0000
,
0000
0000
0000
0000
,
0000
0000
0000
0000
,
0000
0000
0000
0000
,
0000
0000
0000
0000
,
0000
0000
1000
0000
0000
0100
0000
0010
,
0000
0001
0000
0000
0100
0001
0000
0000
,
0000
0000
1000
0000
0000
0001
0000
0000
,
0000
0000
0100
0000
0000
0010
0000
0000
,
0000
0000
0100
0000
0000
1000
0000
0001
,
0000
0100
0000
0000
0010
0100
0000
0100
,
1000
0100
1000
0000
0000
0100
0000
0000
,
0010
0001
0100
1000
,
0100
0000
0010
0000
1000
0100
0000
0010
,
0001
0000
0100
0000
0001
0200
0000
0000
,
0000
0301
0001
0100
,
0010
0100
0010
1000
,
0100
0000
2000
0000
0000
0100
0000
0100
,
0000
3100
0000
0000
1000
0100
0000
0010
,
0001
0010
0100
0000
0001
0000
0100
0000
,
1000
0010
0100
1000
,
0010
0002
0000
1003
,
0000
0010
0020
0000
0000
0000
0000
0000
,
0000
0230
0000
0010
,
0000
0301
0002
0000
0000
0000
2000
0000
,
3003
0000
0001
0100
0001
0000
0000
0001
,
0100
0001
0000
0000
0000
0000
0000
0000
,
0000
0000
0010
1000
0010
0000
0000
0010
,
1000
0010
0000
0000
0000
0000
0000
0000
,
0000
0000
1000
0100
1000
0000
0000
1000
,
0100
1000
0000
0000
0000
0000
0000
0000
,
0000
0000
0001
0100
0001
0000
0000
0010
,
1000
0010
0000
0000
0000
0000
0000
0000
,
0000
0000
1000
0000
0000
0100
0000
0000
,
0010
0000
0000
0001
0000
0000
0010
0000
,
0001
0000
0100
0000
0000
0001
0000
0000
,
1000
0000
0000
0100
0000
0000
0010
0000
,
1000
0000
0001
0000
0000
0100
0000
0000
,
0010
0000
0000
1000
0000
0000
0001
0000
,
0100
0000
0010
0000
0000
0100
0000
0000
,
1000
0000
0000
0001
0000
0000
0100
0000
,
1000
0000
0000
0000
1000
0100
1000
0100
,
0000
0000
0010
0001
0010
0001
0000
0000
,
0000
0000
0000
0000
0001
0100
0001
0100
,
0001
0100
0001
0100
0001
0100
0000
0000
,
0000
0000
0000
0000
0010
1000
0010
1000
,
0000
0000
1000
0100
1000
0100
0000
0000
,
0000
0000
0000
0000
0010
0001
0010
0001
,
0000
0000
0100
0001
0100
0001
0000
0000
,
0000
2002
0000
0000
,
0000
0000
0000
0000
,
0000
3003
0000
0000
,
0000
0000
0000
0000
,
0000
1000
0001
0100
,
0010
1000
0100
0010
,
0001
0100
0001
0100
0000
0001
0000
0010
,
0000
1000
0000
0001
0000
0010
0000
0100
,
0000
1000
0000
0100
2000
0000
0000
0000
,
3002
0000
0103
0010
,
0100
0000
0010
0000
1100
0000
0000
0011
,
0000
0001
0100
0110
,
0000
0110
0000
0000
1000
0000
0100
0000
,
0020
0000
0000
0031
0000
0000
0100
0000
,
0010
0000
0200
0000
0000
1300
0000
0000
,
1000
0000
0100
0000
0020
0000
0000
0031
,
0000
0010
0001
0020
,
0000
0031
0000
0000
0100
0000
0001
0000
,
0200
0000
0000
0301
0000
0000
0010
0000
,
1000
0000
0020
0000
0000
0130
0000
0000
,
1000
0000
0100
0000
0011
0000
0000
1100
,
0000
0010
0100
0110
,
0000
1100
0000
0000
0010
0000
0100
0000
,
0101
0000
0000
1010
0000
0000
1000
0000
,
0100
0000
0011
0000
0000
1100
0000
0000
,
1000
0000
0100
0000
0010
0001
0000
0100
,
1000
0000
0010
0000
0100
0000
0010
0100
,
0000
0010
0100
0000
1000
0000
0100
0000
,
0010
0001
0000
0100
1000
0000
0010
0000
,
0100
0000
0001
0100
0000
0010
1000
0000
,
0010
0000
0000
0100
0000
0000
0002
0000
0000
0000
0000
2003
,
0000
0000
0000
0000
3002
0000
0000
0000
0000
2003
0000
0000
,
0000
0000
3002
0000
0000
0000
0000
0000
0000
0000
0000
0000
,
0003
0000
0000
0000
;

//---------------dance-single - ----------------
#NOTES:
     dance-single:
     :
     Easy:
     3:
     0.187,0.290,0.008,0.070,0.000:
0000
0000
0000
0000
,
0000
0000
0000
0000
,
0000
0000
0000
0000
,
0000
0000
0000
0000
,
0000
0000
0000
0000
,
0000
0000
0000
0000
,
0000
0001
0000
0000
,
1000
0100
1000
0000
,
0001
0100
0001
0000
,
0010
0100
0010
0000
,
1000
0001
1000
0000
,
0100
1000
0100
0000
,
0010
0001
0010
0000
,
0001
0100
0001
0000
,
0000
1000
0001
0000
,
1000
0001
0100
0000
,
0010
0100
0010
0000
,
1000
0100
1000
0000
,
0001
0100
0010
0000
,
1000
0001
0100
0000
,
0010
1000
0000
0001
,
0000
0010
0000
0100
,
0000
2000
0000
0000
,
0000
3002
0000
0000
,
0003
0100
0000
0010
,
0000
0010
0000
1000
,
0000
0000
0001
0000
0001
0000
0000
1000
,
0000
1000
0000
0000
0000
0000
0000
0000
,
0000
0000
1000
0000
1000
0000
0000
0100
,
0000
0100
0000
0000
0000
0000
0000
0000
,
0000
0000
0100
0000
0100
0000
0000
0010
,
0000
0010
0000
0000
0000
0000
0000
0000
,
0000
0000
0001
0000
0001
0000
0000
1000
,
0000
1000
0000
0000
0000
0000
0000
0000
,
0000
0010
0000
0000
,
0000
0000
0010
0000
,
0000
0100
0000
0000
,
0000
1000
0000
0001
,
0000
0200
0000
0000
,
0000
0300
0000
0010
,
0000
0100
0000
1000
,
0000
0002
0000
1003
,
0000
0000
0001
0001
,
0000
1000
1000
0000
,
0000
0000
0010
0010
,
0100
1000
0001
0000
,
0000
0000
1000
0001
,
0000
0100
0010
0000
,
0000
0000
1000
0100
,
0010
0001
0100
0000
,
0000
2002
0000
0000
,
0000
0000
0000
0000
,
0000
0000
0000
0000
,
0000
0000
3003
0000
,
0000
0010
0010
0100
,
0100
1000
0100
0010
,
0002
0000
0103
0010
,
1000
0100
0010
0001
,
0100
1000
0001
0000
,
0001
0000
1000
1000
,
1000
0001
1000
0000
,
0000
0001
0000
0100
,
0000
0000
0010
0000
,
0100
0000
0000
1000
,
0000
0001
0000
0000
,
0010
0000
0100
0000
,
0000
0010
0100
0010
,
0000
0000
0010
0000
,
1000
0000
0000
0001
,
0000
1000
0000
0000
,
0001
0000
1000
0000
,
1000
0000
0100
0010
,
0000
0001
0000
0100
,
0010
0000
0010
0000
,
1000
0000
0001
0000
,
0100
0000
0010
0000
,
1000
0000
0001
0000
,
1000
0100
0010
0001
,
0100
0000
0000
0010
,
0000
0020
0000
0000
,
0030
0000
2000
0000
,
0000
0000
0000
0000
,
0000
0000
0000
0000
,
3001
0000
0000
0000
;

//---------------dance-single - ----------------
#NOTES:
     dance-single:
     :
     Beginner:
     2:
     0.087,0.161,0.016,0.000,0.000: // measure 1
0000
0000
0000
0000
,  // measure 2
0000
0000
0000
0000
,  // measure 3
0000
0000
0000
0000
,  // measure 4
0000
0000
0000
0000
,  // measure 5
0000
0000
0000
0000
,  // measure 6
0000
0000
0000
0000
,  // measure 7
0000
0010
0000
0000
,  // measure 8
0000
0010
0000
0000
,  // measure 9
0000
0100
0000
0000
,  // measure 10
0000
0100
0000
0000
,  // measure 11
0000
1000
0000
0000
,  // measure 12
0000
0001
0000
0000
,  // measure 13
0000
0100
0000
0000
,  // measure 14
0000
0100
0000
0000
,  // measure 15
0000
0010
0000
0000
,  // measure 16
0000
1000
0000
0000
,  // measure 17
0000
0001
0000
0000
,  // measure 18
0000
1000
0000
0000
,  // measure 19
0000
0001
0000
0000
,  // measure 20
0000
0100
0000
0000
,  // measure 21
0000
0010
0000
0000
,  // measure 22
0000
1000
0000
0000
,  // measure 23
0000
0001
0000
0000
,  // measure 24
0000
1000
0000
0000
,  // measure 25
0000
0100
0000
0000
,  // measure 26
0000
0010
0000
0000
,  // measure 27
0000
1000
0000
0000
,  // measure 28
0000
0000
0000
0000
,  // measure 29
0000
0001
0000
0000
,  // measure 30
0000
0000
0000
0000
,  // measure 31
0000
0010
0000
0000
,  // measure 32
0000
0000
0000
0000
,  // measure 33
0000
0100
0000
0000
,  // measure 34
0000
0000
0000
0000
,  // measure 35
0000
1000
0000
0000
,  // measure 36
0000
0000
0001
0000
,  // measure 37
0000
0100
0000
0000
,  // measure 38
0000
0010
0000
0010
,  // measure 39
0000
0010
0000
0000
,  // measure 40
0000
0000
0000
0000
,  // measure 41
0000
0100
0000
0000
,  // measure 42
0000
1000
0000
0000
,  // measure 43
0000
0000
0001
0000
,  // measure 44
0000
1000
0000
0000
,  // measure 45
0000
0000
0010
0000
,  // measure 46
0000
0100
0000
0000
,  // measure 47
0000
0000
0001
0000
,  // measure 48
0000
1000
0000
0000
,  // measure 49
0000
0000
0010
0000
,  // measure 50
0000
0100
0000
0000
,  // measure 51
0000
1001
0000
0000
,  // measure 52
0000
0000
0000
0000
,  // measure 53
0000
0000
0000
0000
,  // measure 54
0000
0000
0000
0000
,  // measure 55
0000
0010
0000
0000
,  // measure 56
0000
0000
0000
0000
,  // measure 57
0000
0000
0100
0000
,  // measure 58
0000
0000
0000
0000
,  // measure 59
0000
0000
1000
0000
,  // measure 60
0001
0000
1000
0000
,  // measure 61
0001
0000
1001
0000
,  // measure 62
0000
0001
0000
0001
,  // measure 63
0000
0000
0100
0000
,  // measure 64
0100
0000
0000
0010
,  // measure 65
0000
0010
0000
0000
,  // measure 66
0010
0000
1000
0000
,  // measure 67
0000
0000
0000
1000
,  // measure 68
0000
0000
0000
0000
,  // measure 69
0001
0000
0000
0100
,  // measure 70
0000
0100
0000
0000
,  // measure 71
0000
0000
0010
0000
,  // measure 72
0000
0010
0000
0010
,  // measure 73
0000
0000
0010
0000
,  // measure 74
0010
0000
0000
0100
,  // measure 75
0000
0100
0000
0000
,  // measure 76
1000
0000
0001
0000
,  // measure 77
0000
1000
0000
0001
,  // measure 78
0000
0000
0000
0000
,  // measure 79
0100
0000
0000
0010
,  // measure 80
0000
0010
0000
0000
,  // measure 81
0000
0000
0001
0000
,  // measure 82
0000
0000
0000
0000
,  // measure 83
0000
0000
0000
0000
,  // measure 84
1000
0000
0000
0000
;
