#TITLE:Yamato Nadesico;
#SUBTITLE:(MAXXX 400 Style English version);
#ARTIST:小坂りゆ;
#TITLETRANSLIT:;
#SUBTITLETRANSLIT:;
#ARTISTTRANSLIT:Riyu Kosaka;
#CREDIT:;
#BANNER:bn.PNG;
#BACKGROUND:bg.PNG;
#LYRICSPATH:;
#CDTITLE:;
#MUSIC:Yamato Nadesico.ogg;
#OFFSET:0.000;
#SAMPLESTART:15.580;
#SAMPLELENGTH:12.000;
#SELECTABLE:YES;
#DISPLAYBPM:*;
#BPMS:0.000=799.997,16.000=399.998,334.000=799.997,350.000=200.000,394.000=225.000,395.000=250.000,396.000=274.999,397.000=299.999,398.000=324.998,399.000=349.998,400.000=374.998,401.000=399.998,402.000=424.998,403.000=449.997,404.000=474.997,405.000=499.997,406.000=524.996,407.000=549.996,408.000=574.995,409.000=599.995,410.000=624.995,411.000=649.995,412.000=674.995,413.000=699.995,414.000=724.995,415.000=750.015,416.000=775.015,417.000=800.015,418.000=825.014,419.000=850.014,420.000=875.014,421.000=900.013,422.000=925.013,423.000=950.012,424.000=975.012,425.000=1000.012,444.000=100.001,447.000=400.000,637.000=800.014,639.000=799.999,671.000=400.000;
#STOPS:110.000=0.150
,173.000=0.150
,444.000=0.020
,445.500=0.020
;
#BGCHANGES:;

//---------------dance-single - ----------------
#NOTES:
     dance-single:
     :
     Hard:
     12:
     1.000,1.000,0.417,0.155,0.000: // measure 1
0000
0000
0000
0000
,  // measure 2
0000
0000
0000
0000
,  // measure 3
0000
0000
0000
0000
,  // measure 4
0000
0000
0000
0000
,  // measure 5
1000
0000
0100
0010
0100
0000
0001
0000
,  // measure 6
1000
0001
1000
0000
1000
0100
1000
0000
,  // measure 7
1000
0000
0001
0100
0001
0000
0010
0000
,  // measure 8
0100
0010
0100
0000
1000
0001
1000
0000
,  // measure 9
1001
0000
1000
0001
1000
0000
0100
0000
,  // measure 10
0010
0100
0010
0000
0001
1000
0001
1000
,  // measure 11
0001
0000
0001
0100
0001
0000
0010
0000
,  // measure 12
1000
0100
1000
0000
1000
0001
1000
0000
,  // measure 13
1001
0000
1000
0100
0010
0001
0010
0100
,  // measure 14
1000
0001
1000
0001
1000
0000
0000
0000
,  // measure 15
1000
0100
1000
0100
0010
0001
0010
0001
,  // measure 16
0010
0001
0100
0001
0100
0000
0000
0000
,  // measure 17
1000
0001
1000
0001
1000
0010
1000
0010
,  // measure 18
0100
0010
0100
0010
0100
0000
0000
0000
,  // measure 19
1000
0000
0001
1000
0001
0000
1000
0100
,  // measure 20
1000
0100
0010
0001
0010
0001
0010
0000
,  // measure 21
1001
0000
0001
1000
0001
0000
0001
1000
,  // measure 22
0001
0000
0001
1000
0002
0000
0000
0000
,  // measure 23
1003
0000
1000
0100
1000
0000
0001
0010
,  // measure 24
0001
0000
0100
0001
0100
0000
0010
0000
,  // measure 25
1001
1000
0100
0010
,  // measure 26
0011
0100
0001
0100
,  // measure 27
0101
0010
0110
0100
,  // measure 28
1100
0001
1001
1000
,  // measure 29
0100
0010
0001
0010
,  // measure 30
0100
0001
0100
0001
,  // measure 31
0100
0000
0001
0000
1000
0000
0100
0001
,  // measure 32
0100
0001
0100
0000
0000
0000
1000
0000
,  // measure 33
0100
0010
0001
0100
,  // measure 34
0001
0000
0010
0000
1000
0100
1000
0100
,  // measure 35
1000
0000
0100
0000
0010
0000
0001
0010
,  // measure 36
0001
0010
0001
0000
0000
0000
0001
0000
,  // measure 37
1000
0000
0100
0000
0010
0000
0001
0100
,  // measure 38
0001
0100
0001
0000
0010
0000
0100
0000
,  // measure 39
1000
0000
0100
0000
0010
0000
1000
0001
,  // measure 40
1000
0001
1000
0000
0010
0000
0010
0000
,  // measure 41
0100
0100
1000
1000
,  // measure 42
0001
0001
1000
1100
,  // measure 43
0011
0101
1010
1100
,  // measure 44
0011
0000
0000
0000
0000
0000
0000
0000
0000
0000
0000
0000
0000
0000
0000
0000
2002
3003
0000
0000
0000
0000
0000
0000
0000
0000
0000
0000
0000
0000
0000
0000
1000
0000
0000
0000
0000
0000
0000
0000
0001
0000
0000
0000
0000
0000
0000
0000
1000
0000
0000
0000
0000
0000
0000
0000
0000
0000
0000
0000
0000
0000
0000
0000
,  // measure 45
1000
0010
0001
0010
,  // measure 46
1000
0000
0100
0000
0010
1000
0010
0000
,  // measure 47
0001
1000
0010
1000
,  // measure 48
0100
0000
1000
0000
1000
0100
1000
0000
,  // measure 49
0100
0010
0100
0001
,  // measure 50
0100
0000
0001
0000
1000
0001
1000
0000
,  // measure 51
0001
1000
0100
0001
,  // measure 52
0100
0000
0001
0000
0100
0010
0100
0000
,  // measure 53
0001
1000
0010
0100
,  // measure 54
0010
0000
0100
0000
0010
1000
0010
0000
,  // measure 55
1000
0001
0100
0010
,  // measure 56
1000
0000
0001
0000
0001
1000
0001
0000
,  // measure 57
1000
0001
0100
0001
,  // measure 58
0010
0000
0100
0000
0001
1000
0001
1000
,  // measure 59
0001
1000
0001
1000
0001
1000
0001
1000
,  // measure 60
0002
0000
0000
0000
0103
0010
0000
0000
,  // measure 61
0100
0010
0000
0000
0100
1000
0000
0000
,  // measure 62
0001
0010
0000
0000
0001
0100
0000
0000
,  // measure 63
1000
0001
0000
0000
1000
0010
0000
0000
,  // measure 64
0100
0001
0000
0000
0100
0010
0000
0000
,  // measure 65
0100
1000
0000
0000
0001
0010
0000
0000
,  // measure 66
0001
0100
0000
0000
0001
0010
0000
0000
,  // measure 67
0001
1000
0000
0000
0001
0010
0000
0000
,  // measure 68
0001
0000
1000
0000
0001
1000
0000
0000
,  // measure 69
0001
1000
0000
0000
0010
1000
0000
0000
,  // measure 70
0001
0100
0000
0000
0100
1000
0000
0000
,  // measure 71
0001
0010
0000
0000
0100
0001
0000
0000
,  // measure 72
1000
0010
0000
0000
1000
0010
0000
0000
,  // measure 73
0100
0001
0000
0000
0100
1000
0000
0000
,  // measure 74
0001
0010
0000
0000
0100
0010
0000
0000
,  // measure 75
1000
0001
0000
0000
1000
0010
0000
0000
,  // measure 76
1000
0001
0000
0000
0001
0000
1000
0000
,  // measure 77
0100
0010
0001
0010
,  // measure 78
0100
0001
0100
0001
,  // measure 79
0100
0010
1000
0010
,  // measure 80
1000
0010
1000
0100
,  // measure 81
0010
0001
0010
0100
,  // measure 82
0010
1000
0010
1000
,  // measure 83
0010
1000
0010
1000
,  // measure 84
0001
2000
0002
0000
,  // measure 85
0000
0000
0000
0000
,  // measure 86
0000
0000
0000
0000
,  // measure 87
0000
0000
0000
0000
,  // measure 88
3003
0000
0000
0000
1000
0100
0010
0001
,  // measure 89
0102
0000
1003
0000
0001
1000
0001
1000
,  // measure 90
1020
0000
1030
0000
1000
0100
0010
0001
,  // measure 91
0012
0000
0103
0000
0001
0100
0001
1000
,  // measure 92
1020
0000
1030
0000
1100
0110
0000
0001
,  // measure 93
0000
1000
0000
1000
1001
0101
0000
0001
,  // measure 94
0000
1100
0000
0110
1001
1100
0000
0001
,  // measure 95
0000
1000
1100
0000
0000
0011
0000
0110
,  // measure 96
0000
1100
0000
1001
0001
1000
0001
1000
,  // measure 97
0010
1000
0001
0100
0001
0100
0010
0001
,  // measure 98
0010
0100
1000
0100
0011
0000
0000
1100
,  // measure 99
0000
0101
2002
0000
,  // measure 100
0000
0000
0000
0000
,  // measure 101
0000
0000
0000
0000
,  // measure 102
0000
0000
0000
0000
,  // measure 103
0000
0000
0000
0000
,  // measure 104
0000
0000
0000
0000
,  // measure 105
0000
0000
0000
0000
,  // measure 106
0000
0000
0000
0000
,  // measure 107
0000
0000
0000
0000
,  // measure 108
0000
0000
0000
0000
,  // measure 109
0000
0000
0000
0000
,  // measure 110
0000
0000
0000
0000
,  // measure 111
0000
0000
0000
3003
,  // measure 112
0200
0000
0000
0002
0000
0303
0010
0001
,  // measure 113
0010
0100
1000
0100
1000
0100
0010
0001
,  // measure 114
1000
0100
0010
0000
0001
0000
1000
0000
,  // measure 115
0001
0100
0001
0010
,  // measure 116
1000
0000
0100
0000
0001
0000
1000
0100
,  // measure 117
1000
0100
1000
0100
1000
0100
1000
0100
,  // measure 118
1000
0100
1000
0000
0100
0000
0001
0000
,  // measure 119
1000
0001
0100
0001
,  // measure 120
1000
0001
1000
0100
,  // measure 121
0010
0000
0001
0100
0001
0000
0010
0000
,  // measure 122
0100
0000
1000
0001
1000
0000
0001
0000
,  // measure 123
0100
0000
1000
0100
1000
0000
0001
0000
,  // measure 124
1000
0000
0001
0100
0001
0000
1000
0000
,  // measure 125
0000
1000
0100
0000
0000
0100
0010
0000
,  // measure 126
0000
0010
0001
0000
0000
0001
0100
0000
,  // measure 127
1100
0000
0011
0000
,  // measure 128
1100
0000
0010
0110
,  // measure 129
0010
1000
0010
1000
,  // measure 130
0010
1000
0010
0100
,  // measure 131
0001
0000
1000
0000
0001
0000
1000
0001
,  // measure 132
1000
0001
1000
0001
0100
0001
0100
0000
,  // measure 133
0001
0100
0010
0001
,  // measure 134
0100
0001
0100
0001
,  // measure 135
1000
0000
0001
0000
1000
0000
0001
0010
,  // measure 136
0100
1000
0100
0000
0001
0000
1000
0100
,  // measure 137
1000
0000
0001
0010
0001
0000
0100
0001
,  // measure 138
0100
0000
0010
1000
0010
0000
1000
0100
,  // measure 139
1000
0000
0010
0001
0010
0000
0001
0100
,  // measure 140
0001
0000
1000
0100
1000
0000
0010
0100
,  // measure 141
0010
0000
0001
1000
0001
0000
1000
0100
,  // measure 142
1000
0000
0001
0010
0001
0000
1100
0000
,  // measure 143
0000
0000
0000
0011
,  // measure 144
0000
0000
0000
0100
,  // measure 145
0001
0100
0001
0000
1000
0100
1000
0100
,  // measure 146
1000
0100
1000
0000
0010
0000
0001
0000
,  // measure 147
0010
0001
0010
0000
0100
0001
0100
0001
,  // measure 148
0100
0001
1000
0000
0100
0000
1000
0000
,  // measure 149
0100
1000
0100
0000
0010
1000
0010
1000
,  // measure 150
0010
1000
0010
0000
1000
0000
0001
0000
,  // measure 151
1000
0010
1000
0000
0001
0010
0001
0010
,  // measure 152
0001
0010
0001
0000
1000
0000
0001
1000
,  // measure 153
0001
1000
0001
0000
0100
0010
0100
0010
,  // measure 154
0100
0000
1000
0100
1000
0100
1000
0000
,  // measure 155
0010
0001
0010
0001
0010
0000
0001
0100
,  // measure 156
0001
0100
0001
0000
1000
0000
1000
0100
,  // measure 157
1000
0100
1000
0100
1000
0100
1000
0100
,  // measure 158
0010
0001
0010
0001
0010
0001
0010
0001
,  // measure 159
0010
0001
0010
0100
1000
0100
0010
0001
,  // measure 160
0010
0002
0200
0000
0000
0000
0000
0000
,  // measure 161
0000
0000
0000
0000
,  // measure 162
0000
0000
0000
0000
,  // measure 163
0000
0000
0000
0000
,  // measure 164
0000
0000
0000
0000
,  // measure 165
0000
0000
0000
0000
,  // measure 166
0000
0000
0000
0000
,  // measure 167
0000
0000
0000
0000
,  // measure 168
0000
0000
0000
0303
;

//---------------dance-single - ----------------
#NOTES:
     dance-single:
     :
     Medium:
     9:
     0.747,1.000,0.630,0.107,0.000: // measure 1
0000
0000
0000
0000
,  // measure 2
0000
0000
0000
0000
,  // measure 3
0000
0000
0000
0000
,  // measure 4
0000
0000
0000
0000
,  // measure 5
1000
0100
0000
0010
,  // measure 6
0001
0100
0001
0100
,  // measure 7
0001
0100
0000
0010
,  // measure 8
1000
0010
1000
0000
,  // measure 9
1000
0100
0000
0010
,  // measure 10
0001
0010
0001
0000
,  // measure 11
0001
0100
0000
0010
,  // measure 12
1000
0010
1000
0000
,  // measure 13
1001
0001
0000
0001
,  // measure 14
1000
0001
1000
0000
,  // measure 15
0010
1000
0010
1000
,  // measure 16
0010
0100
0010
0000
,  // measure 17
0001
1000
0001
1000
,  // measure 18
0001
1000
0001
0000
,  // measure 19
0001
0100
0001
0100
,  // measure 20
0001
0100
0002
0003
,  // measure 21
1001
0010
0100
0010
,  // measure 22
1000
0001
1000
0000
,  // measure 23
0100
1000
0100
0010
,  // measure 24
0001
0010
0001
0011
,  // measure 25
0011
0001
0100
0001
,  // measure 26
0101
0000
0000
0000
,  // measure 27
1100
0000
0011
0000
,  // measure 28
1100
0000
0101
0010
,  // measure 29
0100
0010
0000
1000
,  // measure 30
0100
1000
0000
0001
,  // measure 31
0010
0001
0010
0100
,  // measure 32
1000
0100
0000
0001
,  // measure 33
1000
0010
0000
1000
,  // measure 34
0100
1000
0000
1000
,  // measure 35
0100
0010
0001
0020
,  // measure 36
0000
0031
0000
0001
,  // measure 37
1000
0001
0000
0010
,  // measure 38
1000
0010
0000
1000
,  // measure 39
0100
0010
0001
0021
,  // measure 40
0000
0031
0000
1001
,  // measure 41
0000
0010
0000
0110
,  // measure 42
0000
1000
0000
1100
,  // measure 43
0000
1000
0100
0010
,  // measure 44
0001
0010
0101
0000
,  // measure 45
0010
0000
0010
1000
,  // measure 46
0010
0000
0010
0100
,  // measure 47
0010
0000
0001
1000
,  // measure 48
0001
0000
1000
0100
,  // measure 49
1000
0000
0010
0001
,  // measure 50
0010
0000
0010
0000
,  // measure 51
0010
0100
0002
0000
,  // measure 52
0013
0000
1000
0100
,  // measure 53
1000
0000
0010
0001
,  // measure 54
0010
0000
0100
0001
,  // measure 55
0100
0000
0010
1000
,  // measure 56
0010
0000
1001
0000
,  // measure 57
0010
0000
0110
0000
,  // measure 58
1000
0000
1000
0000
,  // measure 59
1000
0100
0010
0001
,  // measure 60
0010
0000
1001
0000
,  // measure 61
0110
0000
1100
0000
,  // measure 62
0011
0000
0110
0000
,  // measure 63
0001
0000
1000
0000
,  // measure 64
0001
1000
1001
0000
,  // measure 65
1010
0000
1010
0000
,  // measure 66
0110
0000
0110
0000
,  // measure 67
0001
1000
0001
0000
,  // measure 68
0100
0000
0101
0000
,  // measure 69
0101
0000
1100
0000
,  // measure 70
1100
0000
0110
0000
,  // measure 71
0110
0000
1001
0000
,  // measure 72
1001
0000
0110
0000
,  // measure 73
1100
0000
0011
0000
,  // measure 74
0110
0000
1010
0000
,  // measure 75
0010
1000
0010
0000
,  // measure 76
0100
0000
1000
0100
,  // measure 77
1000
0000
0010
0001
,  // measure 78
0010
0000
0100
0001
,  // measure 79
0100
0000
0010
1000
,  // measure 80
0010
0000
1001
0000
,  // measure 81
0000
0110
0010
0000
,  // measure 82
0010
0000
1000
0100
,  // measure 83
0010
0001
0010
0100
,  // measure 84
0010
1000
0002
0000
,  // measure 85
0000
0000
0000
0000
,  // measure 86
0000
0000
0000
0000
,  // measure 87
0000
0000
0000
0000
,  // measure 88
0000
0000
0003
0000
1001
0000
0001
1000
,  // measure 89
0001
1000
0001
0000
0010
0000
1000
0100
,  // measure 90
1000
0100
1000
0000
0010
0000
0001
0100
,  // measure 91
0001
0100
0001
0000
0001
0000
0001
1000
,  // measure 92
0010
0100
0010
0000
1000
0100
0000
0000
,  // measure 93
0000
0000
0000
0000
0001
0010
0000
0000
,  // measure 94
0000
0001
0000
1000
0001
1000
0000
0000
,  // measure 95
0000
0000
0110
0000
0000
0100
0000
0100
,  // measure 96
0000
0100
0000
0001
1000
0100
0010
0001
,  // measure 97
0010
0100
0001
0000
0001
1000
0001
1000
,  // measure 98
0010
1000
0010
0000
1010
0000
0000
0011
,  // measure 99
0000
1100
0202
0000
,  // measure 100
0000
0000
0000
0000
,  // measure 101
0000
0000
0000
0000
,  // measure 102
0000
0000
0000
0000
,  // measure 103
0000
0000
0000
0000
,  // measure 104
0000
0000
0000
0000
,  // measure 105
0000
0000
0000
0000
,  // measure 106
0000
0000
0000
0000
,  // measure 107
0000
0000
0000
0000
,  // measure 108
0000
0000
0000
0000
,  // measure 109
0000
0000
0000
0000
,  // measure 110
0000
0000
0000
0000
,  // measure 111
0000
0000
0000
0000
,  // measure 112
0300
0000
0000
0103
0000
0000
0001
0000
,  // measure 113
1000
0001
1000
0001
,  // measure 114
1000
0010
1000
0010
,  // measure 115
0100
0010
0100
0001
,  // measure 116
0010
0100
1000
0100
,  // measure 117
1000
0010
1000
0001
,  // measure 118
0100
0001
1000
0001
,  // measure 119
1000
0001
1000
0010
,  // measure 120
0000
1010
0000
0010
,  // measure 121
0100
0010
0100
0010
,  // measure 122
1000
0010
1000
0001
,  // measure 123
0100
0001
0100
0010
,  // measure 124
0001
0010
0001
0011
,  // measure 125
0000
1100
0000
0110
,  // measure 126
0000
1001
0000
1100
,  // measure 127
0000
0110
0001
1000
,  // measure 128
1000
0001
0001
1001
,  // measure 129
0001
1000
0001
1000
,  // measure 130
0010
1000
0010
0100
,  // measure 131
0010
0100
0001
1000
,  // measure 132
0001
0100
0001
0100
,  // measure 133
0001
0100
0010
1000
,  // measure 134
0010
1000
0001
0100
,  // measure 135
1000
0100
0010
0001
,  // measure 136
0010
0000
0100
0000
0001
0100
0001
0000
,  // measure 137
0010
0100
0010
1000
,  // measure 138
0100
0010
0001
0010
,  // measure 139
0100
1000
0100
0010
,  // measure 140
0001
1000
0001
1000
,  // measure 141
0010
1000
0010
0100
,  // measure 142
0010
1000
0010
2000
,  // measure 143
0000
0000
0000
0002
,  // measure 144
0000
0000
3003
0010
,  // measure 145
0100
1000
0100
0010
,  // measure 146
0001
1000
0001
0000
0000
0000
1000
0000
,  // measure 147
0001
1000
0010
0100
,  // measure 148
0001
1000
0001
0000
0000
0000
0110
0000
,  // measure 149
0010
0100
0010
1000
,  // measure 150
0001
0100
0001
0000
0000
0000
0010
0000
,  // measure 151
1000
0010
1000
0001
,  // measure 152
0001
0100
0001
0000
0000
0000
0010
0100
,  // measure 153
0010
0100
1000
0100
,  // measure 154
0010
0000
0001
0000
0010
0000
0001
0100
,  // measure 155
0001
0100
0001
1000
,  // measure 156
0010
1000
1010
1010
,  // measure 157
0100
0110
0010
0011
,  // measure 158
0001
0011
0010
0110
,  // measure 159
0100
1100
0010
1010
,  // measure 160
0010
2002
0000
0000
,  // measure 161
0000
0000
0000
0000
,  // measure 162
0000
0000
0000
0000
,  // measure 163
0000
0000
0000
0000
,  // measure 164
0000
0000
0000
0000
,  // measure 165
0000
0000
0000
0000
,  // measure 166
0000
0000
0000
0000
,  // measure 167
0000
0000
0000
0000
,  // measure 168
0000
0000
0000
3003
;

//---------------dance-single - ----------------
#NOTES:
     dance-single:
     :
     Easy:
     9:
     0.583,0.975,0.417,0.136,0.000: // measure 1
0000
0000
0000
0000
,  // measure 2
0000
0000
0000
0000
,  // measure 3
0000
0000
0000
0000
,  // measure 4
0000
0000
0000
0000
,  // measure 5
1000
0000
0001
1000
,  // measure 6
0000
0001
1000
0000
,  // measure 7
0010
0000
0010
0100
,  // measure 8
0000
0010
0100
0000
,  // measure 9
1000
0000
1000
0100
,  // measure 10
0000
0100
0010
0000
,  // measure 11
0010
0000
0010
0001
,  // measure 12
0000
0001
0100
0000
,  // measure 13
0001
0000
0001
1000
,  // measure 14
0001
0000
1000
0000
,  // measure 15
0010
0000
0010
0100
,  // measure 16
0010
0000
0010
0000
,  // measure 17
0001
0000
0001
0100
,  // measure 18
0001
0000
0010
0000
,  // measure 19
0010
0000
0010
1000
,  // measure 20
0010
0000
1000
0000
,  // measure 21
1001
0000
0001
0100
,  // measure 22
0001
0000
0010
0000
,  // measure 23
0100
0000
0010
0100
,  // measure 24
0010
0000
0100
0000
,  // measure 25
1100
0000
0010
0000
,  // measure 26
0011
0000
0010
0000
,  // measure 27
0110
0000
1100
0000
,  // measure 28
0011
0000
0101
0001
,  // measure 29
0010
0001
0000
1000
,  // measure 30
0000
0100
1000
0000
,  // measure 31
1000
0100
0000
0010
,  // measure 32
0000
0001
0000
0000
,  // measure 33
0000
0001
0000
0010
,  // measure 34
0000
0100
0010
0000
,  // measure 35
0010
1000
0000
0001
,  // measure 36
0000
0100
0000
0000
,  // measure 37
0000
0010
0000
0100
,  // measure 38
0000
1000
0001
0000
,  // measure 39
0001
0100
0000
0010
,  // measure 40
0000
0100
0000
1000
,  // measure 41
0000
0100
1000
0100
,  // measure 42
0000
0010
0000
0001
,  // measure 43
0000
0001
1000
0001
,  // measure 44
1000
1001
0001
0000
,  // measure 45
1000
0000
0100
0000
,  // measure 46
0010
0100
0000
0010
,  // measure 47
1000
0000
0100
0000
,  // measure 48
0011
0000
0000
0000
,  // measure 49
0001
0000
0100
0000
,  // measure 50
0010
1000
0000
1000
,  // measure 51
0100
0010
0001
0000
,  // measure 52
0011
0000
1001
0000
,  // measure 53
0010
0000
0100
0000
,  // measure 54
1000
0100
0000
0010
,  // measure 55
0001
0000
0100
0000
,  // measure 56
0010
0000
1010
0000
,  // measure 57
0010
0000
0110
0000
,  // measure 58
0010
0000
0011
0000
,  // measure 59
0100
0000
0101
0000
,  // measure 60
0010
0000
1000
0001
,  // measure 61
1000
0001
1000
0001
,  // measure 62
1000
0001
1000
0000
,  // measure 63
0100
0000
0010
0000
,  // measure 64
0001
0000
0100
0001
,  // measure 65
0010
1000
0001
0100
,  // measure 66
0010
1000
0001
0000
,  // measure 67
1000
0000
0100
0000
,  // measure 68
0010
0000
0001
1000
,  // measure 69
0001
1000
0010
0100
,  // measure 70
0010
0100
0001
1000
,  // measure 71
0001
1000
0010
1000
,  // measure 72
0010
1000
0001
0100
,  // measure 73
0001
0100
0001
0010
,  // measure 74
0001
0010
0001
0000
,  // measure 75
0000
0000
0000
0000
,  // measure 76
0000
0000
1000
0001
,  // measure 77
1000
0000
0010
0100
,  // measure 78
0010
0000
1000
0100
,  // measure 79
1000
0000
0010
0001
,  // measure 80
0010
0000
0001
0100
,  // measure 81
0001
0100
0010
1000
,  // measure 82
0010
1000
0001
1000
,  // measure 83
0001
0010
0100
1000
,  // measure 84
0100
0020
0002
0000
,  // measure 85
0000
0000
0000
0000
,  // measure 86
0000
0000
0000
0000
,  // measure 87
0000
0000
0000
0000
,  // measure 88
0000
0033
1000
0100
,  // measure 89
0010
0011
0001
0010
,  // measure 90
0100
1100
0110
0001
,  // measure 91
1000
0100
0010
0001
,  // measure 92
1000
0000
0110
0000
0010
0100
0000
0000
,  // measure 93
0000
0000
0000
0000
0100
0010
0000
0000
,  // measure 94
0000
0001
0000
1000
0001
1000
0000
0000
,  // measure 95
0000
0000
0001
0000
0000
1000
0000
0001
,  // measure 96
0000
1000
0000
0001
1000
0000
0100
0000
,  // measure 97
0010
0011
0001
0010
,  // measure 98
0100
0000
1010
0000
0110
0000
0000
0110
,  // measure 99
0000
0110
2002
0000
,  // measure 100
0000
0000
0000
0000
,  // measure 101
0000
0000
0000
0000
,  // measure 102
0000
0000
0000
0000
,  // measure 103
0000
0000
0000
0000
,  // measure 104
0000
0000
0000
0000
,  // measure 105
0000
0000
0000
0000
,  // measure 106
0000
0000
0000
0000
,  // measure 107
0000
0000
0000
0000
,  // measure 108
0000
0000
0000
0000
,  // measure 109
0000
0000
0000
0000
,  // measure 110
0000
0000
0000
0000
,  // measure 111
0000
0000
0000
0000
,  // measure 112
3000
0000
0000
0003
0000
0000
2002
0000
,  // measure 113
0000
0000
0000
0000
,  // measure 114
0000
0000
0000
3003
,  // measure 115
0000
0010
0100
0010
,  // measure 116
1000
0010
1000
2002
,  // measure 117
0000
0000
0000
0000
,  // measure 118
0000
0000
0000
0000
,  // measure 119
3003
0001
1000
0100
,  // measure 120
0010
0100
0010
2000
,  // measure 121
0000
0000
0000
0000
,  // measure 122
0000
0001
0001
3001
,  // measure 123
0000
0000
0000
0000
,  // measure 124
0001
0100
0001
0000
,  // measure 125
0000
0010
0000
0100
,  // measure 126
0000
1000
0000
1100
,  // measure 127
0000
0010
0010
0100
,  // measure 128
0100
0001
0001
2002
,  // measure 129
0000
0000
0000
0000
,  // measure 130
0000
0000
0000
0000
,  // measure 131
3003
1000
0100
0010
,  // measure 132
0001
0010
0001
0200
,  // measure 133
0000
0000
0000
0000
,  // measure 134
0000
0010
0310
0000
,  // measure 135
0000
0001
0000
1000
,  // measure 136
0000
0010
0000
1000
,  // measure 137
0100
1000
0000
0010
,  // measure 138
0001
0010
0000
0100
,  // measure 139
0001
0100
0000
0010
,  // measure 140
1000
0010
0000
0010
,  // measure 141
0100
0010
0000
0001
,  // measure 142
1000
0001
0000
0101
,  // measure 143
0000
0100
0000
1100
,  // measure 144
0000
0010
0000
0110
,  // measure 145
0000
1000
0001
1000
,  // measure 146
0001
1000
0000
0010
,  // measure 147
1000
0010
1000
0010
,  // measure 148
1000
0010
0000
0110
,  // measure 149
0010
0100
0010
0100
,  // measure 150
0010
0100
0000
0001
,  // measure 151
0100
0001
0100
0001
,  // measure 152
0100
0001
0000
0011
,  // measure 153
0001
0010
0001
0010
,  // measure 154
0001
0010
0000
1100
,  // measure 155
1000
0100
1000
0100
,  // measure 156
1000
0100
0000
1100
,  // measure 157
0000
0110
0000
0011
,  // measure 158
0000
0110
0000
1001
,  // measure 159
0000
1100
0000
0011
,  // measure 160
0000
2002
0000
0000
,  // measure 161
0000
0000
0000
0000
,  // measure 162
0000
0000
0000
0000
,  // measure 163
0000
0000
0000
0000
,  // measure 164
0000
0000
0000
0000
,  // measure 165
0000
0000
0000
0000
,  // measure 166
0000
0000
0000
0000
,  // measure 167
0000
0000
0000
0000
,  // measure 168
0000
0000
0000
3003
;

//---------------dance-single - ----------------
#NOTES:
     dance-single:
     :
     Beginner:
     4:
     0.238,0.617,0.271,0.000,0.000: // measure 1
0000
0000
0000
0000
,  // measure 2
0000
0000
0000
0000
,  // measure 3
0000
0000
0000
0000
,  // measure 4
0000
0000
0000
0000
,  // measure 5
1000
0000
0000
0000
,  // measure 6
0000
0000
0000
0000
,  // measure 7
1000
0000
0000
0000
,  // measure 8
0000
0000
0000
0000
,  // measure 9
0001
0000
0000
0000
,  // measure 10
0000
0000
0000
0000
,  // measure 11
0001
0000
0000
0000
,  // measure 12
0000
0000
0000
0000
,  // measure 13
0100
0000
0000
0000
,  // measure 14
0000
0000
0000
0000
,  // measure 15
0100
0000
0000
0000
,  // measure 16
0100
0000
0000
0000
,  // measure 17
0010
0000
0000
0000
,  // measure 18
0010
0000
0000
0000
,  // measure 19
1000
0000
0000
0000
,  // measure 20
0001
0000
0000
0000
,  // measure 21
1001
0000
0000
0000
,  // measure 22
0000
0000
0000
0000
,  // measure 23
1000
0000
0000
0000
,  // measure 24
0000
0000
0000
0000
,  // measure 25
1001
0000
0000
0000
,  // measure 26
1001
0000
0000
0000
,  // measure 27
0001
0000
0001
0000
,  // measure 28
0001
0000
0001
1000
,  // measure 29
0000
0000
0000
1000
,  // measure 30
0000
0000
0000
1000
,  // measure 31
0000
0000
0000
1000
,  // measure 32
0000
0000
0000
0001
,  // measure 33
0000
0000
0000
0001
,  // measure 34
0000
0000
0000
0001
,  // measure 35
0000
0000
0000
0001
,  // measure 36
0000
0000
0000
0100
,  // measure 37
0000
0000
0000
0100
,  // measure 38
0000
0000
0000
0100
,  // measure 39
0000
0000
0000
0010
,  // measure 40
0000
0000
0000
1000
,  // measure 41
0000
0000
0000
0001
,  // measure 42
0000
0000
0000
1000
,  // measure 43
0000
1000
0000
1000
,  // measure 44
0000
1000
0001
0000
,  // measure 45
0000
0000
0001
0000
,  // measure 46
0000
0000
0001
0000
,  // measure 47
0000
0000
1000
0000
,  // measure 48
0000
0000
0100
0000
,  // measure 49
0000
0000
0100
0000
,  // measure 50
0000
0000
0100
0000
,  // measure 51
0000
0000
0010
0000
,  // measure 52
0010
0000
0010
0000
,  // measure 53
0000
0000
1000
0000
,  // measure 54
0000
0000
0001
0000
,  // measure 55
0000
0000
1000
0000
,  // measure 56
0000
0000
0001
0000
,  // measure 57
0000
0000
1000
0000
,  // measure 58
0000
0000
1001
0000
,  // measure 59
0000
0000
1001
0000
,  // measure 60
0000
0000
1000
0000
,  // measure 61
1000
0000
1000
0000
,  // measure 62
1000
0000
1000
0000
,  // measure 63
0000
0000
0000
0000
,  // measure 64
0000
0000
0001
0000
,  // measure 65
0001
0000
0001
0000
,  // measure 66
0001
0000
0001
0000
,  // measure 67
0000
0000
0000
0000
,  // measure 68
0000
0000
0010
0000
,  // measure 69
0010
0000
0010
0000
,  // measure 70
0010
0000
0010
0000
,  // measure 71
0010
0000
0010
0000
,  // measure 72
0000
0000
0100
0000
,  // measure 73
0100
0000
0100
0000
,  // measure 74
0100
0000
0100
0000
,  // measure 75
0000
0000
0000
0000
,  // measure 76
0000
0000
1000
0000
,  // measure 77
0000
0000
1000
0000
,  // measure 78
0000
0000
0001
0000
,  // measure 79
0000
0000
0001
0000
,  // measure 80
0000
0000
0100
0000
,  // measure 81
0000
0000
0010
0000
,  // measure 82
0000
0000
1000
0000
,  // measure 83
0000
0000
0001
0000
,  // measure 84
0000
0000
0000
0000
,  // measure 85
0000
0000
0000
0000
,  // measure 86
0000
0000
0000
0000
,  // measure 87
0000
0000
0000
0000
,  // measure 88
0000
0000
1001
0000
,  // measure 89
0000
0000
0100
0000
,  // measure 90
0000
0000
0010
0000
,  // measure 91
0000
0000
1000
0000
,  // measure 92
0000
0000
1001
0000
,  // measure 93
0000
0000
0110
0000
,  // measure 94
0000
0000
0110
0000
,  // measure 95
0000
0000
0001
0000
,  // measure 96
0000
0000
1000
0000
,  // measure 97
1000
0000
0001
0000
,  // measure 98
0001
0000
0100
0000
,  // measure 99
0100
0000
1001
0000
,  // measure 100
0000
0000
0000
0000
,  // measure 101
0000
0000
0000
0000
,  // measure 102
0000
0000
0000
0000
,  // measure 103
0000
0000
0000
0000
,  // measure 104
0000
0000
0000
0000
,  // measure 105
0000
0000
0000
0000
,  // measure 106
0000
0000
0000
0000
,  // measure 107
0000
0000
0000
0000
,  // measure 108
0000
0000
0000
0000
,  // measure 109
0000
0000
0000
0000
,  // measure 110
0000
0000
0000
0000
,  // measure 111
0000
0000
0000
0000
,  // measure 112
0000
0000
0000
1001
,  // measure 113
0000
0000
0000
0000
,  // measure 114
0000
0000
0000
0000
,  // measure 115
0000
1000
0000
1000
,  // measure 116
0000
1000
0000
1000
,  // measure 117
0000
0000
0000
0000
,  // measure 118
0000
0000
0000
0000
,  // measure 119
0000
0001
0000
0001
,  // measure 120
0000
0001
0000
0001
,  // measure 121
0000
0000
0000
0000
,  // measure 122
0000
0100
0000
0000
,  // measure 123
0000
0000
0000
0000
,  // measure 124
0000
0000
0000
0010
,  // measure 125
0000
0010
0000
0010
,  // measure 126
0000
0010
0000
0010
,  // measure 127
0000
0000
0000
0010
,  // measure 128
0000
0000
0000
1001
,  // measure 129
0000
0000
0000
0000
,  // measure 130
0000
0000
0000
0000
,  // measure 131
0000
1000
0000
1000
,  // measure 132
0000
1000
0000
1000
,  // measure 133
0000
0000
0000
0000
,  // measure 134
0000
0000
0000
0000
,  // measure 135
0000
0000
0000
0001
,  // measure 136
0000
0001
0000
0001
,  // measure 137
0000
0000
0000
0000
,  // measure 138
0000
0000
0000
1000
,  // measure 139
0000
0000
0000
0000
,  // measure 140
0000
0000
0000
0001
,  // measure 141
0000
0000
0000
1000
,  // measure 142
0000
0000
0000
0010
,  // measure 143
0000
0000
0000
0100
,  // measure 144
0000
0000
0000
0110
,  // measure 145
0000
0000
0000
0000
,  // measure 146
0000
0000
0000
0110
,  // measure 147
0000
0000
0000
0000
,  // measure 148
0000
0000
0000
1001
,  // measure 149
0000
0000
0000
0000
,  // measure 150
0000
0000
0000
1001
,  // measure 151
0000
0000
0000
0000
,  // measure 152
0000
0000
0000
0110
,  // measure 153
0000
0000
0000
0110
,  // measure 154
0000
0000
0000
0110
,  // measure 155
0000
0000
0000
0110
,  // measure 156
0000
0000
0000
1001
,  // measure 157
0000
1001
0000
1001
,  // measure 158
0000
1001
0000
1001
,  // measure 159
0000
1001
0000
1001
,  // measure 160
0000
1001
0000
0000
;
