#TITLE:Y&Co. is dead or alive;
#SUBTITLE:;
#ARTIST:Y&Co.;
#TITLETRANSLIT:;
#SUBTITLETRANSLIT:;
#ARTISTTRANSLIT:;
#CREDIT:;
#BANNER:bn.png;
#BACKGROUND:bg.png;
#LYRICSPATH:;
#CDTITLE:;
#MUSIC:Y&Co. is dead or alive.mp3;
#OFFSET:-0.040;
#SAMPLESTART:6.600;
#SAMPLELENGTH:12.000;
#SELECTABLE:YES;
#BPMS:0.000=145.000,196.000=155.000,196.500=165.000,197.000=175.000,197.500=185.000,198.000=195.000,198.500=205.000,199.000=215.000,199.500=220.000,200.000=230.000,200.500=240.000,201.000=250.000,201.500=260.000,202.000=269.999,202.500=279.999,203.000=289.999,204.000=299.999,205.000=309.999,206.000=319.999,207.000=329.999,208.000=340.000,209.000=350.000,210.000=360.000,211.000=370.000,212.000=379.999,213.000=390.000,214.000=399.999,215.000=419.999,216.000=439.999,217.000=459.998,218.000=479.998,219.000=499.998,220.000=519.998,221.000=539.998,222.000=559.998,223.000=579.998,224.000=599.997,271.000=800.014,279.000=876.013,319.000=145.002;
#STOPS:;
#BGCHANGES:;

//---------------dance-single - ----------------
#NOTES:
     dance-single:
     :
     Hard:
     9:
     0.486,0.738,0.073,0.122,0.362: // measure 1
0000
0000
0000
0000
,  // measure 2
0000
0000
0000
0000
,  // measure 3
0000
0000
0000
0000
,  // measure 4
0000
0000
0000
0000
,  // measure 5
0000
0000
0000
0000
,  // measure 6
0001
0000
1000
0000
0001
0000
0000
0010
0000
0100
0000
0000
2000
0000
0000
0000
,  // measure 7
3001
0000
0100
0000
0001
0000
0000
0100
0000
0010
0000
0000
0200
0000
0000
0000
,  // measure 8
0310
0000
1000
0000
0001
0000
0000
0100
0000
1000
0000
0000
0200
0000
0000
0000
,  // measure 9
1300
0000
0100
0000
0010
0000
0000
0001
0000
0100
0000
0000
0001
0000
0000
0000
,  // measure 10
0100
0000
0010
0000
1000
0000
0000
0001
0000
1000
0000
0000
0200
0000
0000
0000
,  // measure 11
0310
0000
0100
0000
0010
0000
0000
1000
0000
0100
0000
0000
1000
0000
0000
0000
,  // measure 12
0001
0000
0100
0000
1000
0000
0000
0001
0000
0100
0000
0000
0010
0000
0000
0000
,  // measure 13
1000
0100
1000
0100
0001
0100
0001
0100
,  // measure 14
0010
0000
0000
0010
0000
0000
0001
0000
0100
0000
0010
0000
1000
0000
0000
0000
,  // measure 15
0100
0000
0000
1000
0000
0000
1000
0000
0100
0000
0010
0000
0001
0000
0000
0000
,  // measure 16
0100
0000
0000
0001
0000
0000
0010
0000
0100
0000
0001
0000
1000
0000
0000
0000
,  // measure 17
0001
0000
0000
1000
0000
0000
0001
0000
0100
0000
0010
0000
0100
0000
0000
0000
,  // measure 18
1000
0000
0000
0100
0000
0000
1000
0000
0100
0000
0010
0000
0001
0000
0000
0000
,  // measure 19
0001
0000
0000
1000
0000
0000
0001
0000
0100
0000
0010
0000
1000
0000
0000
0000
,  // measure 20
0001
0000
0000
0100
0000
0000
0010
0000
0100
0000
1000
0000
0100
0000
0000
0000
,  // measure 21
1000
0000
0000
0100
0000
0000
0010
0000
0001
0000
0010
0000
0100
0000
0000
0000
,  // measure 22
0000
1000
0000
0001
0000
0100
0000
0010
,  // measure 23
0000
0100
0000
0010
0000
0100
0000
1000
,  // measure 24
0000
0100
0000
0010
0000
0001
0000
0100
,  // measure 25
0000
1000
0000
0100
0000
0010
0000
0001
,  // measure 26
0100
0000
0000
0010
0000
0000
0100
0000
0010
0000
1000
0000
0001
0000
0000
0000
,  // measure 27
1000
0100
0001
0010
0100
1000
0100
0010
,  // measure 28
0001
0010
0100
1000
0100
0010
0001
0010
,  // measure 29
0100
1000
0100
0010
0001
0010
0100
0010
,  // measure 30
1000
0000
0000
0000
0001
0000
0000
0100
0000
0000
1000
0000
0100
0000
0010
0000
,  // measure 31
0001
0000
0000
0000
0100
0000
0000
0010
0000
0010
0100
0000
0010
0000
1000
0000
,  // measure 32
0001
0000
0000
0000
0100
0000
0000
1000
0000
0000
0100
0000
1000
0000
0100
0000
,  // measure 33
0010
0000
0000
0000
0001
0000
0000
0100
0000
0010
0100
0000
0001
0000
1000
0000
,  // measure 34
0000
0000
0001
0000
0000
0001
0000
0000
0001
0000
0000
0001
0000
0000
0001
0000
,  // measure 35
0000
0000
1000
0000
0000
1000
0000
0000
1000
0000
0000
1000
0000
0000
1000
0100
,  // measure 36
0000
0000
0100
0000
0000
0100
0000
0000
0100
0000
0000
0100
0000
0000
0100
0000
,  // measure 37
0000
0000
0010
0000
0000
0010
0000
0000
0010
0000
0000
0010
0000
0000
0010
0100
,  // measure 38
0000
0000
0010
0000
0000
1000
0000
0000
0001
0000
0000
0010
0000
0000
0100
0000
,  // measure 39
0000
0000
0001
0000
0000
1000
0000
0000
0100
0000
0000
0010
0000
0000
0001
0100
,  // measure 40
0000
0000
0010
0000
0000
0100
0000
0000
1000
0000
0000
0010
0000
0000
0002
0000
,  // measure 41
0200
0000
0000
0303
,  // measure 42
0010
0100
0010
0000
1000
0000
1100
0000
,  // measure 43
0010
1000
0010
0000
0001
0001
0001
0000
,  // measure 44
0100
0000
0110
0000
0010
1000
0001
0000
,  // measure 45
1000
0100
0001
0010
1000
0001
1000
0000
,  // measure 46
0001
0000
1000
0000
0001
0100
0010
0000
,  // measure 47
0100
0000
0010
0000
1000
0100
0101
0000
,  // measure 48
0010
0000
0100
0000
0010
1000
0001
0000
,  // measure 49
2000
3002
0203
0320
,  // measure 50
1030
0000
0000
0000
0000
0000
0000
0001
0000
0000
0000
0000
0000
0000
1000
0000
0000
0000
0000
0000
0000
0000
0001
0000
,  // measure 51
0000
0000
0000
0000
0000
0000
0000
1000
0000
0000
0000
0000
0000
0000
0000
0000
0001
0000
0000
0000
0000
0000
0000
0000
,  // measure 52
0000
1000
0000
0000
0000
0000
0001
0000
0000
0000
0000
0000
,  // measure 53
1000
0000
0000
0000
0000
0000
0000
0001
0000
0000
0000
0000
0000
0000
0000
1000
,  // measure 54
0000
0000
0000
0000
0000
0000
0000
0001
0000
0000
0000
0000
0000
0000
0000
1000
,  // measure 55
0000
0000
0000
0000
0000
0000
0000
0001
0000
0000
0000
0000
0000
0000
0000
1000
,  // measure 56
0000
0000
0000
0000
0000
0000
0000
0000
0000
0001
0000
0000
0000
0000
0000
0000
,  // measure 57
0000
1000
0000
0000
0000
0000
0001
0000
,  // measure 58
0000
0000
0000
0000
0000
1000
0000
0000
0000
0000
0000
0000
0000
0000
0001
0000
,  // measure 59
0000
0000
0000
0000
0000
0000
0000
1000
0000
0000
0000
0000
0000
0000
0000
0001
,  // measure 60
0000
0000
0000
0000
0000
0000
0000
1000
0000
0000
0000
0000
0000
0000
0001
0000
,  // measure 61
0000
0000
0000
0000
0000
0000
1000
0000
0000
0000
0000
0000
0000
0001
0000
0000
,  // measure 62
0000
0000
0000
0000
0000
0000
0000
0000
0000
0000
0000
0000
0000
0000
0000
1000
0000
0000
0000
0000
0000
0000
0000
0000
0000
0000
0000
0000
0000
0000
0000
0000
0000
0000
0001
0000
0000
0000
0000
0000
0000
0000
0000
0000
0000
0000
0000
0000
,  // measure 63
0000
0000
0000
1000
0000
0000
0000
0000
0000
0000
0001
0000
0000
0000
0000
0000
,  // measure 64
0000
0000
1000
0000
0000
0000
0000
0000
0001
0000
0000
0000
0000
2000
0000
0000
,  // measure 65
0000
0002
0000
0000
,  // measure 66
0000
0000
0000
0000
,  // measure 67
0000
0000
0000
0000
,  // measure 68
0000
0000
0000
0000
,  // measure 69
0000
0000
0000
0000
,  // measure 70
0000
0000
0000
0000
,  // measure 71
0000
0000
0000
0000
,  // measure 72
0000
0000
0000
0000
,  // measure 73
0000
0000
0000
0000
,  // measure 74
0000
0000
0000
0000
,  // measure 75
0000
0000
0000
0000
,  // measure 76
0000
0000
0000
0000
,  // measure 77
0000
0000
0000
0000
,  // measure 78
0000
0000
0000
0000
,  // measure 79
0000
0000
0000
0000
,  // measure 80
0000
0000
0000
0000
0000
0000
0000
0000
0000
3003
0000
0000
1001
0000
0000
0000
,  // measure 81
0101
0000
0001
0100
0001
0000
0000
0000
2020
0000
3030
0000
0001
0000
1000
0000
,  // measure 82
0100
0000
0000
1000
0000
0100
0000
0000
0010
0000
0000
0000
0001
0000
0100
0000
,  // measure 83
0010
0000
0000
0001
0000
1000
0000
0000
0001
0000
0000
0000
0100
0000
1000
0000
,  // measure 84
0100
0000
0000
1000
0000
0100
0000
0000
0010
0000
0000
0000
0001
0000
0100
0000
,  // measure 85
0001
0000
0000
0010
0000
0100
0000
0000
0010
0000
0000
0000
0110
0000
0000
0000
,  // measure 86
0110
0000
0000
0100
0000
0000
1000
0000
0100
0000
0001
0000
0010
0000
0000
0000
,  // measure 87
1000
0000
0000
0001
0000
0001
0100
0000
0010
0000
1000
0000
0001
0000
0000
0000
,  // measure 88
1001
0000
0000
0010
0000
0000
0100
0000
1000
0000
0100
0000
2000
0000
0000
0000
,  // measure 89
0000
0000
0000
0000
0000
0000
0000
0000
0000
3000
0000
0000
0001
0000
0100
0000
,  // measure 90
0010
0000
0010
0100
0000
0010
0100
0000
0010
0000
1000
0000
0100
0000
0010
0000
,  // measure 91
0001
0000
0001
0010
0000
0001
0010
0000
0001
0000
0100
0000
0010
0000
1000
0000
,  // measure 92
0010
0000
0010
1000
0000
0010
1000
0000
0010
0000
1000
0000
0100
0000
0010
0000
,  // measure 93
0001
0000
0001
0010
0000
0001
0010
0000
0010
0000
0100
0000
0001
0000
0100
0000
,  // measure 94
0001
0010
1000
0010
0100
1000
0100
0010
,  // measure 95
0001
0010
0100
1000
0100
0010
0001
0010
,  // measure 96
1000
0100
0001
0010
0100
1000
0000
0000
;

//---------------dance-single - ----------------
#NOTES:
     dance-single:
     :
     Medium:
     6:
     0.387,0.583,0.203,0.171,0.077: // measure 1
0000
0000
0000
0000
,  // measure 2
0000
0000
0000
0000
,  // measure 3
0000
0000
0000
0000
,  // measure 4
0000
0000
0000
0000
,  // measure 5
0000
0000
0000
0000
,  // measure 6
0001
0000
0100
0000
0010
0100
0010
0000
,  // measure 7
1000
0000
0100
0000
0001
1000
0001
0000
,  // measure 8
0100
0000
0010
0000
0001
0100
0001
0000
,  // measure 9
1000
0000
0100
0000
0010
1000
0010
0000
,  // measure 10
1000
0000
0100
0000
0010
0001
0010
0000
,  // measure 11
0100
0000
0001
0000
0010
1000
0010
0000
,  // measure 12
1000
0000
0001
0000
0100
0001
0100
0000
,  // measure 13
0002
2003
3002
0203
,  // measure 14
0310
0000
0110
0000
0010
1000
0001
0000
,  // measure 15
1000
0000
1100
0000
1000
0100
0001
0000
,  // measure 16
0010
0000
0011
0000
0001
0010
1000
0000
,  // measure 17
1000
0000
1001
0000
0001
0100
1000
0000
,  // measure 18
0001
0000
1001
0000
0001
0010
1000
0000
,  // measure 19
0001
0000
1001
0000
0001
0100
0010
0000
,  // measure 20
0001
0000
0110
0000
0100
1000
0010
0000
,  // measure 21
0001
0000
1001
0000
0001
0100
0010
0000
,  // measure 22
0010
0000
0100
0000
1000
0100
1000
0000
,  // measure 23
0100
1000
0200
0000
,  // measure 24
2000
0000
0000
0300
0200
0000
0300
0000
,  // measure 25
0100
0000
0200
3300
,  // measure 26
0010
0001
0010
0100
,  // measure 27
0001
1000
0100
0000
1000
0000
0100
0000
,  // measure 28
0010
0000
0001
0000
0100
0001
0100
0000
,  // measure 29
0010
0000
1000
0000
0100
1000
0100
0000
,  // measure 30
1001
0000
0110
0000
0010
0000
0010
0100
,  // measure 31
0010
0000
0100
0000
1000
0000
0001
0100
,  // measure 32
0001
0000
1000
0000
0100
0000
0010
0001
,  // measure 33
0020
0032
0203
0320
,  // measure 34
0030
0000
1000
0000
0000
1000
0000
0000
1000
0000
0000
1000
0000
0000
1000
0000
,  // measure 35
0000
0000
0001
0000
0000
0001
0000
0000
0001
0000
0000
0001
0000
0000
0001
0000
,  // measure 36
0000
0000
0100
0000
0000
0100
0000
0000
0100
0000
0000
0100
0000
0000
0100
0000
,  // measure 37
0000
0000
0010
0000
0000
0010
0000
0000
0010
0000
0000
0010
0000
0000
0010
0000
,  // measure 38
0000
0000
1000
0000
0000
0001
0000
0000
1000
0000
0000
0001
0000
0000
1000
0000
,  // measure 39
0000
0000
0010
0000
0000
0100
0000
0000
0010
0000
0000
0100
0000
0000
0010
0000
,  // measure 40
0000
0000
1000
0000
0000
0100
0000
0000
0010
0000
0000
0001
0000
0000
0100
0000
,  // measure 41
0000
0000
0010
0000
0000
0100
0000
0000
1000
0000
0000
0001
0000
0000
1000
0000
,  // measure 42
0001
0000
0101
0000
0010
1000
0010
0000
,  // measure 43
0100
0000
1100
0000
0010
1000
0001
0000
,  // measure 44
0100
0000
0110
0000
0010
0100
0010
0000
,  // measure 45
0001
0000
1000
0000
0001
0100
0001
0000
,  // measure 46
0010
0000
0110
0000
1000
0001
0100
0000
,  // measure 47
1000
0000
1100
0000
0001
1000
0200
0000
,  // measure 48
0310
0000
1000
0000
0001
0100
0010
0000
,  // measure 49
1100
0001
0100
0010
,  // measure 50
1000
0000
0000
0000
0000
0000
0000
0000
0000
0001
0000
0000
0000
0000
0000
0000
,  // measure 51
0000
1000
0000
0000
,  // measure 52
0000
0001
0000
0000
0000
0000
0000
0000
,  // measure 53
1000
0000
0000
0000
,  // measure 54
0001
0000
0000
0000
,  // measure 55
1000
0000
0000
0000
,  // measure 56
0000
0000
0000
0001
0000
0000
0000
0000
0000
0000
0000
0000
0000
0000
0000
0000
,  // measure 57
0000
0000
0000
2000
0000
0000
0000
0000
,  // measure 58
0000
0000
0000
0000
0000
0000
0000
0000
0000
0000
0000
0002
0000
0000
0000
0000
,  // measure 59
0000
0000
0000
0000
,  // measure 60
0000
0000
0000
0000
,  // measure 61
0000
0000
0000
0000
,  // measure 62
0000
0000
0000
0000
,  // measure 63
0000
0000
0000
0000
,  // measure 64
0000
0000
0000
0000
,  // measure 65
0000
0000
0000
0000
,  // measure 66
0000
0000
0000
0000
,  // measure 67
0000
0000
0000
0000
,  // measure 68
0000
0000
0000
0000
,  // measure 69
0000
0000
0000
0000
,  // measure 70
0000
0000
0000
0000
,  // measure 71
0000
0000
0000
0000
,  // measure 72
0000
0000
0000
0000
,  // measure 73
0000
0000
0000
0000
,  // measure 74
0000
0000
0000
0000
,  // measure 75
0000
0000
0000
0000
,  // measure 76
0000
0000
0000
0000
,  // measure 77
0000
0000
0000
0000
,  // measure 78
0000
0000
0000
0000
,  // measure 79
0000
0000
0000
0000
,  // measure 80
0000
0000
0000
3000
,  // measure 81
0100
0013
0011
0001
,  // measure 82
0100
0000
0010
0100
0010
0000
1000
0000
,  // measure 83
0001
0000
0100
0001
0100
0000
0010
0000
,  // measure 84
0100
0000
0001
1000
0001
0000
1100
0000
,  // measure 85
0100
0000
0010
0001
0010
0000
0101
0000
,  // measure 86
1100
0000
0010
0100
0010
0000
1100
0000
,  // measure 87
0011
0000
0010
0100
0010
0000
1001
0000
,  // measure 88
0110
0000
1000
0100
1000
0000
2002
0000
,  // measure 89
0000
0000
0000
0000
3003
0000
0001
0100
,  // measure 90
0001
0000
0200
0000
0310
0000
0010
1000
,  // measure 91
0010
0000
2000
0000
3100
0000
0001
1000
,  // measure 92
0001
0000
0200
0000
0310
0000
1000
0100
,  // measure 93
2000
0100
3100
0010
,  // measure 94
0000
0001
0000
0000
0100
0000
0000
1000
,  // measure 95
0000
0000
0100
0000
0000
0010
0000
0000
,  // measure 96
0001
0000
0000
0100
0010
0100
0000
0000
;

//---------------dance-single - ----------------
#NOTES:
     dance-single:
     :
     Easy:
     4:
     0.258,0.467,0.146,0.065,0.000: // measure 1
0000
0000
0000
0000
,  // measure 2
0000
0000
0000
0000
,  // measure 3
0000
0000
0000
0000
,  // measure 4
0000
0000
0000
0000
,  // measure 5
0000
0000
0000
0000
,  // measure 6
0001
0100
0010
1010
,  // measure 7
1000
0100
0010
0011
,  // measure 8
0001
0100
0010
0110
,  // measure 9
0010
0100
1000
1001
,  // measure 10
0001
1000
0100
0110
,  // measure 11
0010
0001
0100
0101
,  // measure 12
0010
0100
1000
2100
,  // measure 13
0002
0000
0000
3003
,  // measure 14
0001
1000
0001
1000
,  // measure 15
0001
0100
0001
0100
,  // measure 16
0010
0100
0010
0100
,  // measure 17
0001
1000
0001
1000
,  // measure 18
0100
1000
0100
1000
,  // measure 19
0010
1000
0010
1000
,  // measure 20
0001
1000
0001
1000
,  // measure 21
0001
0100
0001
0100
,  // measure 22
0001
0000
1000
0000
,  // measure 23
0001
0000
0100
0000
,  // measure 24
0010
0000
0100
0000
,  // measure 25
1000
0000
0001
0000
,  // measure 26
1000
0001
1000
0001
,  // measure 27
0100
0001
0100
0001
,  // measure 28
0010
0001
0010
0001
,  // measure 29
0100
0001
0010
1000
,  // measure 30
1100
1000
0100
0010
,  // measure 31
0011
0001
0010
0100
,  // measure 32
1100
1000
0100
0010
,  // measure 33
0002
0000
0000
0000
,  // measure 34
1003
0000
0000
0000
,  // measure 35
1000
0000
0000
0000
,  // measure 36
0100
0000
0000
0000
,  // measure 37
0010
0000
0000
0000
,  // measure 38
0001
0000
0001
0000
,  // measure 39
0001
0000
0001
0000
,  // measure 40
1000
0000
1000
0000
,  // measure 41
2000
0000
0000
3000
,  // measure 42
1000
0001
0100
0001
,  // measure 43
0000
0001
0010
0001
,  // measure 44
0100
0010
1000
0010
,  // measure 45
1000
0100
0010
0001
,  // measure 46
1000
0001
1000
0001
,  // measure 47
0000
0001
0100
0010
,  // measure 48
0000
0010
0100
1000
,  // measure 49
0001
0000
1000
0000
,  // measure 50
2002
0000
0000
0000
,  // measure 51
0000
0000
0000
0000
,  // measure 52
0000
0000
0000
0000
,  // measure 53
0000
0000
0000
0000
,  // measure 54
0000
0000
0000
0000
,  // measure 55
0000
0000
0000
0000
,  // measure 56
0000
0000
0000
0000
,  // measure 57
0000
0000
0000
0000
,  // measure 58
0000
0000
0000
0000
,  // measure 59
0000
0000
0000
0000
,  // measure 60
0000
0000
0000
0000
,  // measure 61
0000
0000
0000
0000
,  // measure 62
0000
0000
0000
0000
,  // measure 63
0000
0000
0000
0000
,  // measure 64
0000
0000
0000
0000
,  // measure 65
0000
0000
0000
0000
,  // measure 66
0000
0000
0000
0000
,  // measure 67
0000
0000
0000
0000
,  // measure 68
0000
0000
0000
0000
,  // measure 69
0000
0000
0000
0000
,  // measure 70
0000
0000
0000
0000
,  // measure 71
0000
0000
0000
0000
,  // measure 72
0000
0000
0000
0000
,  // measure 73
0000
0000
0000
0000
,  // measure 74
0000
0000
0000
0000
,  // measure 75
0000
0000
0000
0000
,  // measure 76
0000
0000
0000
0000
,  // measure 77
0000
0000
0000
0000
,  // measure 78
0000
0000
0000
0000
,  // measure 79
0000
0000
0000
0000
,  // measure 80
0000
0000
0000
0000
,  // measure 81
0000
0000
3003
0001
,  // measure 82
1000
0001
0101
0001
,  // measure 83
0100
0010
0110
0010
,  // measure 84
1000
0100
1100
0010
,  // measure 85
0100
0010
0110
1001
,  // measure 86
1000
0001
0100
0101
,  // measure 87
0001
0100
0010
1010
,  // measure 88
1000
0000
0001
0000
1000
0200
2000
0000
,  // measure 89
0000
0000
3300
0010
,  // measure 90
0100
0010
0100
0001
,  // measure 91
1000
0001
1000
0001
,  // measure 92
0100
0001
0100
0010
,  // measure 93
1000
0100
0010
0001
,  // measure 94
1000
0001
0100
0010
,  // measure 95
1000
0100
0010
0001
,  // measure 96
0100
1000
0001
1000
;

//---------------dance-single - ----------------
#NOTES:
     dance-single:
     :
     Beginner:
     1:
     0.077,0.156,0.033,0.000,0.000: // measure 1
0000
0000
0000
0000
,  // measure 2
0000
0000
0000
0000
,  // measure 3
0000
0000
0000
0000
,  // measure 4
0000
0000
0000
0000
,  // measure 5
0000
0000
0000
0000
,  // measure 6
0001
0000
0000
0000
,  // measure 7
0001
0000
0000
0000
,  // measure 8
1000
0000
0000
0000
,  // measure 9
1000
0000
0000
0000
,  // measure 10
0010
0000
0000
0000
,  // measure 11
0010
0000
0000
0000
,  // measure 12
0100
0000
0000
0000
,  // measure 13
0000
0000
0000
0000
,  // measure 14
1000
0000
0000
0000
,  // measure 15
1000
0000
0000
0000
,  // measure 16
0001
0000
0000
0000
,  // measure 17
0001
0000
0000
0000
,  // measure 18
0010
0000
0000
0000
,  // measure 19
0010
0000
0000
0000
,  // measure 20
0100
0000
0000
0000
,  // measure 21
0100
0000
0000
0000
,  // measure 22
1001
0000
0000
0000
,  // measure 23
0000
0000
0010
0000
,  // measure 24
0010
0000
0000
0000
,  // measure 25
0000
0000
0000
0000
,  // measure 26
0100
0000
0000
0000
,  // measure 27
0100
0000
0000
0000
,  // measure 28
0100
0000
0000
0000
,  // measure 29
0100
0000
0000
0000
,  // measure 30
0001
0000
0000
0000
,  // measure 31
1000
0000
0000
0000
,  // measure 32
0010
0000
0000
0000
,  // measure 33
0000
0000
0000
0000
,  // measure 34
1000
0000
0000
0000
,  // measure 35
1000
0000
0000
0000
,  // measure 36
0100
0000
0000
0000
,  // measure 37
0001
0000
0000
0000
,  // measure 38
0010
0000
0000
0000
,  // measure 39
0010
0000
0000
0000
,  // measure 40
0100
0000
0000
0000
,  // measure 41
1001
0000
0000
0000
,  // measure 42
0001
0000
0000
0000
,  // measure 43
1000
0000
0000
0000
,  // measure 44
0001
0000
0000
0000
,  // measure 45
0100
0000
0000
0000
,  // measure 46
0010
0000
0000
0000
,  // measure 47
1000
0000
0000
0000
,  // measure 48
0001
0000
0000
0000
,  // measure 49
1000
0000
0001
0000
,  // measure 50
1001
0000
0000
0000
,  // measure 51
0000
0000
0000
0000
,  // measure 52
0000
0000
0000
0000
,  // measure 53
0000
0000
0000
0000
,  // measure 54
0000
0000
0000
0000
,  // measure 55
0000
0000
0000
0000
,  // measure 56
0000
0000
0000
0000
,  // measure 57
0000
0000
0000
0000
,  // measure 58
0000
0000
0000
0000
,  // measure 59
0000
0000
0000
0000
,  // measure 60
0000
0000
0000
0000
,  // measure 61
0000
0000
0000
0000
,  // measure 62
0000
0000
0000
0000
,  // measure 63
0000
0000
0000
0000
,  // measure 64
0000
0000
0000
0000
,  // measure 65
0000
0000
0000
0000
,  // measure 66
0000
0000
0000
0000
,  // measure 67
0000
0000
0000
0000
,  // measure 68
0000
0000
0000
0000
,  // measure 69
0000
0000
0000
0000
,  // measure 70
0000
0000
0000
0000
,  // measure 71
0000
0000
0000
0000
,  // measure 72
0000
0000
0000
0000
,  // measure 73
0000
0000
0000
0000
,  // measure 74
0000
0000
0000
0000
,  // measure 75
0000
0000
0000
0000
,  // measure 76
0000
0000
0000
0000
,  // measure 77
0000
0000
0000
0000
,  // measure 78
0000
0000
0000
0000
,  // measure 79
0000
0000
0000
0000
,  // measure 80
0000
0000
0000
0000
,  // measure 81
0000
0000
0000
0010
,  // measure 82
0000
0000
0000
0010
,  // measure 83
0000
0000
0000
0100
,  // measure 84
0000
0000
0000
0100
,  // measure 85
0000
0000
0000
1000
,  // measure 86
0000
0000
0000
1000
,  // measure 87
0000
0000
0000
0001
,  // measure 88
0000
0000
0000
1001
,  // measure 89
0000
0000
0000
0010
,  // measure 90
0000
0000
0000
0010
,  // measure 91
0000
0000
0000
0100
,  // measure 92
0000
0000
0000
0100
,  // measure 93
0000
0000
0000
1000
,  // measure 94
0000
1000
0000
0001
,  // measure 95
0000
0001
0000
0100
,  // measure 96
0000
0010
0000
0001
;
