#TITLE:XIO;
#SUBTITLE:;
#ARTIST:Teranoid & MC Natsack;
#TITLETRANSLIT:;
#SUBTITLETRANSLIT:;
#ARTISTTRANSLIT:;
#CREDIT:;
#BANNER:bn.png;
#BACKGROUND:bg.png;
#LYRICSPATH:;
#CDTITLE:;
#MUSIC:XIO.mp3;
#OFFSET:-0.620;
#SAMPLESTART:87.840;
#SAMPLELENGTH:12.000;
#SELECTABLE:YES;
#DISPLAYBPM:*;
#BPMS:0.000=176.000,56.000=352.000,119.000=176.000,123.000=352.000,183.000=176.000,215.000=352.000,463.000=176.000,465.000=352.000,585.000=176.000,589.000=352.000;
#STOPS:56.000=0.341
,57.000=0.341
,58.000=0.170
,59.000=0.170
,60.000=0.170
,61.000=0.170
,62.000=0.190
,147.000=0.170
,148.000=0.170
,149.000=0.085
,149.500=0.085
,150.000=0.085
,150.500=0.085
,431.000=0.170
,432.000=0.170
,433.000=0.085
,433.500=0.085
,434.000=0.085
,434.500=0.085
;
#BGCHANGES:;

//---------------dance-single - ----------------
#NOTES:
     dance-single:
     :
     Hard:
     12:
     1.000,1.000,0.667,0.814,0.212:
0000
0000
0000
0000
,
0000
0000
0000
0000
,
0000
0000
0000
0000
,
0000
0000
0000
0000
,
1000
0002
0010
0020
0000
0000
0033
0000
,
1000
0001
0100
0001
,
0010
0001
0010
0100
,
0000
0000
0000
0000
1100
0010
0101
0100
,
0010
0100
1000
0001
1000
0001
0010
0001
0010
0100
0010
0001
0010
0100
1000
0001
,
0100
0010
1000
0100
0001
0010
0001
0100
0010
1000
0001
1000
0001
0010
0001
0100
,
0010
0000
0000
1001
0000
0000
1001
0000
0000
0000
1000
0000
0001
0000
0000
0000
,
0000
0000
0000
1001
0000
0000
1010
0000
0001
0100
0001
0000
1000
0100
1000
0000
,
1000
0100
0010
0100
1000
0001
0100
0001
0010
0001
0100
0010
1000
0100
0010
0001
,
0010
0100
1000
0010
0100
1000
0001
1000
0100
1000
0001
0010
0001
0100
0010
1000
,
1100
0000
0011
0000
1001
0000
2002
3003
,
2200
3300
0022
0033
2002
3003
0010
0000
,
0100
0010
1000
0001
,
1000
0001
0010
0001
,
0100
0010
1000
0001
,
1000
0001
0010
0100
,
0010
0001
0100
0001
,
0010
0100
1000
0100
,
0010
0001
0010
0100
,
0010
0100
0010
0000
1001
0000
0001
0000
,
0001
0020
0001
0032
,
1000
1003
0100
1000
,
0001
0010
0001
0100
,
0010
1000
0100
0010
,
0001
0010
0001
0100
,
0010
1000
0001
0110
,
1001
0000
0110
1100
0011
1100
0001
0000
,
1000
0000
0001
1000
0001
0000
0000
0000
,
1000
0000
0001
0100
0001
0000
0100
0000
,
0010
0100
0000
0010
1000
0000
1000
0001
,
0100
0220
0330
1000
,
0001
0010
0000
0100
1000
0000
1000
0000
,
0001
0000
0000
0000
0000
0000
0000
0000
0000
0000
0000
0000
0000
0000
0000
0000
1000
0000
0000
0000
0000
0000
0000
0000
0100
0000
0000
0000
0000
0000
0000
0000
0010
0000
0000
0000
0000
0000
0000
0000
0000
0000
0000
0000
0000
0000
0000
0000
0002
0003
0000
0000
0000
0000
0000
0000
0000
0000
0000
0000
0000
0000
0000
0000
,
2000
3000
0000
0000
0000
0000
0000
0000
0000
0000
0000
0000
0000
0000
0000
0000
0020
0030
0000
0000
0000
0000
0000
0000
2000
3000
0000
0000
0000
0000
0000
0000
0002
0003
0000
0000
0000
0000
0000
0000
0020
0030
0000
0000
0000
0000
0000
0000
0001
0000
0000
0000
0000
0000
0000
0000
0010
0000
0000
0000
0000
0000
0000
0000
,
0001
0100
0001
1000
0001
0100
0010
1000
,
0100
0010
0001
1000
0100
0000
1000
0000
,
0001
1000
0001
0000
1000
0000
0001
0100
,
0010
1000
0100
0000
1000
0000
1000
0100
,
1000
0000
0001
0000
0100
0000
0001
0010
,
0001
0000
0100
0010
0100
0000
1000
0001
,
0100
0001
0010
0000
0001
0000
0010
0000
,
0100
1001
0011
2200
,
0000
0000
3300
0000
,
0000
0000
0000
1000
,
0001
0000
1000
0000
0001
0000
1000
0001
,
1000
0001
1000
0001
1000
0001
1000
0001
,
1000
0001
1000
0001
1000
0001
1000
0001
,
1000
0000
0001
0000
1000
0000
0001
0000
1000
0000
0001
0000
1000
0001
1000
0001
,
1000
0000
0000
0001
0000
0000
1000
0000
0000
0001
0000
0000
1000
0000
0000
0001
0000
0000
1000
0000
0000
0001
0000
0000
1000
0000
0000
0001
0000
0000
1000
0000
0000
0001
0000
0000
1000
0000
0001
0000
1000
0000
0001
0000
1000
0000
0001
0000
,
2000
0000
0000
0000
0000
0000
0000
0000
0000
0000
0000
0000
0000
0000
0000
0000
0000
0000
0000
0000
0000
0000
0000
0000
0000
0000
0000
0000
0000
0000
0000
3000
0220
0000
0000
0000
0000
0000
0000
0000
0000
0000
0000
0000
0000
0000
0000
0300
0130
0000
0000
0000
0000
0000
0000
0000
0000
0000
0000
0000
0000
0000
0000
0000
,
0110
0100
0110
0010
,
1010
1000
1010
1001
,
0001
0010
0000
0010
0100
0000
1000
0000
,
0001
0200
0000
0310
,
0000
0100
0110
0000
,
0010
0110
0000
1000
,
0001
0010
0000
0100
1000
0000
1000
0001
,
0100
0220
0330
1001
,
0000
1000
1100
0000
,
0011
0010
0000
0001
,
1000
0100
0000
0001
0100
0000
0010
1000
,
0100
2200
3300
2200
,
0000
3300
2000
0000
,
3002
0000
0203
0320
,
0230
0320
0000
2030
0200
3000
1300
0100
,
1000
0000
0001
0100
0001
0000
2000
0000
,
0001
3001
0001
0010
,
0100
0010
0001
2000
,
3001
0200
0310
1000
,
0200
2000
3300
2000
,
3001
0100
0002
0013
,
0002
0103
0010
2000
,
3200
2300
3002
0203
,
0310
2002
3003
1001
,
0000
0000
1100
0000
,
1000
1001
0000
0001
,
1000
0001
0000
0001
0100
0000
0010
0100
,
0010
0200
0300
0110
,
0000
0000
0000
0000
0100
0010
1000
0000
,
1100
0000
0000
0000
0001
1000
0001
0000
,
1000
0001
0100
0001
0010
0001
0010
0100
,
1000
0001
0100
0010
1000
0100
0020
0000
,
0032
0203
0320
2030
,
3001
0000
1001
0101
,
0001
0010
0000
0100
1000
0000
0001
0100
,
0010
0220
0330
0110
,
0000
1000
1100
0000
,
0001
0101
0001
1001
,
1000
0001
1000
0000
0100
0001
0100
0000
,
0010
0220
0330
0110
,
1000
0001
0100
0000
0010
0000
1000
0001
,
0100
0000
0001
0010
0001
0000
0101
0000
,
0001
0010
0000
0010
0100
0000
1000
0001
,
0100
0000
0202
0000
0303
0000
0100
0001
,
0100
0000
0010
0000
0010
1000
0001
0000
,
1000
0000
0001
1000
0100
0000
1000
0100
,
1000
0100
1000
0100
0010
0100
0010
0000
,
0000
1001
0000
2100
,
3200
2300
3002
0203
,
0320
0000
0130
1001
,
1000
0001
0000
0100
0010
0000
1000
0001
,
0100
0101
0000
1001
,
0000
0000
1000
0001
0100
0000
0000
0000
,
0010
0000
0000
0000
0000
0000
0000
0000
1000
0000
0000
0000
0000
0000
0000
0000
0001
0000
0000
0000
0000
0000
0000
0000
0000
0000
0000
0000
0000
0000
0000
0000
1000
0000
0000
0000
0000
0000
0000
0000
0000
0000
0000
0000
0000
0000
0000
0000
2002
3003
0000
0000
0000
0000
0000
0000
0000
0000
0000
0000
0000
0000
0000
0000
,
2200
3300
0000
0000
0000
0000
0000
0000
0000
0000
0000
0000
0000
0000
0000
0000
2200
3300
0000
0000
0000
0000
0000
0000
0220
0330
0000
0000
0000
0000
0000
0000
0022
0033
0000
0000
0000
0000
0000
0000
2002
3003
0000
0000
0000
0000
0000
0000
0020
0030
0000
0000
0000
0000
0000
0000
0100
0000
0000
0000
0000
0000
0000
0000
,
0010
0000
1000
0000
0001
1000
0001
0000
,
1000
0000
0001
0100
0010
0000
0110
0000
,
0010
1000
0000
1000
0100
0000
0001
0010
,
0001
0101
1010
1001
,
1000
0001
1000
0000
1001
0000
0001
0100
,
0010
0000
0010
1000
0001
0000
1000
0001
,
1000
0000
0001
0000
0010
0000
0100
0000
1000
0000
0001
0000
0100
0010
1000
0100
,
0001
0010
0001
0100
0010
0000
0000
0000
1000
0000
0000
0000
0100
0000
0000
0000
,
0010
0001
0010
0100
,
0001
0100
0001
0100
,
0010
1000
0010
0100
,
0020
1030
0100
0010
,
0001
0010
0100
0001
,
0100
0010
1000
0010
,
0100
0010
2000
3001
,
0200
0310
0100
0001
,
0100
0010
1000
0010
,
0100
0001
0100
0010
,
1000
0100
1000
0100
,
0020
0031
0010
0100
,
1000
0100
0010
0001
,
1000
0100
1000
0001
,
0100
0010
0200
0310
,
2000
0000
3001
0000
0000
0011
0000
0000
,
1100
0000
0000
0000
1000
0001
0100
0000
,
0000
0010
0001
1000
,
0001
0000
0100
0010
1000
0000
1000
0000
,
1002
0013
0001
0100
,
0010
1000
0001
0100
,
0010
0000
1000
0001
1000
0000
1000
0100
,
1000
0000
2200
3300
,
0022
0033
0001
0000
0000
1000
0000
0000
,
0001
0000
0000
0000
1000
0001
0100
0000
,
0000
0000
0000
0000
0010
0000
0000
0010
,
0000
0000
0010
1000
0001
0000
2001
0000
,
3000
1000
0001
1000
,
0001
0010
0100
1000
,
0001
1001
0110
1001
,
0110
2002
0000
0000
,
3003
0000
0000
0000
;

//---------------dance-single - ----------------
#NOTES:
     dance-single:
     :
     Medium:
     9:
     0.645,1.000,0.382,0.114,0.008:
0000
0000
0000
0000
,
0000
0000
0000
0000
,
0000
0000
0000
0000
,
0000
0000
0000
0000
,
1000
0000
0002
0200
0000
0000
0303
0000
,
0001
0100
0001
0100
,
0010
1000
0010
1000
,
0000
0000
0000
0000
,
0001
1000
0010
0100
0010
0100
0010
1000
,
0100
1000
0010
0001
0100
0001
0100
0010
,
0100
0010
0100
0010
,
1000
0000
0001
0000
0100
0010
1000
0000
,
0010
0100
0010
0100
0010
1000
0001
1000
,
0001
0010
0100
1000
0100
0010
0001
1000
,
0100
0110
0001
1100
,
0011
0101
0110
0001
,
1000
0001
0100
0001
,
0010
0001
0100
0001
,
0100
0010
0100
0010
,
0100
0010
0000
0010
,
1000
0010
1000
0010
,
0100
0010
1000
0001
,
1000
0001
0100
0001
,
0100
0010
0000
0010
,
0100
0010
1000
0010
,
0100
0010
0100
0010
,
1000
0001
1000
0001
,
0100
0001
0000
0001
,
0010
0001
0100
0010
,
0100
0010
1000
1001
,
0110
0000
1000
1000
0001
0001
1001
0000
,
0000
0101
0000
0010
,
0100
0001
0000
0010
,
0000
0100
0000
0010
,
1000
0001
0000
1100
,
0000
0011
0000
0001
,
0100
0010
0000
1000
,
0001
0000
0001
1000
0010
0100
0001
0000
,
0100
0001
0100
0000
,
0010
0100
0000
0010
,
0100
0010
0100
0010
,
1000
0010
0000
0001
,
0010
0100
1000
0100
,
0010
0001
0100
0010
,
0100
0001
1000
0001
,
0010
0100
1000
0202
,
0000
0000
0000
0000
,
0303
0000
0000
0000
,
0000
0000
0001
0000
1000
0000
0001
1000
,
0001
1000
0001
1000
0001
1000
0001
1000
,
0001
1000
0001
1000
0001
1000
0001
1000
,
0001
1000
0001
1000
0001
1000
0001
1000
,
0001
0000
1000
0000
0001
0000
1000
0000
0001
0000
1000
0000
0001
1000
0001
2000
,
0002
0000
0000
0000
0000
0000
0000
0000
0000
0000
0000
0000
0000
0000
0000
0000
0000
0000
0000
0000
0000
0000
0000
0000
0000
0000
0000
0000
0000
0000
0000
3003
1001
0000
0000
0000
0000
0000
0000
0000
0000
0000
0000
0000
0000
0000
0000
0000
0101
0000
0000
0000
0000
0000
0000
0000
0000
0000
0000
0000
0000
0000
0000
0000
,
0000
0000
0010
0000
,
0100
0000
0010
0100
,
0010
1000
0001
1000
,
1000
1000
0000
1001
,
0000
0001
0101
0000
,
0001
0000
0001
0100
,
0000
0010
0000
0010
,
0100
0010
0000
0110
,
0000
0010
0110
0000
,
0010
0000
0010
1000
,
0001
0100
0001
0100
,
0100
0100
0000
0110
,
0000
0010
0100
0000
,
0010
0100
0010
1000
,
0001
1000
0001
0100
,
0001
0100
0000
0101
,
0000
1100
0000
0010
,
0100
0010
0000
0110
,
0000
1010
0000
0010
,
0010
0010
0000
0110
,
0000
1001
0000
1000
,
0100
0010
0000
0101
,
0000
1100
0000
0010
,
0100
0010
1000
1010
,
0000
0000
0011
0000
,
0000
1100
0000
0101
,
0000
0000
0110
0000
,
0001
0000
1000
0100
,
0000
0000
1000
0100
,
0000
0000
1000
0100
,
0010
0001
0100
0001
,
0100
0010
1000
0010
,
0100
0010
0200
0000
,
0010
0000
0310
0010
,
0000
1010
0000
0010
,
0100
0010
0000
0020
,
0000
0130
0010
0000
,
0100
0010
1000
0010
,
1000
0100
1000
0100
,
0010
0001
0010
0100
,
0000
0001
0100
0000
,
0001
0100
0001
0100
,
0010
1000
0010
0100
,
0100
0100
0000
0110
,
0000
0010
0100
0000
,
0010
0100
0010
1000
,
0001
0100
0001
0100
,
0001
0010
0000
0001
,
0100
0001
0100
0001
,
0100
0010
0100
0010
,
1000
0010
0100
0010
,
0100
0010
0000
0010
,
1000
0001
0100
0001
,
0100
0010
0001
0100
,
0010
0000
1000
0001
0100
0010
1000
0000
,
0100
1000
0100
0000
,
0010
0001
0010
0100
,
0001
0100
0001
0100
,
0010
0100
0000
0010
,
0100
0010
1000
0001
,
0100
0010
0001
0010
,
0100
1000
0100
0010
,
0001
0100
0010
0100
,
0000
0010
1000
0010
,
0000
0001
1000
0001
,
0100
0001
0100
0010
,
0000
0010
0100
0010
,
0000
0001
1000
0001
,
0000
1000
0100
1000
,
0100
0010
0001
0010
,
0000
0001
0000
0100
,
0000
0010
0100
0010
,
0000
0110
0000
0110
,
0000
0010
1000
0001
,
0000
0001
0000
1000
,
0000
0100
1000
0100
,
0000
0011
0000
0101
,
0000
0001
0100
0010
,
0000
0110
0000
0110
,
0000
0010
0100
0010
,
0000
1010
0000
0101
,
0000
1000
0100
1000
,
0000
1100
0000
0011
,
0000
0010
0100
0010
,
0000
1001
0000
1100
,
0000
0001
1000
0001
,
0000
0001
0100
0001
,
0000
0010
1000
0010
,
0000
0100
0010
0100
,
0000
0010
0100
0010
,
0000
0010
0100
0001
,
1000
0010
0100
1000
,
0001
0000
0200
0300
0200
0300
0200
0300
,
0200
0300
2002
0000
0000
0000
0000
0000
,
3003
0000
0000
0000
;

//---------------dance-single - ----------------
#NOTES:
     dance-single:
     :
     Easy:
     8:
     0.556,1.000,0.610,0.277,0.000: // measure 1
0000
0000
0000
0000
,  // measure 2
0000
0000
0000
0000
,  // measure 3
0000
0000
0000
0000
,  // measure 4
0000
0000
0000
0000
,  // measure 5
2002
0000
0000
3003
0000
0000
0000
0000
,  // measure 6
0000
0000
0000
0000
,  // measure 7
0000
0000
0000
0000
,  // measure 8
0000
0000
0000
0000
,  // measure 9
0010
0100
0001
1000
0010
0100
0001
1000
,  // measure 10
0010
0100
0001
1000
0010
0100
0001
1000
,  // measure 11
0001
1000
0001
1000
,  // measure 12
0001
0100
0010
0100
,  // measure 13
1000
0100
0010
0001
1000
0100
0010
0001
,  // measure 14
1000
0100
0010
0001
1000
0100
0010
0001
,  // measure 15
1000
0001
0100
0010
,  // measure 16
1000
0001
0100
0102
,  // measure 17
0000
0100
0000
0100
,  // measure 18
0000
0103
0000
0001
,  // measure 19
0000
0100
0000
0010
,  // measure 20
0100
0010
0000
0100
,  // measure 21
0000
0010
0000
0010
,  // measure 22
1000
0010
0000
1000
,  // measure 23
0000
0001
0000
0001
,  // measure 24
0100
0010
0000
0120
,  // measure 25
0000
0100
0000
0100
,  // measure 26
0000
0130
0000
0010
,  // measure 27
0000
1000
0000
0010
,  // measure 28
1000
0010
0000
1000
,  // measure 29
0000
0001
0000
0001
,  // measure 30
0100
0010
0000
0110
,  // measure 31
1001
0110
1001
0120
,  // measure 32
0000
0100
0000
0100
,  // measure 33
0000
0130
0000
0010
,  // measure 34
0000
0100
0000
0010
,  // measure 35
1000
0001
0000
1000
,  // measure 36
0000
0001
0000
0001
,  // measure 37
0100
0010
0000
0001
,  // measure 38
1000
0001
0100
0110
,  // measure 39
0000
0010
0000
0100
,  // measure 40
0000
0010
0100
0010
,  // measure 41
0000
1000
0000
0001
,  // measure 42
0000
0001
0100
0010
,  // measure 43
0000
0100
0000
0010
,  // measure 44
0000
0100
0000
0010
,  // measure 45
1000
0001
1000
0001
,  // measure 46
0100
0010
1000
0200
,  // measure 47
0000
0000
0000
0000
,  // measure 48
0300
0000
0000
0000
,  // measure 49
0000
0000
0000
1000
,  // measure 50
1000
1000
1000
2002
,  // measure 51
0000
0000
0000
0000
,  // measure 52
0000
0000
0000
0000
,  // measure 53
0000
0000
0000
0000
0000
0000
3003
1100
,  // measure 54
0000
0011
0000
0101
0110
0000
1001
0000
,  // measure 55
0000
0000
0101
0000
,  // measure 56
0001
0000
1000
0100
,  // measure 57
1000
0100
0010
0001
,  // measure 58
0010
0100
0000
0110
,  // measure 59
0000
0010
0000
0110
,  // measure 60
0000
0010
0000
0010
,  // measure 61
1000
0001
1000
0001
,  // measure 62
0100
0001
0000
0101
,  // measure 63
0000
0010
0000
0110
,  // measure 64
0000
0010
0000
0010
,  // measure 65
0100
0001
1000
0001
,  // measure 66
1000
0002
0000
0103
,  // measure 67
0000
0010
0000
1100
,  // measure 68
0000
0010
0000
0010
,  // measure 69
1000
0001
0100
0010
,  // measure 70
0200
0010
0300
0010
,  // measure 71
0000
0000
0110
0000
,  // measure 72
0110
0000
0110
0000
,  // measure 73
1001
0000
1001
0000
,  // measure 74
1100
0000
1100
0000
,  // measure 75
0011
0000
0011
0000
,  // measure 76
0101
0000
0101
0000
,  // measure 77
0110
0000
0110
0000
,  // measure 78
0010
0000
0100
0110
,  // measure 79
0000
0000
0000
0000
,  // measure 80
0000
0000
0010
0110
,  // measure 81
0000
0000
0000
0000
,  // measure 82
0000
0000
0100
0110
,  // measure 83
0000
0000
0010
0110
,  // measure 84
0000
0000
0110
0010
,  // measure 85
0000
1001
0000
0110
,  // measure 86
0000
0001
0000
0100
,  // measure 87
0001
0100
0020
0000
,  // measure 88
0100
0000
0130
0010
,  // measure 89
0100
0010
1000
0001
,  // measure 90
1000
0001
0000
1002
,  // measure 91
0000
0003
0001
0000
,  // measure 92
0100
0000
0001
0100
,  // measure 93
0001
0100
0010
1000
,  // measure 94
0010
2020
3030
1000
,  // measure 95
0000
0000
0001
0000
,  // measure 96
0100
0000
0001
0100
,  // measure 97
0001
0100
0010
0100
,  // measure 98
0010
0100
0000
0110
,  // measure 99
0000
0000
0010
0000
,  // measure 100
0010
0000
0010
1000
,  // measure 101
0010
1000
0010
0100
,  // measure 102
0010
0100
0000
0110
,  // measure 103
0000
0110
0000
0010
,  // measure 104
1000
0010
0000
1100
,  // measure 105
0000
0011
0000
0001
,  // measure 106
0100
0020
0000
0130
,  // measure 107
0000
0010
0000
0010
,  // measure 108
1000
0001
0000
0001
,  // measure 109
1000
0001
0100
0110
,  // measure 110
0000
0020
0000
0130
,  // measure 111
0000
0020
0000
0130
,  // measure 112
0000
0010
0000
0010
,  // measure 113
1000
0002
0000
1003
,  // measure 114
0000
0001
0000
0001
,  // measure 115
0100
0010
0000
2000
,  // measure 116
0000
3100
0000
0101
,  // measure 117
0110
1200
0000
1300
,  // measure 118
0000
0021
0000
0031
,  // measure 119
0000
0102
0000
0103
,  // measure 120
0000
0120
0000
0130
,  // measure 121
0000
1020
0000
1030
,  // measure 122
0000
0120
0000
0130
,  // measure 123
0000
1002
0000
1003
,  // measure 124
0000
0001
1001
0000
,  // measure 125
1001
0002
0000
0103
,  // measure 126
0000
0120
0000
0130
,  // measure 127
0000
1020
0000
0130
,  // measure 128
0000
2100
0000
3100
,  // measure 129
0000
0012
0000
0013
,  // measure 130
0000
0102
0000
0103
,  // measure 131
0000
0120
0000
0130
,  // measure 132
0000
0210
0000
0310
,  // measure 133
0000
0010
0100
0010
,  // measure 134
0100
0010
0100
0010
,  // measure 135
0000
0001
1000
0001
,  // measure 136
1000
0001
1000
0001
,  // measure 137
0000
0001
0100
0001
,  // measure 138
0100
0001
0100
0001
,  // measure 139
0000
1010
0000
0101
,  // measure 140
0000
0010
0100
0010
,  // measure 141
0000
0110
0000
0010
,  // measure 142
0000
0100
0010
0100
,  // measure 143
0000
1100
0000
1100
,  // measure 144
0000
1000
0100
1000
,  // measure 145
0000
1100
0000
0011
,  // measure 146
0000
0010
0100
0010
,  // measure 147
0000
1000
1000
1000
,  // measure 148
1000
1001
0000
0000
;

//---------------dance-single - ----------------
#NOTES:
     dance-single:
     :
     Beginner:
     3:
     0.146,0.479,0.155,0.000,0.000:
0000
0000
0000
0000
,
0000
0000
0000
0000
,
0000
0000
0000
0000
,
0000
0000
0000
0000
,
0010
0000
0000
0000
,
0000
0000
0000
0000
,
0000
0000
0000
0000
,
0000
0000
0000
0000
,
1001
0000
0000
0000
,
0000
0000
0000
0000
,
0000
0010
0000
0000
,
0000
0010
0000
0000
,
1001
0000
0000
0000
,
0000
0000
0000
0000
,
0010
0000
0000
0010
,
0010
0010
0010
0010
,
0000
0000
0000
0000
,
0000
0000
0000
1000
,
0000
0000
0000
0000
,
0000
0000
0000
0001
,
0000
0000
0000
0000
,
0000
0000
0000
1000
,
0000
0000
0000
1000
,
0000
0000
0000
1001
,
0000
0000
0000
0000
,
0000
0000
0000
0001
,
0000
0000
0000
0000
,
0000
0000
0000
0001
,
0000
0000
0000
0000
,
0000
0000
0000
0010
,
0000
0010
0000
0110
,
0000
0000
0000
0000
,
0000
0000
0000
0010
,
0000
0000
0000
0000
,
0000
0000
0000
1000
,
0000
0000
0000
0000
,
0000
0000
0000
1001
,
0000
0000
0000
0001
,
0000
0000
0000
0000
,
0000
0000
0000
1000
,
0000
0000
0000
0000
,
0000
0000
0000
0010
,
0000
0000
0000
0000
,
0000
0000
0000
0100
,
0000
0000
0000
0100
,
0000
0000
0000
1001
,
0000
0000
0000
0000
,
0000
0000
0000
0000
,
0000
0000
0000
0000
,
0000
0000
0000
0010
,
0000
0000
0000
0000
,
0000
0000
0000
0000
,
0000
0000
0000
0000
,
0000
0000
0000
1000
,
0000
0000
0000
0000
,
0000
0000
0000
0001
,
0000
0000
0000
0001
,
0000
0000
0000
0001
,
0000
0000
0000
0000
,
0000
0000
0000
1000
,
0000
0000
0000
0010
,
0000
0000
0000
0100
,
0000
0000
0000
0000
,
0000
0000
0000
0010
,
0000
0000
0000
0010
,
0000
0000
0000
0010
,
0000
0000
0000
0000
,
0000
0000
0000
1000
,
0000
0000
0000
1000
,
0000
1000
0000
1000
,
0000
0000
0000
0000
,
0000
0000
0000
0001
,
0000
0000
0000
1000
,
0000
0000
0000
1000
,
0000
0000
0000
0000
,
0000
0000
0000
0010
,
0000
0000
0000
0010
,
0000
0000
0000
0110
,
0000
0000
0000
0000
,
0000
0000
0000
0110
,
0000
0000
0000
0000
,
0000
0000
0000
1001
,
0000
0000
0000
0110
,
0000
0000
0000
1001
,
0000
1001
0000
1001
,
0000
1001
0000
0110
,
0000
0000
0000
0000
,
0000
0000
0000
0010
,
0000
0000
0000
0010
,
0000
0000
0000
0010
,
0000
0000
0000
0000
,
0000
0000
0000
1000
,
0000
0000
0000
1000
,
0000
0000
0000
1000
,
0000
0000
0000
0000
,
0000
0000
0000
0001
,
0000
0000
0000
0001
,
0000
0000
0000
0001
,
0000
0000
0000
0000
,
0000
0000
0000
0001
,
0000
0000
0000
1000
,
0000
0000
0000
1001
,
0000
0000
0000
0010
,
0000
0000
0000
0010
,
0000
0010
0000
0010
,
0000
0010
0000
0100
,
0000
0000
0000
0010
,
0000
0000
0000
1000
,
0000
0000
0000
1001
,
0000
0000
0000
0000
,
0000
0000
0000
0010
,
0000
0000
0000
0010
,
0000
0010
0000
0010
,
0000
0000
0000
0000
,
0000
0000
0000
1000
,
0000
0000
0000
0001
,
0000
1000
0000
0000
,
0000
0000
0000
0000
,
0000
0001
0000
0000
,
0000
0000
0000
0000
,
0000
0100
0000
0000
,
0000
0000
0000
0000
,
0000
0010
0000
0000
,
0000
0000
0000
0000
,
0000
1000
0000
0000
,
0000
0000
0000
0000
,
0000
0001
0000
0000
,
0000
0000
0000
0000
,
0000
1000
0000
0000
,
0000
0000
0000
0000
,
0000
0010
0000
0000
,
0000
0100
0000
0000
,
0000
0110
0000
0000
,
0000
0000
0000
0000
,
0000
0010
0000
0000
,
0000
0000
0000
0000
,
0000
1000
0000
0000
,
0000
0000
0000
0000
,
0000
0001
0000
0000
,
0000
0000
0000
0000
,
0000
1000
0000
0000
,
0000
0000
0000
0000
,
0000
0010
0000
0000
,
0000
0000
0000
0000
,
0000
0100
0000
0000
,
0000
0000
0000
0000
,
0000
0001
0001
0001
,
0001
1001
0000
0000
;
