#TITLE:WISH;
#SUBTITLE:;
#ARTIST:DJ YOSHITAKA feat. 杉村ことみ;
#TITLETRANSLIT:;
#SUBTITLETRANSLIT:;
#ARTISTTRANSLIT:;
#CREDIT:;
#BANNER:bn.PNG;
#BACKGROUND:z WISH_EUROBEAT_MIX__0001.jpg;
#LYRICSPATH:;
#CDTITLE:Beatmania IIDX.png;
#MUSIC:wish.mp3;
#OFFSET:-0.220;
#SAMPLESTART:58.614;
#SAMPLELENGTH:12.000;
#SELECTABLE:YES;
#BPMS:0.000=115.040;
#STOPS:;
#BGCHANGES:;

//---------------dance-single - ----------------
#NOTES:
     dance-single:
     :
     Hard:
     7:
     0.395,0.426,0.107,0.205,0.156:
0000
0000
0000
0000
,
0000
0000
0000
0000
,
0000
0000
0000
0000
,
0000
0000
0000
0000
1000
0000
0000
0000
0001
0000
0000
0000
0001
1000
0000
0001
,
0000
0000
1000
0000
0100
1000
0100
0000
0010
0000
0001
0010
0001
0000
0010
0000
,
0100
0000
0000
0000
0001
0100
0001
0000
0100
0000
0002
0000
0020
0000
0000
0000
,
0033
0000
0000
0000
1000
0100
1000
0000
0010
0000
0010
1000
0010
0000
1000
0000
,
0001
1100
1100
0101
,
0101
0000
0000
0000
0010
0100
0010
0000
1000
0000
0001
1000
0001
0000
1000
0000
,
0001
0000
0000
0000
1000
0100
1000
0000
1000
0000
0100
0000
0020
0000
0000
0000
,
0030
0000
0000
0000
0001
0100
0001
0000
0100
0000
0010
0100
0010
0000
0100
0000
,
0010
0000
1000
0100
0010
0001
0000
0010
,
0100
0010
0000
1000
0001
0100
0010
1000
,
0010
0000
0100
0000
0010
0000
0000
0010
0000
0000
1000
0000
0100
0000
0000
0000
,
0000
0000
0000
0000
0000
0001
0100
0010
,
0100
1000
1100
0000
1100
0000
1100
0000
,
1100
0000
0010
0000
0100
0000
1000
0100
,
0010
0000
0001
0000
0010
0000
0000
0001
0000
0000
0001
0000
0010
0000
0100
0000
,
1000
0200
0000
0000
1300
0200
0000
0000
,
1300
0100
0010
0000
0010
0000
0010
0001
,
0010
0100
2000
0000
0000
0000
3000
0010
,
0100
0020
0000
0000
0030
0000
0001
1000
,
0001
2000
0000
0000
0000
0000
3000
0010
,
0100
0020
0000
0000
0030
0000
0000
0000
,
0000
0000
0000
0000
0002
0000
0000
0000
0000
0000
0000
0000
0000
0003
1000
0000
,
0100
1000
0000
0000
0000
0010
0100
0010
,
1000
0001
0000
0100
0100
0000
0000
1000
,
0100
0010
0011
0000
1100
0000
0110
0000
,
0001
0000
1000
0000
0002
0000
0000
0100
0000
0000
0103
0000
0000
0000
0010
0000
,
0010
0000
0000
0000
2000
0000
0000
0100
0000
0000
3100
0000
0000
0000
0001
0000
,
1000
0000
0000
0000
0020
0000
0000
0100
0000
0000
0130
0000
0000
0000
0010
0000
,
0100
0000
1000
0100
0001
0100
1000
0100
,
0001
0000
0000
0000
0002
0000
0000
0100
0000
0000
0013
0000
0000
0000
0010
0000
,
0010
0000
0000
0000
0200
0000
0000
0010
0000
0000
0310
0000
0000
0000
1000
0000
,
1000
0000
0000
0000
0001
0000
0000
1000
0000
0000
0100
0000
0000
0000
0010
0000
,
0001
0000
0000
0000
1000
0000
0001
0000
0000
0000
0000
0000
1000
0001
0000
1000
,
0000
0001
0100
0000
0010
0000
1000
0000
0000
0100
0000
0000
0010
0000
0000
0001
,
0000
0000
0100
0000
0000
0000
0001
0000
0000
1000
0000
0000
0001
0000
0000
0100
,
0000
0000
0010
0000
0000
0000
1000
0000
0000
0100
0000
0000
0010
0000
0000
0001
,
0000
0100
1000
0100
1000
0100
1000
0100
,
0000
0000
0000
0000
0010
1000
0010
0000
1000
0000
0100
0000
0010
0000
0001
0000
,
0010
0000
0001
0100
0001
1000
0001
1000
,
0001
0000
0010
0001
0010
0100
1000
0100
,
0010
0000
1000
0000
0001
1000
0001
0000
1000
0001
1000
0000
1001
0000
0000
0000
,
1000
0100
2000
0000
0000
0000
0000
0100
,
3100
0000
0020
0000
0000
0000
0000
0001
,
0031
0000
0002
0000
0000
0000
0000
0100
,
0103
0000
0010
0100
0010
0100
0001
1000
,
0010
0000
1000
0000
0002
0000
0000
1000
0000
0000
1003
0000
0000
0000
0100
0000
,
0010
0000
0000
0000
0020
0000
0000
0100
0000
0000
0130
0000
0000
0000
0100
0000
,
0100
0000
0000
0000
2000
0000
0000
0100
0000
0000
3010
0000
0000
0000
0001
0000
,
1000
0000
1000
0100
0001
0100
0000
1000
,
0000
0200
0000
0001
0002
0000
0000
0000
,
0000
0303
0000
0000
;

//---------------dance-single - ----------------
#NOTES:
     dance-single:
     :
     Medium:
     4:
     0.286,0.308,0.133,0.133,0.000:
0000
0000
0000
0000
,
0000
0000
0000
0000
,
0000
0000
0000
0000
,
0000
1000
1000
1000
,
1000
0000
0001
0000
0100
0000
0001
0100
,
0001
0000
0010
0000
0100
0010
0200
0000
,
0300
0000
1000
0100
1000
0000
0010
0000
,
0001
1000
1000
0001
,
0001
0000
0100
0010
0100
0000
0010
0000
,
1000
0000
0001
1000
0001
0100
0001
0000
,
0000
0000
0010
0100
0010
0000
1000
0000
,
0001
1000
1000
0011
,
0100
0000
0001
0000
1000
0000
0001
0100
,
0001
0000
1000
0000
0100
0000
0010
1000
,
0001
2000
3000
0100
,
1000
0110
0110
0110
,
0110
0000
0120
0000
0030
0000
0001
1000
,
0001
1000
0100
0010
,
0001
0100
0002
0000
0000
0000
2003
0000
,
0000
0100
0100
0100
,
0100
0000
3100
0000
0000
0000
0000
0001
,
1000
0001
0000
0000
0000
0000
0010
0000
,
0100
0000
2000
0000
0000
0000
3000
0100
,
1000
0100
0000
0000
0000
0000
0000
0000
,
0000
0000
0020
0000
0000
0000
0030
1000
,
0001
1000
0000
0000
0000
1000
0100
1000
,
0100
1000
0000
0000
0010
0000
0000
0000
,
0001
0101
1100
1001
,
0000
0000
1000
0000
0100
0000
0010
0001
,
0100
0000
0001
0000
1000
0000
0010
0100
,
0001
0000
0100
0000
0010
0000
1000
0001
,
0100
0010
0010
0100
,
0100
0000
0001
0000
1000
0000
0100
1000
,
0010
0000
0001
0000
1000
0000
0001
0100
,
0010
0000
1000
0000
0001
0000
0001
1000
,
0100
0020
0000
0100
,
0130
1000
0001
0100
,
0010
1000
0010
0000
1000
0000
0100
0000
,
0010
0001
0100
0000
1000
0000
0100
0000
,
0010
0000
0000
0001
0000
0001
0000
0001
,
0000
1000
1000
0000
0100
0000
0010
0001
,
0020
0000
0031
0000
0100
0000
0001
1000
,
0002
0103
0010
0100
,
1000
1001
1001
1001
,
0000
0020
0000
0000
,
0030
0200
0000
0000
,
0300
2000
0000
0000
,
3000
1000
0001
0110
,
0110
1000
0100
0010
,
0001
0000
0010
0000
0001
0000
0100
1000
,
0100
0000
0010
0000
1000
0000
0001
1000
,
0010
0110
0000
1000
,
0000
0200
0000
0010
0020
0000
0000
0000
,
0000
0330
0000
0000
;

//---------------dance-single - ----------------
#NOTES:
     dance-single:
     :
     Easy:
     2:
     0.179,0.257,0.089,0.187,0.000:
0000
0000
0000
0000
,
0000
0000
0000
0000
,
0000
0000
0000
0000
,
0000
1000
1000
1000
,
1000
0001
0100
1000
,
0100
0001
0100
2000
,
3000
0001
0001
1000
,
1000
0001
0001
0001
,
0001
2002
0000
0000
,
3000
1000
1000
2000
,
3003
1000
0100
0010
,
0001
2002
0000
0000
,
0000
0000
3003
1000
,
0100
0001
0100
1000
,
0000
0000
0000
0010
,
0001
0101
0100
0100
,
0100
0100
0000
0000
,
0000
1000
0000
0000
,
0000
0001
1000
0100
,
0010
0001
0001
0001
,
0001
2000
0000
0000
,
0000
3000
0000
0010
,
0001
0200
0000
0000
,
0000
0300
0000
0000
,
0000
0002
0000
0000
,
0000
0000
0000
0000
,
0000
1000
1003
0000
,
0000
1100
0011
0101
,
2000
3001
0000
0000
,
0000
0200
0000
0000
,
0301
0020
0000
0000
,
1030
1000
1000
0001
,
0001
0002
0000
0000
,
0103
0020
0000
0000
,
0130
2000
0000
0000
,
3100
1001
0000
0000
,
0000
0010
0000
0010
,
0000
0100
0000
0100
,
0000
1000
0000
1000
,
0000
0001
0001
0001
,
0000
1000
0001
0100
,
0010
2000
0010
0010
,
0002
3003
0001
0000
0001
0000
1000
0000
,
0000
1001
1001
1001
,
0000
0100
0000
0000
,
0000
0010
0000
0000
,
0000
1000
0000
0000
,
0000
0001
0001
0001
,
0001
2000
0000
0000
,
3000
0002
0000
0000
,
0003
0020
0000
0000
,
0030
0200
0000
0000
,
0000
0000
0300
0000
;

//---------------dance-single - ----------------
#NOTES:
     dance-single:
     :
     Beginner:
     1:
     0.050,0.091,0.009,0.000,0.000: // measure 1
0000
0000
0000
0000
,  // measure 2
0000
0000
0000
0000
,  // measure 3
0000
0000
0000
0000
,  // measure 4
0000
0000
0000
0000
,  // measure 5
0000
1000
0000
0000
,  // measure 6
0000
1000
0000
0000
,  // measure 7
0000
0001
0000
0000
,  // measure 8
0000
0110
0000
0000
,  // measure 9
0000
0010
0000
0000
,  // measure 10
0000
0100
0000
0000
,  // measure 11
0000
1000
0000
0000
,  // measure 12
0000
0001
0000
0000
,  // measure 13
0000
0000
0000
0000
,  // measure 14
0000
1000
0000
0000
,  // measure 15
0000
0100
0000
0000
,  // measure 16
0000
0000
0000
0000
,  // measure 17
0000
0010
0000
0000
,  // measure 18
0000
0010
0000
0000
,  // measure 19
0000
0001
0000
0000
,  // measure 20
0000
0000
0000
0000
,  // measure 21
0000
1000
0000
0000
,  // measure 22
0000
0000
0000
0000
,  // measure 23
0000
0001
0000
0000
,  // measure 24
0000
0000
0000
0000
,  // measure 25
0000
0010
0000
0000
,  // measure 26
0000
0000
0000
0000
,  // measure 27
0000
0100
0000
0000
,  // measure 28
0000
1000
1000
1000
,  // measure 29
0000
0001
0000
0000
,  // measure 30
0000
0010
0000
0000
,  // measure 31
0000
0100
0000
0000
,  // measure 32
0000
0000
0000
0000
,  // measure 33
0000
1000
0000
0000
,  // measure 34
0000
0100
0000
0000
,  // measure 35
0000
0010
0000
0000
,  // measure 36
0000
0000
0000
0000
,  // measure 37
0000
0001
0000
0000
,  // measure 38
0000
0001
0000
0000
,  // measure 39
0000
1000
0000
0000
,  // measure 40
0000
1000
0000
0000
,  // measure 41
0000
0010
0000
0000
,  // measure 42
0000
0000
0000
0000
,  // measure 43
0000
0100
0000
0000
,  // measure 44
0000
0000
0000
0000
,  // measure 45
0000
1000
0000
0000
,  // measure 46
0000
0000
0000
0000
,  // measure 47
0000
0001
0000
0000
,  // measure 48
0000
0000
0000
0000
,  // measure 49
0000
0010
0000
0000
,  // measure 50
0000
0100
0000
0000
,  // measure 51
0000
1000
0000
0000
,  // measure 52
0000
0001
0000
0000
;
