#TITLE:Welcome;
#SUBTITLE:;
#ARTIST:Uraken;
#TITLETRANSLIT:;
#SUBTITLETRANSLIT:;
#ARTISTTRANSLIT:;
#CREDIT:;
#BANNER:bn.PNG;
#BACKGROUND:bg.PNG;
#LYRICSPATH:;
#CDTITLE:IIDX GOLD.png;
#MUSIC:Welcome.mp3;
#OFFSET:-1.480;
#SAMPLESTART:1.454;
#SAMPLELENGTH:12.000;
#SELECTABLE:YES;
#BPMS:0.000=170.000;
#STOPS:206.000=0.353
;
#BGCHANGES:;

//---------------dance-single - ----------------
#NOTES:
     dance-single:
     :
     Hard:
     8:
     0.522,0.613,0.244,0.203,0.069: // measure 1
0010
0000
0011
0000
0001
0010
0100
0000
,  // measure 2
0000
0000
0000
0000
,  // measure 3
1000
0000
1100
0000
0010
1000
0010
0000
,  // measure 4
1000
0000
1000
0000
0100
0000
0100
0000
0010
0000
0010
0000
0001
0010
0001
0010
,  // measure 5
0001
0000
0101
0000
0010
1000
0001
0000
,  // measure 6
0000
0000
0000
0000
,  // measure 7
1000
1100
0010
1010
,  // measure 8
0001
1000
0001
1000
0020
0000
0000
0000
,  // measure 9
1030
0000
1100
0000
0010
1000
0001
0000
,  // measure 10
0001
0000
0011
0000
0001
0100
0010
0000
,  // measure 11
1000
0000
1010
0000
1000
0100
0010
0000
,  // measure 12
0001
0000
0001
0000
1000
0000
1000
0000
0010
0000
0010
0000
0100
0001
0100
0001
,  // measure 13
0100
0000
1100
0000
0010
1000
0001
0000
,  // measure 14
1000
0000
0110
0000
0001
0100
0010
0000
,  // measure 15
0011
0000
0000
0000
1001
0000
0000
0000
0110
0000
0000
0000
1100
0000
0000
0010
,  // measure 16
0001
0010
0100
1000
0020
0000
0000
0000
,  // measure 17
2030
0000
0000
0000
,  // measure 18
3002
0000
0000
0000
,  // measure 19
0023
0000
0000
0000
,  // measure 20
0230
0000
0000
0000
,  // measure 21
0320
0000
0000
0000
,  // measure 22
0032
0000
0000
0000
,  // measure 23
0203
0000
0000
0000
,  // measure 24
2300
0000
0000
0000
,  // measure 25
3200
0000
0000
0000
,  // measure 26
0320
0000
0100
0130
,  // measure 27
0100
0000
1000
0100
0000
0010
0001
0010
,  // measure 28
0002
0000
1003
1000
0000
0100
2000
0000
,  // measure 29
3020
0000
0000
0000
,  // measure 30
2030
0000
0001
0001
,  // measure 31
3001
0000
0001
0200
0000
1300
0010
0100
,  // measure 32
0002
0000
0000
0000
,  // measure 33
0000
1000
0000
1000
0000
1000
0000
1000
,  // measure 34
0000
1000
0000
1000
0000
1000
0000
1000
,  // measure 35
0000
1000
0000
1000
0000
1000
0000
2000
,  // measure 36
0000
0000
0000
3000
,  // measure 37
1003
0000
0110
0000
0001
1000
0010
0000
,  // measure 38
0000
0000
0000
0000
,  // measure 39
1000
0000
1100
0000
0010
1000
0001
0000
,  // measure 40
0000
0000
0000
0000
,  // measure 41
0011
0000
0101
0000
0001
1000
0010
0000
,  // measure 42
0100
1000
0100
0001
,  // measure 43
0010
0000
0011
0000
0001
0100
0010
0000
,  // measure 44
1000
0000
0001
0000
1000
0000
0001
0000
0100
0000
1000
0000
0100
0001
0100
0001
,  // measure 45
0100
0000
1100
0000
0010
1000
0001
0000
,  // measure 46
0100
0000
0011
0000
0001
0100
1000
0000
,  // measure 47
0010
1010
1100
0011
,  // measure 48
0101
0000
1100
0000
0101
1100
0101
0000
,  // measure 49
1000
0000
0100
0000
1000
0000
1000
0100
0000
0000
0000
0000
0000
0000
0000
0000
,  // measure 50
0001
0000
0100
0000
0001
0000
0001
0100
0000
0000
0000
0000
0000
0000
0000
0000
,  // measure 51
0010
0000
0001
0000
0010
0000
0001
0010
0000
0100
0010
0000
0100
0000
0010
0000
,  // measure 52
1000
0000
0100
0000
0010
0000
0001
0010
0000
0000
0000
0000
0002
0000
0000
0000
,  // measure 53
0100
0000
0010
0000
1000
0003
0200
0000
,  // measure 54
1000
0010
0010
0310
,  // measure 55
0010
1000
0000
1000
0100
0010
0001
0000
,  // measure 56
0001
0100
0000
1000
0020
0000
1000
0000
,  // measure 57
1000
1000
1000
0100
,  // measure 58
0100
0000
0001
0000
0100
0030
1000
0100
,  // measure 59
0010
0001
0010
0100
1000
0010
0002
0000
,  // measure 60
0000
0000
0000
1003
0100
0010
0001
0100
,  // measure 61
0001
0100
0001
0100
0001
0100
0010
1000
,  // measure 62
0010
1000
0010
1000
0010
1000
0001
1000
,  // measure 63
0001
1000
0010
1000
0001
1000
0100
1000
,  // measure 64
0100
0010
0001
0010
0100
0001
0100
0010
,  // measure 65
1000
0010
0100
0001
1000
0010
0100
1000
,  // measure 66
0010
0001
0100
1000
0100
0010
0001
0100
,  // measure 67
0010
1000
0010
0100
0001
1000
2002
0000
,  // measure 68
0000
0000
0000
0000
3003
1000
0100
0010
,  // measure 69
0001
0010
0000
0001
0100
0001
0100
0000
,  // measure 70
0000
0000
0000
0001
1000
0100
0010
0001
,  // measure 71
0010
0000
0100
0000
0000
0000
1000
0000
0100
0000
0010
0000
0001
0000
0000
0010
,  // measure 72
0000
0000
0100
0000
1000
0100
0000
0010
0000
0001
1000
0000
0001
0000
0000
0000
,  // measure 73
0000
0000
0000
0001
1000
0100
0010
0001
,  // measure 74
0010
0100
0000
1000
0100
0000
0100
0000
,  // measure 75
0000
0000
0000
0001
1000
0001
0100
1000
,  // measure 76
0100
0010
0000
0001
0100
1000
0010
0001
,  // measure 77
0010
0100
0000
1000
0100
0010
0001
0000
,  // measure 78
0000
0000
0000
0100
0001
0100
0001
1000
,  // measure 79
0010
0000
0000
1000
0100
0010
0001
0100
,  // measure 80
1000
0001
1000
0100
0010
0001
0100
0000
,  // measure 81
0000
0000
0000
1000
0100
0010
0001
0000
,  // measure 82
0000
0000
0000
1000
0100
0010
0001
0010
,  // measure 83
0100
0001
0100
0001
1000
0010
0100
1000
,  // measure 84
0100
0000
0000
1000
0000
0000
0010
0000
1000
0000
0001
0000
0100
0000
0000
0000
;

//---------------dance-single - ----------------
#NOTES:
     dance-single:
     :
     Medium:
     6:
     0.391,0.511,0.163,0.203,0.000:
0001
0000
0100
0000
0001
0100
0001
0000
,
0000
0000
0000
0000
,
1000
0000
0010
0000
1000
0010
1000
0000
,
1000
0100
0010
0001
0010
0001
2000
0000
,
3001
0000
0100
0000
0010
0001
1000
0000
,
0000
0000
0000
0000
,
1000
1100
0010
0011
,
0001
1000
0001
1000
0001
0000
0100
0000
,
0010
0000
0100
0000
0010
0001
0010
0000
,
0100
0000
1000
0000
0010
1000
0010
0000
,
0100
0000
0001
0000
1000
0100
1000
0000
,
0010
0000
0001
0000
0001
0000
0100
1000
,
0010
0000
0001
0000
1000
0100
0010
0000
,
0001
0000
0100
0000
1000
0100
0010
0000
,
1001
0110
1001
0110
,
1000
0100
0010
0001
0010
0000
0100
0000
,
2000
0000
0000
0000
,
3002
0000
0000
0000
,
0023
0000
0000
0000
,
0032
0000
0000
0000
,
2003
0000
0000
0000
,
3200
0000
0000
0000
,
0320
0000
0000
0000
,
0032
0000
0000
0000
,
2003
0000
0000
0000
,
3100
0000
0010
0001
,
0100
0000
1000
0100
0000
1000
0100
1000
,
0100
0000
1000
0100
0000
0100
1000
0000
,
0020
0000
0000
0000
,
2030
0000
3001
0010
,
0001
0000
0100
0001
0000
0001
0100
0002
,
2000
0000
0000
0000
,
0000
0000
0000
0000
,
0000
0000
0000
0000
,
0000
0000
0000
0000
,
0000
0000
0000
0000
0000
3003
0000
0000
,
0110
0000
0110
0000
1000
0100
1000
0000
,
0000
0000
0000
0000
,
0101
0000
1010
0000
1000
0100
0010
0000
,
0000
0000
0000
0000
,
0101
0000
1010
0000
1000
0100
0010
0000
,
0000
0000
0000
0000
,
0011
0000
1100
0000
0010
0100
1000
0000
,
1001
0000
0001
0000
1000
0000
1000
0100
,
0010
0000
0011
0000
0100
1000
0001
0000
,
1010
0000
0101
0000
1000
0100
0010
0000
,
0011
0100
1100
0010
,
0001
1000
0100
0010
,
2000
0000
0000
3000
0000
0000
0000
0000
,
0002
0000
0000
0003
0000
0000
0000
0000
,
0020
0000
0000
0000
,
0200
0000
0330
2000
,
0000
0000
0000
3200
,
0000
0310
0001
0001
,
0001
0010
0000
0010
0100
1000
0100
0000
,
1000
0100
0000
0010
0001
0000
0002
0000
,
0000
0000
0000
2003
,
0000
0000
3010
0000
0100
0000
1000
0100
,
1000
0100
1000
0100
1000
0100
2000
0000
,
0000
0000
3010
1000
,
0100
1000
0000
0010
0100
0000
0001
0000
,
0001
0100
0000
1000
0100
0000
0010
0000
,
0001
0010
0000
0010
0100
0000
1000
0000
,
0001
1000
0000
1000
0100
0000
0010
0000
,
1000
0100
0000
0010
0001
0000
0001
0000
,
0001
0100
0000
0010
1000
0000
0100
0000
,
1000
0100
0000
0010
0001
2000
0002
0000
,
0000
3003
0010
0100
,
1000
0000
0100
0000
1000
0100
1000
0000
,
0000
0000
0010
0100
,
0001
0100
1000
0001
,
0000
0000
0000
1000
0100
0010
0001
0000
,
0000
0000
0000
0001
0100
0001
0100
0000
,
1000
0000
0100
0000
0010
0001
0010
0000
,
0100
0000
0001
0000
1000
0000
0100
1000
,
0010
0100
0000
0000
0001
0000
1000
0000
,
1000
0100
0000
0010
0001
0010
0001
0000
,
0000
0000
0001
0100
,
0010
1000
0000
1000
0100
1000
0000
0100
,
0000
1000
0000
0100
0000
0010
0100
0000
,
1000
0000
0100
0000
0010
0001
0010
0000
,
0001
0000
0100
0000
1000
0100
1000
0000
,
0100
0010
0100
0000
0001
1000
0100
0000
,
0010
0001
0100
1000
;

//---------------dance-single - ----------------
#NOTES:
     dance-single:
     :
     Easy:
     4:
     0.289,0.545,0.130,0.252,0.000:
1000
0100
0010
0001
,
0000
0000
0000
0000
,
0001
0010
0100
1000
,
0001
1000
0100
0010
,
0001
0010
0100
1000
,
0000
0000
0000
0000
,
1100
1100
0101
0101
,
0010
0001
2000
3000
,
0001
1000
0001
1000
,
0010
0100
0010
0100
,
1000
0100
1000
0100
,
0001
0100
1000
0200
,
1300
0010
0001
1000
,
0100
0010
0001
1000
,
1001
1001
0110
0110
,
1100
0011
0102
0003
,
2000
0000
0000
0000
,
3002
0000
0000
0000
,
2003
0000
0000
0000
,
3020
0000
0000
0000
,
0230
0000
0000
0000
,
0302
0000
0000
0000
,
2003
0000
0000
0000
,
3020
0000
0000
0000
,
1030
0000
0000
0000
,
0002
0000
0000
0000
,
2003
0000
0000
0000
,
3020
0000
0000
0030
,
0200
0000
0000
0000
,
0302
0000
0000
0000
,
2000
0000
0000
0003
,
0020
0000
0000
0000
,
0000
0000
0000
0000
,
0000
0000
0000
0000
,
0000
0000
0000
0000
,
3030
0000
0000
0000
,
0001
0001
0001
0001
,
0000
0000
0000
0000
,
1000
1000
1000
1000
,
0000
0000
0000
0000
,
0010
0010
0010
0010
,
0000
0000
0000
0000
,
0100
0100
0100
0100
,
0002
2003
3010
0200
,
0301
0001
1000
1000
,
0010
0010
0100
0100
,
1000
1100
0001
0101
,
0001
0011
1000
1010
,
0002
0000
0003
0000
,
2000
0000
3000
0000
,
0020
0000
0000
0000
0000
0000
0000
0030
,
0200
0000
0300
2000
,
0000
0000
0000
3002
,
0000
0013
0010
0100
,
1000
0010
0001
0100
,
1000
0010
0001
2000
,
0000
0000
0000
3002
,
0000
0010
0013
0010
,
0001
0100
1000
0020
,
0000
0000
0030
1000
,
0001
1000
0001
0100
,
0010
0100
0010
1000
,
0100
1000
0100
0001
,
0100
0001
0100
0001
,
0010
0001
0010
1000
,
0010
1000
0010
1000
,
0100
0010
0001
2000
,
0000
0000
3000
0001
,
1000
0001
0100
0010
,
0000
0000
0000
0100
,
0000
0000
0010
0001
,
0100
0001
1000
0100
,
0000
0000
1000
1000
,
0000
0000
0001
0001
,
0000
0000
0010
0100
,
1000
0000
0001
1000
,
0100
0010
0001
1000
,
0000
0000
0001
0100
,
0010
1000
0001
0000
,
1000
0001
0100
0010
,
0000
0000
0010
0001
,
0000
0000
1000
0100
,
0000
0010
0000
0001
,
0000
1000
0000
1001
;
