#TITLE:Watch out!!;
#SUBTITLE:;
#ARTIST:MAD sequence*;
#TITLETRANSLIT:;
#SUBTITLETRANSLIT:;
#ARTISTTRANSLIT:;
#CREDIT:;
#BANNER:bn.PNG;
#BACKGROUND:bg.PNG;
#LYRICSPATH:;
#CDTITLE:IIDX GOLD.png;
#MUSIC:Watch out!!.mp3;
#OFFSET:-4.560;
#SAMPLESTART:60.200;
#SAMPLELENGTH:14.500;
#SELECTABLE:YES;
#BPMS:0.000=120.640,165.000=30.160,168.000=120.640;
#STOPS:28.000=1.492
;
#BGCHANGES:;

//---------------dance-single - ----------------
#NOTES:
     dance-single:
     :
     Hard:
     8:
     0.519,0.592,0.206,0.043,0.447:
0001
1000
0000
0100
0010
0000
0000
0001
0000
0000
0000
0000
0100
1000
0100
1000
,
0000
0000
0002
0000
0013
0100
1000
0000
0010
0100
0010
0100
0020
0000
0000
0000
,
2030
0000
0000
0000
0000
0000
0000
0000
3000
0000
1000
0000
0000
0100
0001
0000
,
1000
0000
0010
0100
0010
0000
0000
0000
0000
0000
0000
0000
1100
0000
0000
0000
,
0011
0000
0000
0000
1000
0100
0010
0001
,
0101
0000
0000
0000
0010
1000
0001
0010
,
1100
0000
0000
0000
1000
0001
0100
0010
,
0000
0000
0000
0000
1000
0100
1000
0100
1000
0100
1000
0000
0010
0001
0000
0100
,
0000
0000
0000
0000
0001
0000
0010
0100
0000
0100
0010
0000
0010
0001
0000
0010
,
0100
0000
1000
0000
0001
0100
0001
0100
0001
0100
0001
0000
0010
1000
0000
1000
,
0000
0000
0001
0010
0100
0001
1000
1000
,
0010
0000
1000
0000
0010
1000
0010
1000
0010
1000
0010
0000
1000
0001
0000
1000
,
0000
0000
0100
0010
1000
0001
0010
0100
,
1000
0000
0001
0000
1000
0100
0010
0001
0010
0100
1000
0000
0001
0100
0000
1000
,
0000
0000
0000
0000
1010
0000
0010
1000
0010
0000
1000
0000
0001
0000
1000
0001
,
1000
0000
0100
0000
0010
0001
0010
0001
0010
0001
0010
0000
0010
0100
0000
0001
,
0000
0000
0000
0000
1000
0001
1000
0100
0000
0010
0000
0100
0000
0001
1000
0100
,
0010
0000
0001
0000
0010
1000
0010
1000
0010
1000
0010
0000
1000
0001
0000
1000
,
0000
0000
0010
1000
0010
1000
0010
1000
0010
1000
0010
0001
0100
0001
1000
0000
,
2002
0000
3003
0000
0010
1000
0010
1000
0010
1000
0010
0000
1000
0001
0000
0100
,
0000
0000
0010
1000
0001
1000
0100
0100
,
1001
0000
0010
0000
1000
0001
1000
0010
1000
0010
1000
0000
0001
0000
1000
0100
,
0000
0000
0000
0000
0010
0000
0010
0001
0000
0001
0000
1000
0000
1000
0001
0000
,
0001
1000
0101
0000
0000
0000
0000
0000
,
0000
1010
0000
0000
,
0000
1100
0000
0000
,
0000
0000
1001
0000
0000
0000
0000
1001
,
0000
0000
0101
0100
0001
1000
0001
1000
,
0100
0000
1000
0000
0010
1000
0010
1000
0010
0000
0010
0000
1000
0000
0001
0000
,
1000
0001
1001
0001
0100
0010
1000
0001
,
0100
0000
0010
0000
0010
0000
1000
0001
0000
0100
1000
0000
0001
1000
0001
0000
,
1100
0000
1100
0100
1000
0010
1000
0010
,
1000
0100
1000
0001
1000
0010
1000
0001
,
1000
0001
1010
0010
1000
0001
0100
0010
,
1000
0000
0100
0000
0010
1000
0010
1000
0100
0000
0010
1000
0010
0000
0001
0100
,
0010
1000
1001
0000
1001
0000
0001
0000
,
1000
0000
1000
0001
1000
0001
1000
0001
,
1000
0001
1001
0000
0000
0000
1000
0100
,
1000
0100
1100
0000
0000
0000
0001
0100
,
0001
0100
0101
0000
0000
0000
0010
0001
,
0010
0001
0011
0000
0000
0000
0000
0000
,
0000
0000
0000
0000
1000
0000
0001
0000
0010
0000
1000
0000
0010
0000
0001
0100
,
0010
0010
0000
0100
0100
0000
0000
0000
,
1000
0100
1000
0010
0100
0001
0100
0000
0010
1000
0000
0001
0000
0000
0000
0000
,
0001
1000
0010
1000
0100
0010
0001
0100
,
0001
0100
0010
1000
0100
0000
0010
0000
0001
1000
0000
0010
0000
0000
0000
0000
,
0001
1000
0100
1000
0010
1000
0100
0010
,
0001
0100
0010
0100
0001
1000
0100
0000
0010
1000
0000
0100
0000
0000
0000
0000
,
0010
0001
0100
0010
0100
1000
0010
1000
,
0001
1000
0010
1000
0100
1000
0001
0000
0010
0000
1000
0000
0001
0000
1000
0000
,
0010
1000
0010
0000
0001
0100
0001
0000
1000
0100
1000
0100
0010
0001
0010
0001
,
1001
0000
0000
0000
;

//---------------dance-single - ----------------
#NOTES:
     dance-single:
     :
     Medium:
     5:
     0.318,0.329,0.163,0.069,0.000:
0001
1000
0001
0100
,
0010
0100
0010
1000
,
0001
1000
0001
0100
,
0010
0010
0000
0110
,
0110
0000
0000
0000
0001
0100
0001
0100
,
0101
0000
0000
0000
1000
0100
1000
0100
,
1100
0000
0000
0000
0010
0100
0010
0100
,
0000
0000
0010
0100
0010
1000
0010
1000
,
0000
0010
0100
0010
,
1000
0000
0001
1000
0001
1000
0001
1000
,
0000
0001
0100
0010
,
1000
0000
0100
1000
0100
1000
0100
1000
,
0000
0010
0010
0100
,
0100
0000
0010
0100
0010
1000
0001
1000
,
0001
1001
0010
1001
,
0100
0000
0001
0100
0001
0100
0001
0100
,
0001
0200
0310
0020
,
1030
0000
0001
1000
0001
1000
0001
1000
,
0001
2000
3100
0020
,
0031
0000
0001
0100
0001
0100
0010
1000
,
0010
0200
0310
0020
,
1030
0000
0001
1000
0001
1000
0001
1000
,
0001
0000
0100
0100
0100
0000
0010
0000
,
1000
1010
0000
0000
,
0000
0101
0000
0000
,
0000
1001
0000
0000
,
0000
0000
1100
0000
0000
0000
0000
0001
,
0000
0000
0101
0000
0001
0000
1000
0001
,
1000
0000
0001
0000
0100
0000
0010
1000
,
0100
0000
1000
0000
0100
0000
1000
0100
,
1000
0000
2000
0000
3002
0000
0100
0100
,
0103
0000
0101
0000
0001
0000
0001
0100
,
0010
0000
0100
0000
0010
0000
0010
1000
,
0100
0000
1100
0000
1000
0000
0001
1000
,
0001
0000
0100
0000
0010
0000
0010
1000
,
0100
1100
0000
0000
,
0000
0000
0000
0000
,
0000
1001
0000
0000
,
0000
0110
0000
0000
,
0000
1010
0000
0000
,
0000
0101
0000
1000
,
0000
0000
0001
1000
0100
1000
0010
0100
,
0001
0000
0001
0000
,
1000
0001
1000
0001
1000
0001
1000
0000
,
0001
0100
0001
0100
0001
0100
0001
0000
,
0010
1000
0010
1000
0010
1000
0010
0000
,
1000
0100
1000
0100
1000
0100
1000
0000
,
0010
0001
0010
0001
0010
0001
0010
0000
,
0100
0001
0100
0001
0100
0001
0100
0000
,
0010
0100
0010
0100
0010
0100
0010
0000
,
0010
1000
0010
1000
0010
1000
0010
0000
,
1001
0000
0000
0000
;

//---------------dance-single - ----------------
#NOTES:
     dance-single:
     :
     Easy:
     3:
     0.203,0.241,0.129,0.026,0.000:
0010
0000
0010
0000
,
0010
0000
1000
0000
,
0001
0000
1000
0000
,
0001
0001
0000
1000
,
1001
0000
0001
0001
,
1001
0000
1000
1000
,
1010
0000
0010
0010
,
0000
0110
0010
1000
,
0000
0001
0000
1000
,
0000
0001
1000
0100
,
1000
0010
0000
0010
,
0000
0100
0010
1000
,
0001
1000
0000
1000
,
0000
1000
0001
0100
,
0010
0110
0000
0010
,
0000
0010
1000
0010
,
0100
0020
0000
0000
,
0030
1000
0001
1000
,
0100
2000
0000
0000
,
3000
0001
1000
0001
,
0100
0020
0000
0000
,
0030
0100
0010
1000
,
0001
1001
0010
0000
,
0000
0010
1000
0000
0000
0000
0000
0000
,
0000
0001
0000
0000
,
0000
0100
0000
0000
,
0000
0000
0010
0000
0000
0000
0000
0010
,
0000
0010
1000
0010
,
0100
0010
1000
0001
,
0100
0110
0010
1000
,
0100
0000
1000
0000
0001
0000
1000
0001
,
1000
1001
0001
0100
,
0010
1000
1000
0010
,
1000
1100
1000
0100
,
0010
0000
0001
0010
0001
0000
0100
0000
,
0001
1000
0100
0000
0000
0000
0000
0000
,
0000
0000
0000
0000
,
0000
1010
0000
0000
,
0000
0101
0000
0000
,
0000
0011
0000
0000
,
0000
1100
0000
1000
,
0000
1001
0010
0010
,
0010
0000
0010
0000
,
1000
0001
0100
0001
,
0001
0001
0001
0001
,
0001
1000
0001
0100
,
0010
0010
0010
0010
,
0010
1000
0100
1000
,
0010
0010
0010
0010
,
0010
1000
0001
0100
,
0010
1000
0100
0010
,
0011
0000
0000
0000
;

//---------------dance-single - ----------------
#NOTES:
     dance-single:
     :
     Beginner:
     1:
     0.074,0.110,0.034,0.000,0.000: // measure 1
0010
0000
0000
0000
,  // measure 2
0010
0000
0000
0000
,  // measure 3
0010
0000
0000
0000
,  // measure 4
1000
0000
0000
1000
,  // measure 5
1001
0000
0000
0000
,  // measure 6
0010
0000
0000
0000
,  // measure 7
0100
0000
0000
0000
,  // measure 8
0000
0010
0000
0000
,  // measure 9
0000
0010
0000
0000
,  // measure 10
0000
0001
0000
0000
,  // measure 11
0000
0001
0000
0000
,  // measure 12
0000
1000
0000
0000
,  // measure 13
0000
1000
0000
0000
,  // measure 14
0000
0010
0000
0000
,  // measure 15
0000
0100
0000
0100
,  // measure 16
0000
0100
0000
0000
,  // measure 17
0000
0001
0000
0000
,  // measure 18
0000
1000
0000
0000
,  // measure 19
0000
0010
0000
0000
,  // measure 20
0000
0100
0000
0000
,  // measure 21
0000
0010
0000
0000
,  // measure 22
0000
1000
0000
0000
,  // measure 23
0000
0001
0001
0000
,  // measure 24
0000
0010
0000
0000
,  // measure 25
0000
0010
0000
0000
,  // measure 26
0000
0010
0000
0000
,  // measure 27
0000
0010
0000
0000
,  // measure 28
0000
0010
0000
0000
,  // measure 29
0000
1000
0000
0000
,  // measure 30
0000
0001
0000
0000
,  // measure 31
0000
0100
0000
0000
,  // measure 32
0000
0010
0000
0000
,  // measure 33
0000
1000
0000
0000
,  // measure 34
0000
0001
0000
0000
,  // measure 35
0000
1000
0000
1000
,  // measure 36
0000
1001
0000
0000
,  // measure 37
0000
0000
0000
0000
,  // measure 38
0000
0010
0000
0000
,  // measure 39
0000
0010
0000
0000
,  // measure 40
0000
0010
0000
0000
,  // measure 41
0000
0010
0000
1000
,  // measure 42
0000
1001
0000
0000
,  // measure 43
0010
0000
0000
0000
,  // measure 44
0010
0000
0000
0000
,  // measure 45
1000
0000
0000
0000
,  // measure 46
0001
0000
0000
0000
,  // measure 47
1000
0000
0000
0000
,  // measure 48
0001
0000
0000
0000
,  // measure 49
0100
0000
0000
0000
,  // measure 50
0010
0000
0000
0000
,  // measure 51
1000
0000
0000
0000
,  // measure 52
1001
0000
0000
0000
;
