#TITLE:ワルツ第17番 ト短調 ”大犬のワルツ”;
#SUBTITLE:;
#ARTIST:Virkato;
#TITLETRANSLIT:Waltz 17 in G minor "Waltz of the Big Dogs";
#SUBTITLETRANSLIT:;
#ARTISTTRANSLIT:;
#CREDIT:;
#BANNER:bn.png;
#BACKGROUND:bg.png;
#LYRICSPATH:;
#CDTITLE:;
#MUSIC:Waltz No.17 In G Minor.mp3;
#OFFSET:-0.623;
#SAMPLESTART:12.660;
#SAMPLELENGTH:10.362;
#SELECTABLE:YES;
#BPMS:0.000=310.090,1.000=309.981,2.000=310.090,3.000=309.981,4.000=310.054,4.333=310.074,5.000=309.981,6.000=310.054,7.000=309.981,8.000=310.054,9.000=290.004,12.000=250.000,15.000=280.000,18.000=300.000,21.000=320.029,22.000=319.990,24.000=300.000,30.000=290.004,33.000=300.000,36.000=290.004,43.000=289.973,44.000=290.004,50.000=289.973,51.000=290.004,57.000=289.973,58.000=290.004,60.000=300.000,108.000=290.004,114.000=289.973,115.000=290.004,120.000=300.000,129.000=290.004,135.000=289.973,136.000=290.004,142.000=289.973,143.000=290.004,144.000=300.000,156.000=310.018,157.000=309.981,158.000=310.018,160.000=309.981,161.000=310.018,162.000=309.981,163.000=310.018,164.000=309.981,165.000=280.000,167.000=270.000,168.000=290.004,174.000=300.000,216.000=310.018,217.000=309.981,218.000=310.018,219.000=270.000,228.000=300.000,276.000=310.673,296.000=310.709,297.000=310.673,317.000=310.709,318.000=300.000,321.000=259.998,322.000=260.024,323.000=259.998,327.000=270.000,330.000=280.000,333.000=300.000,334.000=306.676,336.000=310.965,369.000=300.000,382.000=290.004,384.000=280.000,387.000=240.000,391.000=251.688,392.000=250.000,393.000=263.310,394.000=277.242,395.000=281.011,396.000=290.004,399.000=310.673,419.000=310.709,420.000=310.673,440.000=310.709,441.000=310.673,444.000=290.004,447.000=280.000,453.000=231.253,454.000=242.086,455.000=250.901,456.000=240.000,457.000=259.998,458.000=280.000,459.000=300.000,531.000=290.705,549.000=280.832,552.000=300.000,555.000=290.004,558.000=300.000,618.000=311.844,630.000=290.004,633.000=300.000;
#STOPS:;
#BGCHANGES:;

//---------------dance-single - ----------------
#NOTES:
     dance-single:
     :
     Challenge:
     13:
     0.990,1.000,0.416,0.000,0.269: // measure 1
0000
0000
0000
0000
,  // measure 2
0000
0000
0000
0000
,  // measure 3
0000
0000
0000
0000
,  // measure 4
1001
0000
0000
0000
,  // measure 5
0000
0000
1000
0001
0100
0000
0000
0000
,  // measure 6
0000
0101
0000
0000
,  // measure 7
1000
0000
0100
0000
1000
0100
1000
0000
,  // measure 8
0001
1000
0001
0000
1000
0000
0001
0010
,  // measure 9
0001
0000
1001
0000
1000
0001
0100
0001
,  // measure 10
0010
0000
1000
0001
0100
0000
0000
0000
,  // measure 11
0010
1000
0001
0000
0000
0000
0001
0010
,  // measure 12
0001
0000
0000
0000
1000
0100
1000
0000
,  // measure 13
0000
0000
0001
1000
0001
0000
0000
0000
,  // measure 14
0001
0010
0001
0000
0000
0000
1000
0100
,  // measure 15
1000
0000
1000
0001
0010
0000
0011
0000
,  // measure 16
1001
0000
1000
0100
0010
0000
0001
0100
,  // measure 17
0001
0010
0001
0100
0010
0000
0010
1000
,  // measure 18
0001
0000
0001
0010
0100
1000
0001
0010
,  // measure 19
0100
0000
0001
1000
0100
0000
1100
0000
,  // measure 20
1000
0001
0100
0000
0010
1000
0001
0010
,  // measure 21
0001
0000
0000
0100
0000
0000
0010
0000
0100
0000
0010
0000
0100
0000
0010
0000
0100
0000
0010
0000
0100
0000
0010
0000
,  // measure 22
0100
0000
0010
1000
0001
0000
0001
0010
,  // measure 23
1000
0100
1000
0100
1000
0000
1000
0001
,  // measure 24
0100
0000
0010
1000
0001
0010
0001
0100
,  // measure 25
0010
0000
0100
0010
1000
0000
1001
0000
,  // measure 26
1000
0001
0100
0000
0010
1000
0010
0000
,  // measure 27
1001
0000
0001
0010
0001
0100
0010
1000
,  // measure 28
0100
1000
0100
0010
,  // measure 29
0001
0010
0001
1000
,  // measure 30
1000
0010
0100
0001
,  // measure 31
0100
0000
0010
0000
0100
0000
0001
1000
,  // measure 32
0001
0100
0001
1000
0001
0010
0001
1000
,  // measure 33
0001
0100
0010
1000
0100
0010
0001
1000
,  // measure 34
0001
0001
0100
0010
,  // measure 35
0100
0010
1000
0010
,  // measure 36
0100
0010
1000
0001
,  // measure 37
0100
0010
1000
0001
0010
0000
0001
1000
,  // measure 38
0100
0010
0100
0000
1000
0001
0100
0001
,  // measure 39
0010
0000
0001
1000
0001
0100
0001
0000
,  // measure 40
1000
0001
0100
0001
0011
0000
1000
0100
,  // measure 41
0001
0100
0101
0000
0010
1000
0001
0010
,  // measure 42
0001
0000
0000
1000
0000
0000
0100
0000
1000
0000
0100
0000
1000
0000
0100
0000
1000
0000
0100
0000
0000
1000
0000
0000
,  // measure 43
1100
0000
1000
1000
,  // measure 44
0000
0001
0001
0000
,  // measure 45
0001
0010
0100
1000
,  // measure 46
1000
0100
0001
0100
0010
1000
0001
0010
,  // measure 47
0001
0100
0010
1000
0100
1000
0001
0100
,  // measure 48
0010
1000
0001
0000
1000
0000
0001
0010
,  // measure 49
0001
0100
0010
0000
0100
0010
1000
0001
,  // measure 50
0010
0000
1000
0001
0100
0001
0010
0000
,  // measure 51
0001
0010
0001
0100
0010
0000
0100
0000
,  // measure 52
0010
1000
0001
1000
0001
0100
0001
0010
,  // measure 53
0001
0100
0010
1000
0100
1000
0001
0100
,  // measure 54
0010
1000
0001
0010
0001
0100
0010
1000
,  // measure 55
1100
0000
1000
0001
1000
0000
0001
0000
,  // measure 56
1000
1010
0000
0000
,  // measure 57
0000
0000
0000
0000
,  // measure 58
1000
0000
0100
0000
,  // measure 59
0010
0000
0000
0000
,  // measure 60
0010
0000
0001
0000
,  // measure 61
0000
0000
0001
0000
,  // measure 62
0010
0000
0000
0000
,  // measure 63
1000
0000
0100
0000
,  // measure 64
0001
0000
0100
0000
,  // measure 65
0010
0000
1000
0000
,  // measure 66
0010
0000
0100
0000
,  // measure 67
0010
0000
1000
0010
,  // measure 68
1000
0001
0100
0000
,  // measure 69
0000
0000
0010
0000
,  // measure 70
1000
0000
0100
0000
1000
0000
0100
0000
0010
0000
0001
0000
,  // measure 71
0100
0000
0000
0100
0000
0000
0010
0000
1000
0000
0001
0000
,  // measure 72
0010
0000
0001
0000
0100
0000
0010
0000
0000
1000
0000
0000
,  // measure 73
0100
0000
1000
0000
0001
0000
0010
0000
0001
0000
1000
0000
,  // measure 74
0100
0000
0000
1000
0000
0000
1000
0000
0001
0000
0100
0000
,  // measure 75
0001
0000
0010
0000
0001
0000
1000
0000
0000
0001
0000
0000
,  // measure 76
0100
0010
0100
0001
,  // measure 77
0100
0010
1000
0100
,  // measure 78
1000
0001
0100
0001
,  // measure 79
0010
0010
0001
0001
,  // measure 80
1000
1000
1001
0000
,  // measure 81
1100
0000
0011
0000
,  // measure 82
1000
0000
0000
0000
0000
0000
0000
0000
0000
0000
0000
0000
1000
0000
0000
0001
,  // measure 83
0000
1000
0000
0001
0000
1000
0000
0001
0000
1000
0000
0001
0000
1000
0000
0001
,  // measure 84
0000
1000
0000
0001
0000
1000
0000
0001
0000
1000
0000
0001
0000
0100
0000
0010
,  // measure 85
0000
0000
0100
0000
0110
0000
0001
0010
,  // measure 86
0001
0100
0010
0000
0010
1000
0001
0010
,  // measure 87
0001
0000
1000
0001
0100
0001
0010
0001
,  // measure 88
0100
0010
1000
0100
1000
0000
1000
0001
,  // measure 89
0100
0000
0010
1000
0001
0010
0001
0100
,  // measure 90
0010
1000
0100
1000
0100
0000
0001
0010
,  // measure 91
0001
1000
0100
1000
0001
0010
0001
0010
,  // measure 92
0001
0000
1000
0000
0001
0100
0010
0000
,  // measure 93
0010
0000
0010
1000
0001
0000
1000
0001
,  // measure 94
0101
0000
0000
1000
0100
0010
0001
0000
,  // measure 95
1000
0001
0100
0010
,  // measure 96
1000
0000
0001
0010
0100
1000
0001
0010
,  // measure 97
0100
1000
0001
0010
0100
1000
0100
0000
,  // measure 98
0000
0000
0001
0100
0001
0000
0000
0000
,  // measure 99
1000
0001
0100
0000
0010
1000
0100
0000
,  // measure 100
1000
0010
0100
0000
0001
0010
0011
0000
,  // measure 101
0001
0100
0010
0000
0100
0010
1000
0001
,  // measure 102
0010
0001
0100
0000
0001
0100
0010
0000
,  // measure 103
0010
1000
0001
0010
0001
0100
0010
0000
,  // measure 104
0100
1000
0001
0000
0101
0000
0001
0100
,  // measure 105
0010
0000
1000
0001
0100
0010
1000
0100
,  // measure 106
1000
0100
1000
0100
1000
0100
1000
0100
1000
0100
0000
0000
,  // measure 107
1000
0001
0100
0000
0100
0001
0010
0001
,  // measure 108
0100
0010
1000
0000
1000
0001
0100
0000
,  // measure 109
0010
1000
0001
0010
0001
0100
0010
0000
,  // measure 110
0100
0010
1000
0000
1010
0000
1000
0001
,  // measure 111
0100
0000
0010
1000
0001
0000
1000
0000
,  // measure 112
1000
0100
0010
0001
1000
0100
0010
0000
,  // measure 113
0000
0000
0001
0000
,  // measure 114
0000
1001
0000
0000
,  // measure 115
1000
1000
0001
0001
0100
0100
0010
0000
,  // measure 116
0100
0010
0100
0000
0110
0000
0010
0100
,  // measure 117
0010
0000
0110
0000
0010
0100
0010
0000
,  // measure 118
0100
0010
1000
0001
0010
0000
0011
0000
,  // measure 119
0001
0010
0001
0000
0011
0000
0010
0001
,  // measure 120
0010
0000
0011
0000
0001
0010
0001
0000
,  // measure 121
0001
0010
1000
0100
1000
0000
1000
0001
,  // measure 122
0100
0000
0101
0000
0001
0100
0010
0000
,  // measure 123
0110
0000
0010
0100
0010
0000
1001
0000
,  // measure 124
1010
0000
0001
0100
0010
0000
1000
0001
,  // measure 125
0100
0001
1000
0001
0010
0001
1000
0001
,  // measure 126
0100
0001
0010
0001
0100
0010
1000
0001
,  // measure 127
0100
0001
0010
0001
1000
0000
1100
1000
,  // measure 128
0100
1000
0100
0000
1100
0100
1000
0100
,  // measure 129
1000
0000
1001
1000
0001
1000
0001
0000
,  // measure 130
1000
0001
0100
0010
1000
0000
1000
0100
,  // measure 131
0100
1000
0100
0000
0001
0100
0100
0001
,  // measure 132
0100
0000
1000
0001
0001
1000
0001
0000
,  // measure 133
0001
0010
1000
0100
1000
0000
1001
0000
,  // measure 134
1000
0001
0100
0000
0101
0000
0001
0010
,  // measure 135
0001
0000
0011
0000
1000
0001
0100
0000
,  // measure 136
0110
0000
0010
1000
0001
0000
1100
0000
,  // measure 137
1000
0100
1100
0000
0101
0000
0010
1000
,  // measure 138
0001
0000
1001
0000
1000
0100
1000
0000
,  // measure 139
0001
0100
0001
0000
0001
0100
0010
0000
,  // measure 140
1000
0000
0000
0001
0000
0000
0100
0000
0000
0100
0000
0000
0010
0000
0000
0000
0000
0000
0100
0001
0000
0000
0000
0000
,  // measure 141
0100
0010
0000
0000
0000
0000
0000
0000
0000
0000
0000
0000
0100
1000
0000
0000
0000
0000
1000
0001
0000
0000
0000
0000
,  // measure 142
0000
0000
0000
0000
0000
0000
0100
1000
0000
0000
0000
0000
1000
0100
0000
0000
0000
0000
0100
0000
0000
0000
0000
0000
,  // measure 143
0100
1000
0000
0000
0000
0000
0011
0000
0000
0000
0000
0000
0100
0000
0000
0000
0000
0000
0010
0001
0000
0000
0000
0000
,  // measure 144
0001
1000
0000
0000
0000
0000
1000
0000
0000
0000
0000
0000
1000
0010
0000
0000
0000
0000
0001
0100
0000
0000
0000
0000
,  // measure 145
1000
0000
0000
0000
0000
0000
0001
1000
0000
0000
0000
0000
0100
1000
0000
0000
0000
0000
0001
0000
0000
0000
0000
0000
,  // measure 146
1000
0001
1000
0100
1000
0000
1000
0100
,  // measure 147
0010
0000
0011
0000
0001
0010
0100
0000
,  // measure 148
1001
0000
0001
0100
0010
0000
0010
0100
,  // measure 149
0010
1000
0001
0010
0001
0000
0001
0010
,  // measure 150
0100
0000
0011
0000
0001
0010
0100
0000
,  // measure 151
1100
0000
1000
0001
0100
0000
0110
0000
,  // measure 152
1000
0000
0001
0000
0010
0000
0000
0000
0000
0000
0000
0000
1000
0001
1000
0001
,  // measure 153
0000
0000
0000
0000
0000
0000
0000
0000
1000
0100
1000
0100
0000
0000
0000
0000
,  // measure 154
0000
0000
0000
0000
0100
0001
0100
0001
0000
0000
0000
0000
0000
0000
0000
0000
,  // measure 155
0001
0010
0001
0010
0001
0000
0000
0000
1100
0000
0000
0000
1000
0000
0001
0000
,  // measure 156
0100
0001
0011
0000
0001
0100
0010
1000
,  // measure 157
1100
0000
1000
0001
0100
0001
0011
0000
,  // measure 158
1000
1000
1000
0000
1001
0000
0101
0000
,  // measure 159
0001
0000
1000
0100
0010
0001
0100
0010
,  // measure 160
1000
0000
0000
0000
;

//---------------dance-single - ----------------
#NOTES:
     dance-single:
     :
     Hard:
     12:
     0.871,1.000,0.485,0.000,0.031: // measure 1
0000
0000
0000
0000
,  // measure 2
0000
0000
0000
0000
,  // measure 3
0000
0000
0000
0000
,  // measure 4
1100
0000
0000
0000
,  // measure 5
0000
0000
0010
1000
0001
0000
0000
0000
,  // measure 6
0000
1001
0000
0000
,  // measure 7
1100
0000
0101
0000
0001
0100
0001
0000
,  // measure 8
0001
0000
0011
0000
1100
0000
0001
1000
,  // measure 9
0001
0000
0100
0000
0010
1000
0001
0010
,  // measure 10
0001
1000
1000
0000
,  // measure 11
0001
0001
0000
0100
,  // measure 12
0100
0000
0010
0010
,  // measure 13
0000
0010
0010
0000
,  // measure 14
0100
0000
0100
0000
0000
0000
0001
1000
,  // measure 15
0001
0000
0001
0010
0001
0000
0010
0000
,  // measure 16
1001
0000
1000
0001
0100
0000
0010
0000
,  // measure 17
0001
0000
0100
0000
0110
0000
0010
1000
,  // measure 18
0001
0011
1000
0001
,  // measure 19
1100
0000
1000
0001
0100
0000
0101
0000
,  // measure 20
0100
0001
0010
0000
0001
0010
0100
1000
,  // measure 21
0001
0100
0001
0010
0001
0100
0010
1000
,  // measure 22
0100
0000
1000
0100
1000
0000
0001
0000
,  // measure 23
0100
0000
0010
0000
1010
0000
0010
1000
,  // measure 24
0100
1000
0001
0010
,  // measure 25
0011
0000
0001
0010
0001
0000
1100
0000
,  // measure 26
1000
0100
1000
0000
0001
0100
0010
0000
,  // measure 27
0100
0000
0010
1000
0001
0010
1000
0100
,  // measure 28
1000
0100
1000
0100
,  // measure 29
0010
0001
0010
0001
,  // measure 30
0100
0001
0100
0010
,  // measure 31
1000
0000
0001
0000
0100
0000
0010
0100
,  // measure 32
0010
1000
0001
0010
0001
0100
0001
1000
,  // measure 33
0001
1000
0100
1000
0100
1000
0001
0100
,  // measure 34
0001
0010
0001
0000
1000
0000
0100
0000
,  // measure 35
0001
0010
0001
0100
,  // measure 36
0010
1000
0100
1000
,  // measure 37
0010
0100
0010
0100
0010
0000
1000
0001
,  // measure 38
1000
0001
0100
0000
1000
0001
1000
0001
,  // measure 39
0100
0000
1000
0010
1000
0010
0100
0000
,  // measure 40
0010
1000
0100
1000
0100
0000
0001
0010
,  // measure 41
0100
1000
0001
0000
1000
0001
0100
0001
,  // measure 42
0010
0001
0100
0010
1000
0001
0010
1000
,  // measure 43
0100
0000
1000
0100
,  // measure 44
0000
0001
0100
0000
,  // measure 45
0001
0010
0010
0001
,  // measure 46
0100
0000
0001
0100
0001
0000
0101
0000
,  // measure 47
0001
0010
0001
0000
0011
0000
0001
0010
,  // measure 48
1000
0100
1000
0000
0100
0010
1000
0001
,  // measure 49
0010
0001
0010
0000
1000
0000
0001
0100
,  // measure 50
0010
0000
0100
0000
0010
1000
0001
0000
,  // measure 51
0010
0000
0001
0100
0010
0000
0100
0000
,  // measure 52
1000
0001
0100
0001
0100
0010
1000
0010
,  // measure 53
1000
0010
1000
0100
1000
0100
0010
0100
,  // measure 54
1000
0001
0100
0001
0010
0001
0100
0010
,  // measure 55
1000
0000
1000
0001
0100
0000
0101
0000
,  // measure 56
1100
1001
0000
0000
,  // measure 57
0000
0000
0000
0000
,  // measure 58
0000
0000
1000
0000
,  // measure 59
0001
0000
0000
0000
,  // measure 60
0001
0000
0100
0000
,  // measure 61
0000
0000
0100
0000
,  // measure 62
0001
0000
0000
0000
,  // measure 63
0001
0000
1000
0000
,  // measure 64
0001
0000
0100
0000
,  // measure 65
0010
0000
1000
0000
,  // measure 66
0100
0000
1000
0000
,  // measure 67
0010
1000
0100
1000
,  // measure 68
0010
1000
0100
0000
,  // measure 69
0000
0000
1000
0000
,  // measure 70
0000
0000
1000
1000
,  // measure 71
0001
0001
0000
0000
,  // measure 72
0001
0001
0100
0100
,  // measure 73
0000
0000
0100
0100
,  // measure 74
0010
0010
0000
0000
,  // measure 75
0010
0010
1000
1000
,  // measure 76
0001
0001
1000
1000
,  // measure 77
0001
0001
0100
0000
,  // measure 78
0001
0000
0010
0000
,  // measure 79
0001
0001
0100
0100
,  // measure 80
0010
0010
1010
0000
,  // measure 81
0101
0000
1001
0000
,  // measure 82
0100
0000
0000
1100
,  // measure 83
0000
0000
0000
0000
,  // measure 84
0000
0000
0000
0000
,  // measure 85
1000
0001
0010
0001
,  // measure 86
0100
0010
1000
0100
,  // measure 87
1000
0000
0010
0000
0100
0000
0010
1000
,  // measure 88
0001
0010
0001
0100
0010
1000
0100
0000
,  // measure 89
1000
0000
0010
0100
0010
1000
0001
0010
,  // measure 90
0001
0010
0100
1000
0001
0000
0001
0100
,  // measure 91
0001
0010
0001
0100
0010
0000
0100
0010
,  // measure 92
0100
0000
0010
0000
1000
0001
1000
0000
,  // measure 93
0001
0000
0010
0001
0010
0100
1000
0001
,  // measure 94
0010
0000
0000
0000
0001
1000
0100
0000
,  // measure 95
1000
0100
0001
0100
,  // measure 96
0010
0000
1000
0000
0001
0000
1000
0100
,  // measure 97
0010
0001
1000
0100
0010
0001
1000
0000
,  // measure 98
0000
0000
1000
1000
1000
0000
0000
0000
,  // measure 99
0001
0001
0001
0000
1000
0001
0100
0000
,  // measure 100
0010
1000
0001
0000
0001
0010
0011
0000
,  // measure 101
1000
0100
1000
0000
1000
0000
0001
0000
,  // measure 102
0100
0000
0110
0000
0010
1000
0001
0000
,  // measure 103
0010
0001
0010
1100
,  // measure 104
1000
0001
0100
0000
0101
0000
0001
0100
,  // measure 105
0010
0000
0010
0100
0010
1000
0001
0010
,  // measure 106
0001
0010
0001
0010
0001
0000
1100
0000
,  // measure 107
1000
0001
0100
0000
0010
0000
1000
0000
,  // measure 108
0001
0000
0011
0000
0001
0100
0010
0000
,  // measure 109
0110
0010
1000
1001
,  // measure 110
1000
0100
1000
0000
0101
0000
0001
0100
,  // measure 111
0010
0000
0100
0010
1000
0000
0001
0000
,  // measure 112
1000
0100
0010
0001
1000
0100
0010
0000
,  // measure 113
0000
0000
0011
0000
,  // measure 114
0000
1100
0000
0000
,  // measure 115
0010
0100
0010
0100
0010
0100
0010
0000
,  // measure 116
1000
0001
1000
0000
0100
0000
0001
1000
,  // measure 117
0001
0000
0010
0000
1000
0001
1000
0000
,  // measure 118
1000
0100
0010
0001
0100
0000
0010
0000
,  // measure 119
1000
0001
1000
0000
0100
0000
0001
1000
,  // measure 120
0001
0000
0010
0000
1000
0001
1000
0000
,  // measure 121
1000
0001
0100
0001
0010
0000
0010
0001
,  // measure 122
0010
0000
0010
0000
0001
0010
0001
0000
,  // measure 123
1000
0000
1000
0001
0100
0000
0010
0000
,  // measure 124
0100
0000
0010
1000
0001
0000
0001
0010
,  // measure 125
0001
0100
0001
0100
0010
1000
0010
1000
,  // measure 126
0100
1000
0100
0010
0100
1000
0100
1000
,  // measure 127
0001
0100
0010
1000
0100
1000
1001
0000
,  // measure 128
1000
0001
1000
0000
1001
0000
1000
0100
,  // measure 129
1000
0000
1100
0000
1000
0001
0100
0000
,  // measure 130
0001
0010
0001
0100
0010
0000
0100
0010
,  // measure 131
1000
0001
1000
0000
0001
1000
0001
0100
,  // measure 132
0001
0000
1000
0001
0100
0001
0010
0000
,  // measure 133
0001
0000
1000
0001
0100
0000
0110
0000
,  // measure 134
0010
1000
0001
0000
1001
0000
1000
0001
,  // measure 135
1000
0000
0101
0000
0001
0100
0010
0000
,  // measure 136
0110
0000
0010
1000
0001
0000
1001
0000
,  // measure 137
1000
0100
1000
0000
0001
0000
1000
0001
,  // measure 138
0010
0000
0011
0000
0001
1000
0001
0000
,  // measure 139
0001
1000
0001
0000
0001
1000
0001
0000
,  // measure 140
0001
1000
0001
1000
0001
0000
1100
0000
,  // measure 141
0101
0000
0110
1001
,  // measure 142
0000
1100
0011
0000
,  // measure 143
0101
1010
0000
1010
,  // measure 144
1001
0000
1100
0011
,  // measure 145
0000
1001
1001
0001
,  // measure 146
1000
0000
0001
0000
1001
0000
0001
0100
,  // measure 147
0001
0000
1000
0000
1000
0100
1000
0000
,  // measure 148
0010
0000
0010
0100
0010
0000
0010
1000
,  // measure 149
0001
0010
0001
0000
1000
0000
0001
0100
,  // measure 150
0001
0000
1000
0000
0100
1000
0100
0000
,  // measure 151
1000
0000
0001
0100
0010
0000
1010
0000
,  // measure 152
1000
0000
0000
0001
0000
0000
0100
0000
0000
0000
0000
0000
0000
0000
0000
0000
0000
0000
1000
0000
0100
0000
1000
0000
,  // measure 153
0100
0000
0000
0000
0000
0000
0001
0100
0001
0100
0000
0000
,  // measure 154
0000
0000
0000
0010
0100
0010
0100
0000
0000
0000
0000
0000
,  // measure 155
1000
0000
0001
0000
1000
0000
0001
0000
0000
0000
0000
0000
1001
0000
0000
0000
0000
0000
1000
0000
0000
0001
0000
0000
,  // measure 156
0100
0000
0101
0000
0001
0100
0010
0000
,  // measure 157
0110
0000
0010
1000
0001
0000
0011
0000
,  // measure 158
1000
1000
0001
0000
1000
0000
0001
0000
,  // measure 159
0010
0000
0001
0010
1000
0100
0010
1000
,  // measure 160
0100
0000
0000
0000
;

//---------------dance-single - ----------------
#NOTES:
     dance-single:
     :
     Medium:
     10:
     0.605,0.918,0.400,0.000,0.000:
0000
0000
0000
0000
,
0000
0000
0000
0000
,
0000
0000
0000
0000
,
1000
0000
0000
0000
,
0000
0000
0001
0000
,
0000
0110
0000
0000
,
0010
0000
0000
0100
,
0000
0000
0010
0000
,
0000
1000
0001
0100
,
0011
0001
0001
0000
,
1000
1000
0000
0001
,
0001
0000
0100
0100
,
0000
0010
0010
0000
,
1000
1000
0000
0001
,
1000
0001
0100
0001
,
0010
0000
0001
0010
0001
0000
0011
0000
,
0000
0000
0000
0000
1000
0000
0100
1000
,
0100
1100
0000
0000
,
1000
0000
0001
1000
0001
0000
1000
0000
,
1000
0100
1000
0000
1000
0000
0001
0000
,
0100
0000
0010
0100
0010
0000
0100
0000
,
0010
0000
0010
1000
0001
0000
1001
0000
,
0000
0000
0000
0000
1000
0000
0001
0100
,
0001
0011
0000
0001
,
1000
0000
1000
0100
1000
0000
0100
0000
,
0100
1000
0100
0000
0010
0000
0001
0000
,
1000
0000
0001
1000
0100
0001
0010
0100
,
1000
0000
0000
1100
,
0000
0000
0011
0000
,
0000
0001
0000
0000
,
0100
0000
0000
0010
,
0100
0010
1000
0001
,
1000
0001
0100
0001
,
0100
0000
0000
1010
,
0000
0000
0001
0000
,
0000
1100
0000
0000
,
0001
0000
1000
0001
1000
0000
1000
0000
,
0100
1000
0100
0000
0001
0000
0010
0001
,
0010
0000
0100
0000
0001
0100
0001
0000
,
1000
0000
0001
1000
0001
0000
1000
0000
,
0100
1000
0100
0000
1000
0000
0001
0000
,
0100
0000
0010
0000
0100
0010
1000
0001
,
0010
0000
1000
0100
,
0000
0001
0100
0000
,
0001
0100
0100
0010
,
1010
1000
0100
1100
,
1000
0100
1100
1000
,
0100
0110
0001
0001
,
0101
0000
0010
0110
,
0000
1000
1001
0000
,
1000
1100
0000
0000
,
1000
0001
0100
0001
,
0100
0001
0010
0001
,
0100
0010
0100
0010
,
1000
0000
0001
1000
0100
0000
1000
0000
,
0001
0100
0000
0000
,
0000
0000
0000
0000
,
0000
0000
1000
0000
,
0001
0000
0000
0000
,
0001
0000
1000
0000
,
0000
0000
1000
0000
,
0100
0000
0000
0000
,
0100
0000
1000
0000
,
0001
0000
0100
0000
,
0001
0000
0010
0000
,
0001
0000
0100
0000
,
0010
0000
0010
0000
,
0010
0000
0010
0000
,
0000
0000
0100
0000
,
0000
0000
0010
1000
,
0010
1000
0000
0000
,
0001
0100
0001
0100
,
0000
0000
0001
0010
,
0001
0010
0000
0000
,
1000
0100
1000
0100
,
1000
0001
1000
0100
,
0010
0001
0010
0000
,
1001
0000
1001
0000
,
0110
0010
0100
0001
,
1000
0010
1000
0000
,
0101
0000
1100
0000
,
0001
0000
0000
1000
,
0000
0000
0000
0000
,
0000
0000
0000
0000
,
0000
0100
1000
0000
,
0001
0010
0000
0001
,
0100
0000
0100
0010
,
0100
0001
1000
0001
,
0000
1000
0100
0010
,
0001
0010
0000
0001
,
0100
0001
0100
0010
,
0000
0100
0010
0000
,
0010
1000
0000
0001
,
1001
0000
0000
1000
,
0100
0010
0001
0100
,
0010
1000
0001
0100
,
0010
0000
1000
0000
0001
1000
0001
0000
,
0000
1000
0000
0000
,
0000
0000
0000
1100
,
0000
0000
0110
0000
1000
0100
1000
0000
,
0100
1000
0010
0000
0100
0000
0010
0000
,
1000
0000
0001
0000
1000
0001
1000
0000
,
0001
0010
0001
0100
,
0010
1000
0001
0010
,
0001
0100
0010
1000
,
0001
0100
0001
0100
0001
0100
0010
0000
,
0100
0010
0100
0000
0010
0000
1000
0000
,
0001
0000
0010
0000
0100
1000
0100
0000
,
1000
0001
0100
0001
,
0010
0001
0010
0000
1000
0000
0100
1000
,
0100
1000
0001
0010
,
0001
0100
0010
0101
,
0000
0000
0110
0000
,
0000
1100
0000
0000
,
0001
1000
0001
1000
0001
1000
0001
0000
,
0000
0000
1100
0000
,
0000
0011
0000
0000
,
0001
0010
0100
1000
0100
0000
1001
0000
,
0000
0000
1100
0000
,
0000
0011
0000
0000
,
1000
0100
0010
0001
0100
0000
0010
0000
,
0100
0010
0100
0010
,
1000
0010
1000
0010
,
0100
0010
1000
0001
,
0000
0000
1001
0000
,
0000
1100
0000
0000
,
0011
0000
0000
0001
,
0100
0001
0100
0000
0001
0000
0100
0001
,
0100
0000
0001
0000
0100
0001
0100
0000
,
1000
0000
0001
0100
0010
0000
1000
0000
,
0100
1000
0100
0000
1000
0000
1000
0100
,
1000
0000
0100
0000
0100
1000
0100
0000
,
1000
0001
1000
1100
,
0000
0000
0011
0000
,
0000
0101
0000
0000
,
0110
0000
0000
0010
,
0100
0010
1000
0010
,
1000
0001
0000
0001
,
0000
0001
0000
0001
,
0000
1000
0001
0100
,
0100
0000
0010
0010
,
0000
0100
0100
0000
,
0010
0010
0000
1000
,
1000
0000
0001
0001
,
0000
1000
1000
0001
,
0100
0000
0001
0000
0100
0000
0100
0010
,
0100
0000
0010
0000
0010
0100
0010
0000
,
0100
0000
0100
0010
0100
0000
0010
0000
,
1000
0000
0010
0000
0100
0000
0100
0010
,
0100
0000
0010
0000
0010
0100
0010
0000
,
0100
0010
0100
0010
,
1000
0001
0100
0000
0000
0000
1001
0000
,
0000
0000
1100
0000
,
0000
0011
0000
0000
,
0101
0000
1100
1000
,
0100
0110
0010
0001
,
0011
0001
1000
1001
,
1000
0001
0100
0000
0101
0000
0011
0000
,
0101
0000
0001
0010
0100
1000
0001
1000
,
0100
0000
0000
0000
;

//---------------dance-single - ----------------
#NOTES:
     dance-single:
     :
     Easy:
     7:
     0.362,0.551,0.254,0.000,0.000:
0000
0000
0000
0000
,
0000
0000
0000
0000
,
0000
0000
0000
0000
,
1000
0000
0000
0000
,
0000
0000
0001
0000
,
0000
0100
0000
0000
,
0010
0000
0000
0000
,
0000
0000
0010
0000
,
0000
0010
0000
0000
,
0010
0000
0000
0000
,
0000
0000
0000
0000
,
0000
0000
0000
0000
,
0000
0000
0000
0000
,
0000
0000
0000
0000
,
0000
0000
0000
0000
,
1000
0001
1000
0001
,
0000
0000
0001
0100
,
0001
0100
0000
0000
,
0010
1000
0010
1000
,
0010
1000
0010
0100
,
0010
0010
0000
0000
,
0010
1000
0001
1000
,
0000
0000
0001
1000
,
0100
1000
0000
0000
,
1000
0100
1000
0100
,
1000
0100
1000
0010
,
1000
0001
0100
0001
,
1000
0000
0000
0001
,
0000
0000
1000
0000
,
0000
1000
0000
0000
,
0100
0000
0000
1000
,
0000
0000
0001
0000
,
0000
0100
0000
0000
,
0110
0000
0000
0010
,
0000
0000
0100
0000
,
0000
0010
0000
0000
,
0100
0000
0000
0110
,
0000
0000
1001
0000
,
0000
1100
0000
0000
,
0011
0000
0000
0101
,
0000
0000
0110
0000
,
0000
0010
0000
0000
,
0100
0000
0000
0000
,
0000
0000
0000
0000
,
0000
0000
0000
0000
,
1000
0001
0100
0001
,
0100
0001
0100
0001
,
0010
0001
0000
0000
,
0011
0000
0000
1100
,
0000
0000
0110
0000
,
0000
1001
0000
0000
,
1000
0001
0100
0001
,
0100
0001
0100
0001
,
0010
0001
0010
0001
,
0100
0000
0010
0100
,
0010
1000
0000
0000
,
0000
0000
0000
0000
,
1000
0000
0000
0000
,
0000
0000
1000
0000
,
0000
0000
0000
0000
,
0001
0000
0000
0000
,
0000
0000
0001
0000
,
0000
0000
0000
0000
,
0100
0000
0010
0000
,
0100
0000
0010
0000
,
0010
0000
0010
0000
,
0100
0000
0010
1000
,
0010
1000
0010
0000
,
0000
0000
1000
0000
,
0000
0000
0001
0000
,
0001
0000
0000
0000
,
1000
0000
1000
0000
,
0000
0000
0100
0000
,
0100
0000
0000
0000
,
0010
0000
0010
0000
,
0001
0000
0010
0000
,
0001
0000
0100
0000
,
0100
0000
0100
0000
,
0100
0000
0010
0000
,
1000
0000
1010
0000
,
0101
0000
1001
0000
,
0000
0000
0000
0000
,
0000
0000
0000
0000
,
0000
0000
0000
0000
,
0000
1000
0000
0000
,
0000
0001
0000
0000
,
0100
0000
0000
0010
,
0100
0010
0100
0010
,
0000
0000
0010
0000
,
0000
0010
0000
0000
,
1000
0000
0000
0001
,
0000
0000
0100
0000
,
0000
0010
0000
0000
,
0100
0000
0000
0010
,
0000
0000
0100
0000
,
0000
0010
0000
0000
,
1000
0000
0000
0000
,
0000
0000
0000
0000
,
0000
0000
0000
0000
,
0000
0000
0000
0001
,
1000
0001
0100
0000
,
0000
0001
1000
0001
,
1000
0000
0000
0001
,
0100
0001
0100
0010
,
0100
0010
0100
0010
,
0100
0000
0000
0010
,
1000
0010
0100
0000
,
0000
0010
1000
0100
,
1000
0000
0000
0001
,
0000
0000
1000
0000
,
0000
0001
0100
0010
,
0100
0100
0100
0110
,
0000
0000
0010
0000
,
0000
0110
0000
0000
,
0000
0000
0000
1001
,
0000
0000
1100
0000
,
0000
0011
0000
0000
,
0001
0100
0010
0110
,
0000
0000
0110
0000
,
0000
0110
0000
0000
,
0010
0100
0010
0000
,
0010
0000
1000
0000
,
0000
0001
0000
0000
,
0100
0000
0000
0010
,
0100
0010
1000
0010
,
0100
0010
1000
0001
,
1000
0001
0100
0101
,
0000
0000
1100
0000
,
0000
0011
0000
0000
,
0001
0100
0010
0110
,
0000
0000
0110
0000
,
0000
0110
0000
0000
,
0010
1000
0001
1000
,
0000
0000
0001
0000
,
0000
0100
0000
0000
,
0001
0000
0000
0100
,
0000
0000
0001
0000
,
0000
1001
0000
0000
,
0000
0000
0000
0000
,
0000
0000
0000
1000
,
0100
0000
1000
0100
,
0000
1000
0100
0000
,
1000
0100
0000
0001
,
0010
0000
0001
0010
,
0000
0001
0010
0001
,
0000
0000
0100
0001
,
0100
0010
0100
0010
,
0100
0010
0100
0010
,
1000
0010
1000
0001
,
1000
0001
0100
0001
,
0100
0010
0001
0010
,
0001
0010
0000
0001
,
0000
0000
0001
0000
,
0000
1000
0000
0000
,
1000
0000
1001
0000
,
0000
0110
0000
0000
,
1100
0000
0000
0011
,
1000
0100
0001
0010
,
0100
0000
0001
1000
0001
1000
0001
1000
,
0001
0000
0000
0000
;

//---------------dance-single - ----------------
#NOTES:
     dance-single:
     :
     Beginner:
     4:
     0.196,0.490,0.216,0.000,0.000:
0000
0000
0000
0000
,
0000
0000
0000
0000
,
0000
0000
0000
0000
,
0010
0000
0000
0000
,
0000
0000
0000
0000
,
0000
0000
0000
0000
,
1000
0000
0000
0000
,
0000
0000
0000
0000
,
0000
0000
0001
0001
,
0001
0000
0000
0000
,
0000
0000
0000
0000
,
0000
0000
0000
0000
,
0000
0000
0000
0000
,
0000
0000
0000
0000
,
0000
0000
0000
0000
,
0010
0000
0000
0000
,
0000
0000
0100
0000
,
0000
0000
0000
0000
,
0010
0000
0000
0010
,
0000
0000
1000
0000
,
0000
0001
0000
0000
,
1000
0000
0000
0000
,
0000
0000
1000
0000
,
0000
0000
0000
0000
,
0001
0000
0000
0001
,
0000
0000
1000
0000
,
0000
0001
0000
0000
,
0100
0000
0000
0000
,
0000
0000
0100
0000
,
0000
0000
0000
0000
,
0010
0000
0000
0010
,
0000
0000
0010
0000
,
0000
0100
0000
0000
,
0110
0000
0000
0000
,
0000
0000
0010
0000
,
0000
0000
0000
0000
,
1000
0000
0000
1000
,
0000
0000
1000
0000
,
0000
1000
0000
0000
,
0001
0000
0000
0001
,
0000
0000
0001
0000
,
0000
0001
0000
0000
,
1001
0000
0000
0000
,
0000
0000
0000
0000
,
0000
0000
0000
0000
,
0010
0000
0000
0100
,
0000
0000
0010
0000
,
0000
0000
0000
0000
,
1000
0000
0000
1000
,
0000
0000
0001
0000
,
0000
0001
0000
0000
,
1000
0000
0000
0001
,
0000
0000
0100
0000
,
0000
0010
0000
0000
,
1000
0000
0000
0000
,
0000
0000
0000
0000
,
0000
0000
0000
0000
,
0000
0000
0000
0000
,
0000
0000
0000
0000
,
0000
0000
0000
0000
,
0000
0000
0000
0000
,
0000
0000
0000
0000
,
0000
0000
0000
0000
,
0000
0000
0000
0000
,
0000
0000
0000
0000
,
0000
0000
0000
0000
,
0000
0000
0000
0000
,
0000
0000
0000
0000
,
0000
0000
0000
0000
,
0010
0000
0000
0000
,
0000
0000
0010
0000
,
0000
0000
0000
0000
,
0010
0000
0000
0000
,
0000
0000
1000
0000
,
0000
0000
0000
0000
,
0001
0000
0000
0000
,
0000
0000
1000
0000
,
1000
0000
1000
0000
,
1000
0000
1000
0000
,
1000
0000
0001
0000
,
1000
0000
1001
0000
,
0000
0000
0000
0000
,
0000
0000
0000
0000
,
0000
0000
0000
0000
,
0000
0000
0010
0000
,
0000
0000
0000
0000
,
0000
0000
0000
0000
,
0000
0000
0010
0000
,
0000
0000
0000
0000
,
0000
1000
0000
0000
,
0000
0000
0000
0001
,
0000
0000
0001
0000
,
0000
0001
0000
0000
,
1000
0000
0000
1001
,
0000
0000
0010
0000
,
0000
1001
0000
0000
,
0000
0000
0000
0000
,
0000
0000
0000
0000
,
0000
0000
0000
0000
,
0000
0000
0000
1000
,
0000
0000
0000
0000
,
0000
0001
0000
0000
,
0000
0000
0000
0100
,
0000
0000
0010
0000
,
0000
1000
0000
0000
,
0001
0000
0000
1000
,
0000
0000
0000
0000
,
0000
0001
0000
0000
,
0000
0000
0000
1000
,
0000
0000
0010
0000
,
0000
0100
0000
0000
,
0010
0000
0000
1001
,
0000
0000
0001
0000
,
0000
1001
0000
0000
,
0000
0000
0000
0110
,
0000
0000
0110
0000
,
0000
0110
0000
0000
,
0010
0000
0000
1001
,
0000
0000
1001
0000
,
0000
1001
0000
0000
,
1001
0000
0000
0001
,
0000
0000
1000
0000
,
0000
0001
0000
0000
,
0100
0000
0000
0110
,
0000
0000
0010
0000
,
0000
0010
0000
0000
,
0000
0000
0000
1001
,
0000
0000
1001
0000
,
0000
1001
0000
0000
,
0010
0000
0000
0110
,
0000
0000
0110
0000
,
0000
0110
0000
0000
,
0010
0000
0000
1001
,
0000
0000
1000
0000
,
0000
1000
0000
0000
,
0001
0000
0000
0001
,
0000
0000
0000
1000
,
0001
1000
0000
0000
,
0000
0000
0000
0000
,
0000
0000
0010
0000
,
0000
0010
0000
0000
,
0010
0000
0000
0010
,
0000
0000
1000
0000
,
0000
0001
0000
0000
,
1000
0000
0000
0001
,
1000
0001
1000
0000
,
0000
1000
0000
0000
,
1000
0000
0000
0001
,
0000
0000
0100
0000
,
0000
0100
0000
0000
,
0010
0000
0000
0010
,
0000
0000
0000
0110
,
0000
0000
0010
0000
,
0000
1001
0000
0000
,
0100
0000
1001
0000
,
0000
0110
0000
0000
,
0110
0000
0000
1001
,
0000
0010
0100
0010
,
0100
0010
1000
0001
,
0100
0000
0000
0000
;
