#TITLE:Vox Up;
#SUBTITLE:;
#ARTIST:Sampling Masters MEGA vs. SEIRYU;
#TITLETRANSLIT:;
#SUBTITLETRANSLIT:;
#ARTISTTRANSLIT:;
#CREDIT:;
#BANNER:bn.PNG;
#BACKGROUND:bg.png;
#LYRICSPATH:;
#CDTITLE:;
#MUSIC:Vox Up.ogg;
#OFFSET:0.000;
#SAMPLESTART:28.520;
#SAMPLELENGTH:12.000;
#SELECTABLE:YES;
#BPMS:0.000=202.001,200.000=101.000,236.000=202.001;
#STOPS:236.000=0.149
,236.500=0.297
,237.000=0.149
,237.500=0.149
,238.500=0.149
,239.000=0.149
,239.500=0.149
;
#BGCHANGES:;

//---------------dance-single - ----------------
#NOTES:
     dance-single:
     :
     Hard:
     10:
     0.783,1.000,0.456,0.056,0.252:
0000
0000
0000
0000
,
0000
0000
0000
0000
,
0000
0000
0000
0000
,
0000
0000
0000
0000
,
1000
0001
0010
0100
1000
0001
0100
0001
,
0100
0100
0010
0010
1000
1000
0001
0001
,
1000
0001
0100
0010
0100
0001
0010
0100
,
1000
1000
0100
0100
0010
0010
0001
0001
,
1000
0100
0001
0100
0001
1000
0010
1000
,
0001
0010
0100
1000
0100
0010
0001
0100
,
1000
0010
0001
0010
0100
1000
0001
1000
,
0100
1000
0100
0000
0001
0010
1001
0000
,
0001
0001
0001
0000
0001
0100
0001
0100
,
0001
0100
0001
0000
0010
0010
0010
0000
,
0010
1000
0010
0000
0001
1000
0001
1000
,
0001
0100
0001
0000
0010
0010
1000
1000
,
0001
1000
0001
0000
1000
0001
0100
0001
,
0100
0001
0100
0000
0010
1000
0001
1000
,
0010
0001
0010
0100
1000
0100
0010
0001
,
0010
1000
0001
0100
0010
1000
0001
1000
,
1001
0000
0000
0110
0000
0000
1000
1000
,
0000
0011
0000
0110
0000
0000
1001
0000
,
1010
0000
0000
1100
0000
0000
0010
0010
,
0000
0011
0000
1100
0000
0010
0010
0010
,
0100
0010
0100
0010
0000
0010
0000
0010
,
1000
0001
1000
0010
0000
0001
0000
0001
,
0100
1000
0100
0001
0000
1001
0000
1001
,
0000
1001
0000
0110
0000
1000
0200
0000
,
1300
0100
0010
0001
0000
0011
0000
1100
,
1000
0100
0010
0001
0000
0001
0000
0001
,
1000
0001
1000
0001
0000
0110
0000
1100
,
0101
0000
0101
0000
1100
1000
0001
0010
,
0100
0010
1000
0001
0100
0000
0001
0000
,
1000
0000
0100
0000
0001
0100
0001
0000
,
0001
0010
0100
1000
0001
0100
0010
1000
,
0001
0000
1000
0000
1000
0100
1000
0000
,
0010
1000
0001
1000
0010
0100
0001
0000
,
0001
0000
0100
0000
1000
0100
0001
1000
,
0010
1000
0001
0100
,
0001
0100
1000
0100
0010
0001
0010
1000
,
0001
0000
0000
1000
1000
0000
0001
0100
,
0000
0110
0000
0110
0000
0110
0000
0100
,
1000
0000
0000
0001
0100
0010
0001
1000
,
0000
0011
0000
0110
0000
1100
0000
0001
,
1000
0010
0000
0001
1000
0010
1000
0001
,
0000
1001
0000
1100
0000
1100
0000
0100
,
1000
0100
0000
1000
0100
0000
0010
0100
,
0000
0101
0000
1100
0000
0110
0000
1001
,
0000
1100
0000
0011
0000
0110
0000
1010
,
0000
0011
0000
1100
0000
0110
0000
0010
,
0001
0000
1000
0000
0001
0100
0000
0010
0000
0100
0000
0010
0100
0000
0010
0000
,
1000
0000
0001
0000
0100
0001
0000
0010
0000
1000
0000
0001
1000
0000
0001
0000
,
1000
0000
0100
0000
0010
0001
0000
0010
0000
0100
0000
0001
0100
0000
0010
0000
,
1000
0000
0001
0000
0100
0001
0000
0100
0000
0010
0000
0100
0010
0000
0100
0000
,
2002
0000
0000
0000
0000
3003
0000
0001
0000
1000
0000
0001
1000
0000
0001
0000
,
0100
0000
0010
0000
1000
0100
0000
0010
0000
0001
0000
0010
0100
0000
0001
0000
,
1000
0000
0001
0000
0100
0010
0000
1000
0000
0100
0000
0010
0001
0000
0010
0000
,
0100
0010
0000
0010
1000
0010
0000
0001
0100
0001
0000
1000
0100
1000
0000
0010
,
1000
0010
0000
0001
0100
0001
0000
1000
0100
0010
0001
0010
1000
0001
0100
1000
,
1001
1100
1001
0011
1001
1001
1100
0011
,
0001
0010
0100
0001
1000
0010
0100
0010
,
1001
0000
1001
0000
1000
0001
1001
0000
,
0001
0100
0001
1000
0010
1000
0010
0100
,
1100
0000
0011
0000
0001
0010
0011
0000
,
0001
0010
1000
0001
1000
0010
1000
0001
,
0100
0001
0100
0001
0100
0001
0100
0001
0200
0000
0000
0000
0302
0000
0000
0000
,
1003
0100
0010
0001
0010
0100
0001
1000
,
0001
0000
0000
0000
,
0001
1000
0001
1000
0010
1000
0001
0100
,
0002
1003
0200
1300
,
0010
1000
0000
1000
0100
0010
0001
0010
,
1000
0001
0000
0010
0100
0010
1000
0010
,
0100
0000
0010
0100
0010
0100
0000
0000
,
0001
1000
0100
0011
,
0001
1000
0010
1000
0001
0010
0100
1000
,
0010
0001
0010
0100
0001
1000
0010
1000
,
0001
0100
1000
0100
0010
0001
0010
0100
,
0001
1000
0010
1000
0010
1000
0001
0010
,
0100
1000
0100
0010
0001
0010
0100
0001
,
0100
0010
1000
0010
1000
0001
1000
0010
,
0001
0010
0100
1000
0100
0010
0001
0010
,
0100
0001
1000
0001
1000
0010
1000
0001
,
0100
0001
1000
0010
1000
0001
1000
0001
,
0100
0010
0001
0010
0100
1000
0100
0010
,
0001
0010
1000
0001
1000
0010
1000
0010
,
0100
0001
0100
0010
0001
0010
0100
1000
,
0100
0010
0001
1000
0010
1000
0010
1000
,
0001
0100
0010
0001
0010
0100
1000
0100
,
0001
1000
0010
1000
0001
0100
0010
0001
,
0010
1000
0100
0010
0001
1000
0010
1000
,
0001
1000
0001
1000
0001
1000
0001
1000
0001
1000
0001
1000
0001
1000
0001
1000
,
0001
1000
0001
1000
0001
1000
0001
1000
0001
1000
0001
1000
0001
1000
0001
1000
,
0001
0000
0000
0000
;

//---------------dance-single - ----------------
#NOTES:
     dance-single:
     :
     Medium:
     7:
     0.571,0.663,0.304,0.056,0.000:
0000
0000
0000
0000
,
0000
0000
0000
0000
,
0000
0000
0000
0000
,
0000
0000
0000
0000
,
0001
1000
0010
1000
0001
1000
0010
1000
,
0001
0001
1000
1000
,
0010
0100
0010
1000
0010
1000
0001
1000
,
0001
0001
1000
1000
,
0010
0100
0010
1000
0010
1000
0010
1000
,
0001
0100
0001
0100
0001
0100
0001
1000
,
0001
1000
0010
0000
0010
0100
0010
1000
,
0001
0100
1000
1100
,
1000
0100
1000
0000
0010
0000
0100
0000
,
0001
0100
0001
0000
0001
1000
0001
0000
,
0010
0100
0010
0000
1000
0000
0100
0000
,
0010
0100
0010
0000
0001
1000
0001
1000
,
0001
1000
0001
0000
0010
0000
0010
0000
,
0010
0100
0010
0000
1000
0100
1000
0000
,
1000
1000
0001
0100
,
0010
0100
0001
0000
0010
1000
0010
0000
,
1001
0000
0000
1100
0000
0010
0100
0000
,
0000
0110
0000
0000
0000
0010
0100
0010
,
0100
0000
1000
0100
0000
0000
0010
0001
,
0000
0010
0000
0100
0000
0001
1000
0000
,
1000
0100
1000
0100
0000
0010
0000
0010
,
0100
0010
0100
0010
0000
0001
0000
0001
,
1000
0001
1000
0001
0000
1000
0000
0001
,
0000
0100
0000
0010
0000
1000
0002
0000
,
0103
0010
0100
0010
0000
0010
0000
0010
,
1000
0010
1000
0010
0000
0001
0000
0001
,
0100
0001
0100
0001
0000
1000
0000
0001
,
1000
0001
0100
0010
,
1000
0001
0100
0010
1000
0001
0100
0000
,
0000
0000
0000
0000
,
0001
0010
0100
1000
0001
0100
0010
1000
,
0000
0000
0000
0000
,
0001
1000
0010
0100
1000
0100
0010
0001
,
0000
0000
0000
0000
,
0001
0100
0010
1000
0001
0100
0010
1000
,
0000
0000
0000
0000
,
1000
0000
0000
0100
1000
0000
0100
1000
,
0000
0100
0000
0010
0000
0001
0000
0010
,
0001
0000
0000
0010
0100
0000
0010
0100
,
0000
1000
0000
0001
0000
0100
0000
0010
,
1000
0000
0001
0100
0001
0000
0010
1000
,
0000
0001
0000
0100
0000
1000
0000
0100
,
1000
0100
0000
1000
0100
0000
0010
0001
,
0000
0011
0000
1100
0000
0110
0000
1001
,
0000
1100
0000
0011
0000
0110
0000
1100
,
0000
0011
0000
0110
0000
1010
0000
0001
,
1000
0000
0001
0000
0100
0000
0010
1000
,
0001
0000
0100
0000
1000
0000
0010
0100
,
0002
0000
1003
0000
0001
0000
0010
0100
,
0010
0000
1000
0000
0001
0000
0100
0001
,
2002
3003
0001
0000
0100
0000
1000
0100
,
1000
0000
0010
0000
0100
0000
0001
1000
,
0010
0101
0010
1100
,
0010
0101
0010
1100
,
1001
1100
0011
0110
,
1001
0001
1000
0001
1000
0001
1000
0001
,
1000
0100
0010
0001
,
0011
1100
0110
1001
,
0001
1000
0010
0100
,
0101
1100
0101
1100
,
0001
0000
1000
0000
,
0001
0100
0010
1000
0001
1000
0010
1000
,
0001
0000
0100
0000
1000
0100
1000
0100
,
0000
0000
0000
0000
,
0001
0000
0100
0000
0010
0100
0010
0100
,
0000
0000
0000
0000
,
0001
0000
1000
0000
0100
1000
0100
1000
,
0010
0000
0100
0000
0001
0100
0001
0000
,
0002
0000
2003
0000
,
3020
0100
0130
0110
,
0001
1000
0001
1000
0010
1000
0001
1000
,
0010
0000
1000
0000
0100
1000
0100
0000
,
0010
1000
0010
0000
0001
0100
0001
0100
,
0001
0100
0001
0000
0001
1000
0001
1000
,
0010
1000
0001
0100
0010
0001
0010
0100
,
1000
0100
0010
0000
0001
1000
1010
0000
,
0001
0100
0010
0000
0001
1000
0001
1000
,
0001
1000
0001
0000
0010
1000
0010
1000
,
0100
0000
1000
0100
1000
0000
0100
1000
,
0000
0100
1000
0100
0000
1000
0100
0010
,
0001
0000
0010
0100
0001
0100
0010
0000
,
0100
0000
0001
1000
0000
0010
1000
0001
,
1000
0000
0001
1000
0001
0000
0010
1000
,
0000
0001
0000
0100
0000
1000
0000
0100
,
1000
0100
0000
0010
0000
0001
0100
0010
,
0000
1001
0000
1100
0000
0110
0000
0010
,
0001
0010
0100
1000
0100
0001
0010
0001
,
0010
0100
1000
0100
0010
1000
0001
1000
,
0100
0000
0000
0000
;

//---------------dance-single - ----------------
#NOTES:
     dance-single:
     :
     Easy:
     6:
     0.440,0.663,0.344,0.272,0.000:
0000
0000
0000
0000
,
0000
0000
0000
0000
,
0000
0000
0000
0000
,
0000
0000
0000
0000
,
0001
1000
0100
0010
,
0011
0011
0011
0011
,
0001
0100
1000
0010
,
1010
1010
1010
1010
,
0001
1000
0001
1000
,
1001
0110
1001
0110
,
1000
0100
0010
0001
,
0010
0100
1000
0000
,
0001
1000
0001
0100
,
0010
0100
0010
0001
,
1000
0001
0100
0010
,
1000
0000
0010
0000
0001
0100
0001
0100
,
0001
1000
0001
0010
,
0100
1000
0100
0010
,
0001
0001
1000
1000
,
0010
0100
0010
1000
,
1001
0000
0000
1100
0000
0000
0010
0000
,
0000
0001
0000
0000
0000
0000
0100
0000
,
1100
0000
0000
0011
0000
0000
0010
0100
,
0000
0010
0000
0000
0000
0000
0010
0000
,
1000
0000
0000
0000
0000
0100
0000
1000
,
0100
0000
0000
0000
0000
0010
0000
0010
,
0100
0000
0000
0010
0000
0010
0000
0100
,
0000
0010
0000
1000
0000
0001
2000
0000
,
3001
0000
0100
0010
0000
0010
0000
0010
,
0001
0000
0010
0001
0000
0010
0000
0100
,
1000
0000
0100
1000
0000
0100
0000
1000
,
0100
1000
0100
0010
,
0001
1000
1001
0000
,
0000
0000
0000
0000
0001
1000
0010
1000
,
0001
0100
1100
0000
,
0000
0000
0000
0000
1000
0001
1000
0010
,
1000
0001
0101
0000
,
0000
0000
0000
0000
0001
1000
0010
1000
,
0001
0100
1000
0000
,
2000
3200
0320
0032
,
1003
0000
0000
0000
0001
0000
0000
0100
,
0000
1000
0000
0100
0000
0010
0000
0000
,
0001
0000
0000
0000
0100
0000
0000
0010
,
0000
0100
0000
0010
0000
0100
0000
0010
,
1000
0000
0000
0000
0001
0000
0000
1000
,
0000
0100
0000
1000
0000
0100
0000
1000
,
0100
0000
0000
0000
0010
0000
0000
0001
,
0000
0100
0000
0100
0000
0100
0000
0100
,
0000
0100
0000
0100
0000
0100
0000
0100
,
0000
0100
0000
0100
0000
0100
0000
0200
,
0020
0000
0000
0330
,
1002
0000
0000
0000
,
2000
0000
0000
0003
,
3020
0000
0000
0000
,
0200
0000
0000
0030
,
2000
0000
0000
3000
,
0300
0011
0000
1100
,
0000
0101
0000
1010
,
0001
0000
0001
0000
1000
1000
0001
0100
,
2002
0000
0000
0000
0000
0000
0000
3003
,
0001
1000
0001
0100
,
0101
1100
0101
1100
,
0010
1000
0001
0100
,
1010
0011
1100
0011
,
0001
0000
1000
0000
,
0220
0000
0000
0330
,
0001
1000
0001
0100
,
0000
0000
0000
0000
,
0001
0010
0100
1000
,
0000
0000
0000
0000
,
0001
1000
0100
0001
,
1000
0100
0001
1000
,
0002
0000
2003
0000
,
3002
0000
0000
0003
0200
0000
0000
0000
,
0301
1000
0001
0100
,
0001
0100
0001
0000
0010
1000
0010
0000
,
0001
1000
0001
0000
1000
0000
1000
0000
,
0100
1000
0100
0000
0010
0001
0010
0000
,
0010
0100
0001
1000
0010
0100
0001
1000
,
0010
0100
0001
0000
0001
1000
0001
0000
,
1000
1000
0001
0001
,
0100
0100
0010
0010
,
2000
3100
0020
0031
,
0200
0310
0002
1003
,
0002
0103
0020
1030
,
0200
1300
0020
0031
,
0200
0000
0320
0000
,
2030
0000
3002
0000
,
1003
0001
0000
0100
0000
1000
0000
0100
,
0000
0010
0000
0001
0000
0100
0000
0011
,
0000
1100
0000
0110
0000
1001
0000
1100
,
0000
0011
0000
1100
0000
0110
0000
2002
,
3003
0000
0000
0000
;

//---------------dance-single - ----------------
#NOTES:
     dance-single:
     :
     Beginner:
     3:
     0.152,0.331,0.096,0.000,0.000: // measure 1
0000
0000
0000
0000
,  // measure 2
0000
0000
0000
0000
,  // measure 3
0000
0000
0000
0000
,  // measure 4
0000
0000
0000
0000
,  // measure 5
1000
0000
0000
0000
,  // measure 6
0000
0000
0000
0000
,  // measure 7
0001
0000
0000
0000
,  // measure 8
0000
0000
0000
0000
,  // measure 9
0010
0000
0000
0000
,  // measure 10
0010
0000
0000
0000
,  // measure 11
0010
0000
0010
0000
,  // measure 12
0010
0000
0100
0000
,  // measure 13
1000
0000
0000
0000
,  // measure 14
1000
0000
1000
0000
,  // measure 15
1000
0000
0000
0000
,  // measure 16
0001
0000
0001
0001
,  // measure 17
0001
0000
0000
0000
,  // measure 18
0100
0000
0000
0000
,  // measure 19
0100
0000
0100
0000
,  // measure 20
0100
0000
0100
0000
,  // measure 21
0110
0000
0000
0000
,  // measure 22
0000
0000
0000
0000
,  // measure 23
1001
0000
0000
0000
,  // measure 24
0000
0000
0000
0000
,  // measure 25
0001
0000
0000
0000
,  // measure 26
1000
0000
0000
0000
,  // measure 27
0001
0000
0000
0000
,  // measure 28
0000
0000
0000
0100
,  // measure 29
0100
0000
0000
0000
,  // measure 30
0010
0000
0000
0000
,  // measure 31
0100
0000
0000
0000
,  // measure 32
1000
0000
0000
0000
,  // measure 33
0001
0001
0001
0000
,  // measure 34
0000
0000
0000
0000
,  // measure 35
1000
1000
1000
0000
,  // measure 36
0000
0000
0000
0000
,  // measure 37
0010
0010
0010
0000
,  // measure 38
0000
0000
0000
0000
,  // measure 39
0100
0100
0100
0000
,  // measure 40
0010
0000
0000
0000
,  // measure 41
1001
0000
0000
0000
,  // measure 42
0000
0000
0000
0000
,  // measure 43
0110
0000
0000
0000
,  // measure 44
0000
0000
0000
0000
,  // measure 45
0110
0000
0000
0000
,  // measure 46
0000
0000
0000
0000
,  // measure 47
1001
0000
0000
0000
,  // measure 48
0000
0000
0000
0000
,  // measure 49
0000
0000
0000
0000
,  // measure 50
0000
0000
0000
0000
,  // measure 51
1001
0000
0000
0000
,  // measure 52
0000
0000
0000
0000
,  // measure 53
1000
0000
0000
0000
,  // measure 54
0000
0000
0000
0000
,  // measure 55
0110
0000
0000
0000
,  // measure 56
0000
0000
0000
0000
,  // measure 57
0000
0001
0000
0001
,  // measure 58
0000
1000
0000
1000
,  // measure 59
1000
1000
0001
0100
,  // measure 60
0110
0000
0000
0000
,  // measure 61
1000
0000
0000
0000
,  // measure 62
0001
0001
0001
0001
,  // measure 63
0001
0000
0000
0000
,  // measure 64
0100
0100
0100
0100
,  // measure 65
0010
0000
0000
0000
,  // measure 66
0001
0000
0000
0000
,  // measure 67
1000
0000
0000
0000
,  // measure 68
0000
0000
0000
0000
,  // measure 69
0001
0000
0000
0000
,  // measure 70
0000
0000
0000
0000
,  // measure 71
0100
0000
0000
0000
,  // measure 72
0100
0000
0000
0000
,  // measure 73
0010
0000
0010
0000
,  // measure 74
0001
1000
0001
1001
,  // measure 75
1000
0000
1000
0000
,  // measure 76
1000
0000
1000
0000
,  // measure 77
0001
0000
0001
0000
,  // measure 78
0001
0000
0001
0000
,  // measure 79
0100
0000
0100
0000
,  // measure 80
0100
0000
0100
0000
,  // measure 81
0010
0000
0010
0000
,  // measure 82
0010
0000
0010
0000
,  // measure 83
1001
0000
0001
0000
,  // measure 84
1000
0000
0001
0000
,  // measure 85
1001
0000
0100
0000
,  // measure 86
0010
0000
0100
0000
,  // measure 87
0010
0000
0000
0000
,  // measure 88
0100
0000
0000
0000
,  // measure 89
1000
0000
0001
0000
,  // measure 90
1000
0000
0001
0000
,  // measure 91
0100
0010
0100
0010
,  // measure 92
0100
0010
0100
0010
,  // measure 93
0100
0000
0000
0000
;
