#TITLE:VANESSA;
#SUBTITLE:;
#ARTIST:SUZAKU;
#TITLETRANSLIT:;
#SUBTITLETRANSLIT:;
#ARTISTTRANSLIT:;
#CREDIT:;
#BANNER:bn.PNG;
#BACKGROUND:bg.PNG;
#LYRICSPATH:;
#CDTITLE:14 Gold.png;
#MUSIC:VANESSA.mp3;
#OFFSET:-0.479;
#SAMPLESTART:34.180;
#SAMPLELENGTH:12.000;
#SELECTABLE:NO;
#DISPLAYBPM:*;
#BPMS:0.000=185.000,28.000=370.000,36.000=185.000,40.000=92.500,42.000=185.000,102.000=370.000,110.000=92.500,142.000=185.000,166.000=370.000,182.000=185.000,186.000=370.000;
#STOPS:;
#BGCHANGES:;

//---------------dance-single - ----------------
#NOTES:
     dance-single:
     :
     Hard:
     11:
     0.775,1.000,0.578,0.075,1.000: // measure 1
0000
0000
0000
0000
,  // measure 2
0000
0000
0000
0000
,  // measure 3
0000
0000
0000
0000
,  // measure 4
0000
0000
0000
0000
,  // measure 5
1000
0000
0000
0110
0000
0000
0101
0000
0000
0110
0000
0010
,  // measure 6
0100
0000
0000
1010
0000
0000
0101
0000
0000
0101
0000
0010
,  // measure 7
0100
1001
1010
0101
,  // measure 8
1000
0000
0100
0000
0010
0000
0001
0000
1000
0000
0010
0000
,  // measure 9
0100
0000
1000
0000
0100
0000
0010
0000
0001
0000
0010
0000
,  // measure 10
0200
0000
0000
0000
,  // measure 11
1300
0000
0001
0100
0000
1000
0100
0000
0001
0010
0000
1000
0100
0000
0000
0000
0010
0000
0100
0000
0000
0000
0010
0000
,  // measure 12
1000
0000
0001
0100
0000
0010
0100
0000
1000
0100
0000
0001
,  // measure 13
0010
0100
0010
1000
0001
0100
0010
0000
0100
1000
0000
0010
,  // measure 14
0100
0000
0010
1000
0000
0001
0100
0000
1000
0100
0000
0001
,  // measure 15
0010
0100
0010
1000
0001
0100
0010
0000
0010
1000
0000
0000
,  // measure 16
0001
0100
0001
0100
0000
0000
0110
0000
0000
1010
0000
0000
,  // measure 17
1000
0100
0010
0001
0000
0000
0010
0100
0010
0100
0000
0000
,  // measure 18
1000
0100
1000
0100
0000
0000
0010
1000
0010
0100
0001
0000
,  // measure 19
1001
0000
0000
1001
0000
0000
0110
0000
0010
1000
0000
0001
,  // measure 20
0100
0000
1000
0100
0000
0010
0001
0000
0010
0100
0000
0010
,  // measure 21
1000
0001
0100
0010
1000
0100
0010
0000
0010
0100
0000
0001
,  // measure 22
1000
0000
0010
1000
0000
0001
0100
0000
1000
0100
0000
0010
,  // measure 23
1000
0001
0100
0010
1000
0100
0010
0000
0001
0100
0000
0010
,  // measure 24
1000
0001
0100
0010
0000
0000
0110
0000
0000
0010
0100
0010
,  // measure 25
1000
0001
0100
0010
0000
0000
0010
1000
0010
1000
0001
0100
,  // measure 26
0010
1000
0001
0100
0010
1000
0001
0000
1000
0000
0010
0000
,  // measure 27
0001
0000
0100
0000
1000
0000
0001
0000
0100
0000
0010
0000
,  // measure 28
1000
0000
0000
0000
0001
0000
0000
0000
0100
0000
0000
0000
1001
0000
0000
0000
0000
0000
0110
0000
0000
0000
0000
0010
,  // measure 29
0100
0000
0000
0000
0000
0000
1100
0000
0000
0110
0000
0000
0011
0000
0000
0000
0000
0001
0100
0000
0000
0000
0000
0000
,  // measure 30
0110
0000
0000
0000
0000
0000
0110
0000
0000
0000
0000
0010
1000
0000
0000
0000
0000
0000
1001
0000
0000
0000
0000
0000
,  // measure 31
1010
0000
0000
0000
0000
0000
0101
0000
0000
0000
0000
1000
0100
0000
0000
0000
0000
0000
0110
0000
0000
0000
0000
0000
,  // measure 32
1010
0000
0000
0000
0000
0000
0101
0000
0000
0000
0000
0000
1001
0000
0000
0000
0000
0010
0100
0000
0000
0000
0000
0000
,  // measure 33
1100
0000
0000
0000
0000
0000
0011
0000
0000
0110
0000
0010
1000
0000
0000
0000
0000
0000
1001
0000
0000
0000
0000
0000
,  // measure 34
1010
0000
0000
0101
0000
0000
0110
0000
0000
1010
0000
0001
1000
0000
0000
0000
0000
0000
1010
0000
0000
0000
0000
0000
,  // measure 35
0101
0000
0000
0000
0000
0000
1100
0000
0000
0000
0000
0010
0100
0000
0000
0000
0000
0000
1100
0000
0000
0000
0000
0000
,  // measure 36
0011
0000
0000
0110
0000
0000
0020
0000
0000
1000
0030
0000
0001
0000
0000
0000
1001
0000
0000
0000
0000
0000
1001
0000
,  // measure 37
0000
0000
1000
0000
0000
0010
1000
0100
0001
0010
0000
1000
,  // measure 38
0000
0000
0000
0001
0000
0100
0010
0000
0001
0000
0000
0010
,  // measure 39
0100
0000
0000
0100
0000
1000
0001
0000
0010
0100
0000
0000
,  // measure 40
2000
0000
0000
3002
0000
0000
1003
0100
1000
0100
1000
0100
,  // measure 41
0001
0010
0001
0010
0001
0100
0001
0100
0001
0100
0001
0100
,  // measure 42
1000
0001
0100
1000
0001
0100
1000
0000
0100
0000
0001
0000
,  // measure 43
0010
0000
0100
0000
1000
0000
0001
0000
0100
0000
1000
0000
,  // measure 44
0001
0000
0100
0000
0010
0000
1000
0000
0001
0000
0010
0000
,  // measure 45
0100
0000
1000
0000
0001
0000
0010
0000
1000
0000
0001
0000
,  // measure 46
0100
0000
0000
0000
0000
0000
0000
0000
0000
0000
0000
0000
0000
0000
0000
0000
0000
0000
0000
0000
0000
0000
0000
0000
0000
0000
0000
0000
0000
0000
0000
0000
1000
0000
0000
0000
0000
0000
0000
0000
0000
0000
0000
0000
0000
0000
0000
0000
0000
0000
0000
0000
0000
0000
0000
0000
0000
0000
0000
0000
0000
0000
0000
0000
0001
0000
0000
0000
0000
0000
0000
0000
0000
0000
0000
0000
0000
0000
0000
0000
0000
0000
0000
0000
0000
0000
0000
0000
0000
0000
0000
0000
0000
0000
0000
0000
0000
0000
0000
0100
0000
0000
0000
0000
0000
0000
0000
0000
0000
0000
0000
0000
0000
0000
0000
0000
1000
0000
0000
0000
0000
0000
0000
0000
0000
0000
0000
0000
0000
0000
0000
0000
0001
0000
0000
0000
0000
0000
0000
0000
0000
0000
0000
0000
0000
0000
0000
0000
0010
0000
0000
0000
0000
0000
0000
0000
0000
0000
0000
0000
0000
0000
0000
0000
1000
0000
0000
0000
0000
0000
0000
0000
0000
0000
0000
0000
0000
0000
0000
0000
0001
0000
0000
0000
0000
0000
0000
0000
0000
0000
0000
0000
,  // measure 47
0000
0100
0000
0000
0000
0010
0000
0000
0000
1000
0000
0000
0000
0001
0000
0000
0000
0100
0000
0000
0000
1000
0000
0000
0001
0000
0000
0000
0000
0000
0000
0000
0000
0000
0000
0000
0000
0000
0000
0000
0010
0000
0000
0000
0000
0000
0000
0000
,  // measure 48
0100
0000
0000
0000
1000
0000
0100
0000
0000
0000
0010
0000
,  // measure 49
0100
0000
0000
0000
0001
0000
0100
0000
0000
0000
1000
0000
,  // measure 50
0100
0000
0000
0000
0010
0000
0100
0000
0001
0000
1000
0000
,  // measure 51
0100
0000
0001
0000
0010
0000
0001
0000
0000
0000
1000
0000
,  // measure 52
0100
0000
0000
0000
0010
0000
0100
0000
0000
0000
0000
0001
,  // measure 53
0100
0000
0000
0000
0010
0000
0001
0000
0000
0000
1000
0000
,  // measure 54
0100
0000
0000
0000
0010
0000
0100
0000
1000
0000
0100
0000
,  // measure 55
0010
0000
0001
0000
0010
0000
0100
0000
0000
0000
1000
0000
,  // measure 56
0100
0000
0001
0000
0010
0000
1000
0000
0001
0000
0100
0000
,  // measure 57
0010
0000
0001
0000
0010
0000
0001
0000
0000
0000
1000
0000
,  // measure 58
0100
0000
0000
0000
0010
0000
0100
0000
0000
0000
1000
0000
,  // measure 59
0100
0000
0110
0000
,  // measure 60
1010
0000
0101
0000
,  // measure 61
1001
0000
0000
0000
0000
0000
0001
0000
0010
0000
0100
0000
,  // measure 62
0010
0000
1000
0000
0001
0000
0100
0000
0010
0000
1000
0000
,  // measure 63
0001
0000
0100
0000
0001
0000
1000
0000
0000
0000
0100
0000
,  // measure 64
0010
0000
0000
0000
0001
0000
0010
0000
0000
0000
0100
0000
,  // measure 65
0010
0000
0000
0000
1000
0000
0010
0000
0000
0000
0001
0000
,  // measure 66
0010
0000
0000
0000
0100
0000
0010
0000
1000
0000
0001
0000
,  // measure 67
0010
0000
1000
0000
0100
0000
1000
0000
0000
0000
0001
0000
,  // measure 68
0010
0000
0000
0000
0100
0000
0010
0000
0000
0000
0000
1000
,  // measure 69
0010
0000
0000
0000
0100
0000
1000
0000
0000
0000
0001
0000
,  // measure 70
0010
0000
0000
0000
0100
0000
0010
0000
0001
0000
0010
0000
,  // measure 71
0100
0000
1000
0000
0100
0000
0010
0000
0000
0000
0001
0000
,  // measure 72
0010
0000
1000
0000
0100
0000
0001
0000
1000
0000
0010
0000
,  // measure 73
0100
0000
1000
0000
0100
0000
1000
0000
0000
0000
0001
0000
,  // measure 74
0010
0000
0000
0000
0100
0000
0010
0000
0000
0000
0001
0000
,  // measure 75
0010
0000
0110
0000
,  // measure 76
0101
0000
1010
0000
,  // measure 77
1001
0000
0000
0000
0000
0000
1000
0000
0100
0000
0010
0000
,  // measure 78
0100
0000
0001
0000
1000
0000
0010
0000
0100
0000
0001
0000
,  // measure 79
1000
0000
0010
0000
1000
0000
0002
0000
0000
0000
0000
0000
,  // measure 80
0000
0000
0000
0000
,  // measure 81
0003
0000
2002
0000
,  // measure 82
0000
0000
0000
0000
,  // measure 83
0000
0000
0000
0000
,  // measure 84
0000
0000
0000
0000
,  // measure 85
0000
0000
0000
0000
,  // measure 86
3003
0000
0000
0000
;

//---------------dance-single - ----------------
#NOTES:
     dance-single:
     :
     Medium:
     9:
     0.665,1.000,1.000,0.128,0.471:
0000
0000
0000
0000
,
0000
0000
0000
0000
,
0000
0000
0000
0000
,
0000
0000
0000
0000
,
1000
0100
0010
0001
,
0100
1000
0010
0100
,
0110
0110
0110
0102
,
1003
0000
0001
0000
1000
0000
0001
0000
1000
0000
0001
0000
,
1000
0000
0001
0000
1000
0000
0001
0000
1000
0000
0001
0000
,
2000
0000
0000
0000
,
0002
0000
0000
0000
0000
3003
0110
0000
0000
1010
0000
0000
,
0110
0101
0110
1001
,
0110
0000
0000
1010
0000
0010
0100
0000
0000
0110
0000
0000
,
1001
1010
0101
1100
,
0011
0000
0001
0100
0000
0010
0100
0000
0000
0110
0000
0000
,
1010
0101
1100
0110
,
0001
1000
0001
1000
0000
0000
0110
0000
0000
1010
0000
0000
,
0101
1100
0010
0100
,
1000
0100
0010
0001
0000
0000
0110
0000
0000
0110
0000
0000
,
1010
0101
1100
0011
,
0001
0100
0001
0100
0000
0000
0101
0000
0000
1010
0000
0000
,
0110
1010
0101
1100
,
0010
1000
0010
1000
0000
0000
1010
0000
0000
0101
0000
0000
,
1000
0100
0010
0001
0000
0000
0110
0000
0000
1001
0000
0000
,
0010
1000
0010
1000
0000
0000
0110
0000
0000
1100
0000
0000
,
0011
0000
0000
0110
0000
0000
1000
0000
0100
0000
0010
0000
,
0001
0000
1000
0000
0100
0000
0010
0000
0001
0000
1000
0000
,
0100
0000
0000
0000
0010
0000
0000
0000
0001
0000
0000
0000
1100
0000
0000
0000
0000
0000
0110
0000
0000
0010
0000
0000
,
0101
0000
0010
1000
1001
0000
0010
0100
,
2100
0000
3010
0100
0101
0000
0011
0000
,
0110
0000
0010
1000
1010
0000
1100
0000
,
0010
0101
0110
1001
,
1010
0000
0001
0100
1100
0000
0110
0000
,
0011
0000
0110
1010
0101
0000
1100
0000
,
0110
0000
0011
0110
1010
0000
1100
0000
,
0011
0000
0000
0020
0000
0000
0230
0000
0000
0301
0000
0000
0001
0000
0000
0000
1001
0000
0000
0000
0000
0000
1001
0000
,
0000
0000
1000
0000
0000
0010
1000
0100
0001
0010
0000
1000
,
0000
0000
0000
0001
0000
0100
0010
0000
0001
0000
0000
0010
,
0100
0000
0000
0100
0000
1000
0001
0000
0010
0100
0000
0000
,
2000
3002
1003
1100
,
0110
1001
0110
1010
,
0101
0000
0001
0100
0000
0000
1001
0000
0000
0000
0000
0000
,
1100
0000
0011
0000
,
1100
0000
0000
0000
0000
0000
1000
0000
0001
0000
0100
0000
,
1000
0000
0001
0000
0010
0000
1000
0000
0100
0000
0001
0000
,
1000
0000
0001
0000
2000
0000
0002
0000
0000
0000
0000
0000
,
0000
3003
0010
0000
,
1000
0000
0100
1000
,
0100
0000
0010
0100
,
0010
0000
0000
0000
0000
0000
0001
0000
0010
0000
0100
0000
,
0001
0000
1000
0000
0001
0000
1000
0000
0000
0000
0000
0000
,
0110
0000
0001
1000
,
1001
0000
1010
0000
,
0101
0000
0000
0000
0000
0000
1000
0000
0100
0000
0001
0000
,
0010
0000
1000
0000
0001
0000
0010
0000
0000
0000
0000
0000
,
0101
0000
1000
0100
,
0010
0000
0011
0000
,
1100
0000
0010
0100
,
0001
0000
1001
0000
,
1001
0000
1001
0000
,
1001
0000
0000
0000
0000
0000
1000
0000
0001
0000
0100
0000
,
1000
0000
0001
0000
0010
0000
1000
0000
0100
0000
0001
0000
,
0010
0000
1000
0000
0001
0000
1000
0000
0000
0000
0000
0000
,
0110
0000
0001
0100
,
0010
0000
1010
0000
,
0101
0000
0000
0000
0000
0000
1000
0000
0001
0000
0100
0000
,
1000
0000
0010
0000
0001
0000
1000
0000
0000
0000
0000
0000
,
1001
0000
0010
1000
,
0001
0000
1100
0000
,
0011
0000
0000
0000
0000
0000
1000
0000
0100
0000
0001
0000
,
0010
0000
1000
0000
0010
0000
1000
0000
0000
0000
0000
0000
,
1010
0000
0000
0000
0000
0000
1000
0000
0100
0000
0010
0000
,
0001
0000
0101
0000
,
1100
0000
0000
0000
0000
0000
0001
0000
0010
0000
0100
0000
,
1000
0000
1010
0000
,
0101
0000
1100
0000
,
0011
0000
0000
0000
0000
0000
0010
0000
0100
0000
1000
0000
,
0001
0000
0100
0000
1000
0000
0100
0000
1000
0000
0001
0000
,
0010
0000
1000
0000
0100
0000
0002
0000
0000
0000
0000
0000
,
0000
0000
0000
0000
,
0000
0000
2000
0000
,
0000
0000
0000
0000
,
0000
0000
0000
0000
,
0000
0000
0000
0000
,
0000
0000
0000
0000
,
3003
0000
0000
0000
;

//---------------dance-single - ----------------
#NOTES:
     dance-single:
     :
     Easy:
     8:
     0.508,0.728,0.963,0.128,0.000:
0000
0000
0000
0000
,
0000
0000
0000
0000
,
0000
0000
0000
0000
,
0000
0000
0000
0000
,
1000
0100
0010
0001
,
0100
1000
0010
0100
,
1001
1001
1001
1001
,
0220
0000
0000
0000
,
0000
0000
0300
0030
,
2002
0000
3000
0000
,
0200
0303
1010
0010
,
0011
0010
0011
0010
,
1100
0101
0110
0010
,
0110
0100
0110
1000
,
1100
0010
0101
0101
,
0020
1030
1001
1010
,
0101
1100
0110
0010
,
1000
0001
2002
0000
,
0000
3003
0110
0010
,
0110
1000
1100
0010
,
0011
0101
1010
0001
,
0101
1000
1100
0010
,
1000
0001
0110
0110
,
1000
0001
1000
1100
,
1100
1100
0011
0110
,
1000
0010
1000
0100
,
0010
0001
0010
0100
,
1000
0100
0010
0010
,
0100
1000
0001
1000
,
0100
0010
0001
1000
,
0010
0100
1000
0001
,
0010
0100
1010
0001
,
0100
1000
0001
0100
,
0010
1000
0001
0100
,
1000
0010
0100
1000
,
0001
0100
0110
0110
,
0110
0000
1100
1100
,
0011
0000
1001
0000
,
1001
0000
0110
0110
,
0110
0000
1000
1000
,
1000
1000
0001
0001
,
0001
0001
0110
0000
,
0110
0000
0110
0000
,
0110
0000
1000
0001
,
0100
0010
1000
0001
,
0100
0010
2000
0000
,
0000
3000
0101
0000
,
1100
0000
0011
0000
,
0110
0000
1010
0000
,
0101
0000
0001
1000
,
0010
0100
1000
0000
,
1100
0000
1100
0000
,
1100
0000
1100
0000
,
1100
0000
0010
1000
,
0001
0100
0010
0000
,
0101
0000
0001
1000
,
0010
0000
0110
0000
,
0110
0000
0001
1000
,
0010
0000
1010
0000
,
0101
0000
1100
0000
,
0011
0000
0001
1000
,
0001
0100
0010
1000
,
0100
0010
0001
0000
,
0011
0000
0011
0000
,
0011
0000
0011
0000
,
0011
0000
0001
0100
,
0010
1000
0010
0000
,
1010
0000
1010
0000
,
1010
0000
1010
0000
,
1010
0000
0010
1000
,
0010
0001
0100
0000
,
0010
0000
0100
1000
,
0010
0000
0101
0000
,
1010
0000
1000
0100
,
0010
0000
1001
0000
,
1010
0000
0101
0000
,
1100
0000
0011
0100
,
0010
1000
0001
0100
,
0010
1000
0002
0000
,
0000
0000
0000
0000
,
0003
0000
2002
0000
,
0000
0000
0000
0000
,
0000
0000
0000
0000
,
0000
0000
0000
0000
,
0000
0000
0000
0000
,
3003
0000
0000
0000
;

//---------------dance-single - ITG/KEY----------------
#NOTES:
     dance-single:
     ITG/KEY:
     Edit:
     13:
     0.992,1.000,0.300,0.161,1.000:
MMMM
M000
MMMM
M00M
,
MMMM
MMMM
M00M
M00M
,
MMMM
M000
M000
MMMM
,
MM00
00M0
M00M
0000
M00M
00M0
MM00
0000
,
1001
0110
0011
1100
,
0101
1010
0110
1001
,
1001
0000
0000
0000
0000
0000
0000
0000
0000
0000
0000
0000
1001
0000
0000
0000
0000
0000
0000
0000
0000
0000
0000
0000
1002
0000
0000
0000
0000
0000
0000
0000
0000
0000
0003
0000
1002
0000
0000
0000
0000
0000
0000
0000
0000
0003
0000
0000
,
1000
0000
0100
0000
0001
0000
0010
0000
1000
0000
0001
0000
,
0010
0000
0100
0000
1000
0000
0001
0000
0100
0000
0002
0000
,
2000
0000
0000
0000
0000
0000
0000
0000
0000
3000
0000
0003
,
1000
0001
0100
0010
1000
0001
0010
0100
1000
0001
0100
0010
1000
0000
0100
0000
0010
0000
0100
0000
0001
0000
1000
0000
,
0010
0100
0010
1000
0010
0100
0010
1000
0010
0100
0010
1000
,
0001
0100
0010
1000
0100
0010
0001
0010
0001
0010
0001
0010
,
0001
0100
0010
0001
0100
1000
0010
0001
0100
0010
0100
0001
,
0010
0100
0010
1000
0010
0100
1000
0001
0100
0010
0100
0010
,
0100
0010
0100
0010
1000
0010
0001
0100
0010
1000
0001
0100
,
0010
1000
0100
0010
0001
0100
0010
0000
0010
1000
0000
0001
,
0100
0000
0100
1000
0100
0010
0001
0000
0000
0100
0000
0001
,
0000
0100
0000
0001
0000
0000
0010
0100
0010
1000
0001
0100
,
0010
1000
0001
1000
0010
0100
0001
0100
0010
0100
0001
1000
,
0010
0100
0010
0001
0010
0100
1000
0100
0010
0001
0010
0100
,
1000
0100
0010
0001
0010
0100
0010
1000
0001
0010
1000
0001
,
0010
0100
0010
1000
0010
0100
0010
0001
1000
0001
0000
0000
,
0010
0100
0010
1000
0010
0001
0010
0100
0010
1000
0010
0100
,
0010
0100
0010
0001
0010
0100
1000
0000
0100
0001
0000
0000
,
1000
0100
0010
0001
0000
0010
0001
0000
1000
0000
0100
0000
,
0001
0000
0010
0000
0100
0000
1000
0000
0001
0000
0100
0000
,
0010
0000
0000
0000
1000
0000
0000
0000
0001
0000
0000
0000
1000
0000
0100
1000
0000
0000
0000
0000
0000
0010
0000
0010
,
0100
0000
0010
1000
0000
0001
0100
0000
1000
0100
0000
0010
0001
0000
0001
0100
0000
0000
0000
0000
0000
0010
0000
0010
,
0100
0000
1000
0100
0000
0010
0001
0000
0010
0100
0000
0001
1000
0000
0010
1000
0000
0000
0000
0000
0000
0100
0000
0010
,
0001
0000
0001
0100
0000
0100
0010
0000
0010
1000
0000
1000
0010
0000
0010
0100
0000
0010
0100
0000
1000
0100
0000
0010
,
0001
0000
0010
0100
0000
0000
0010
0000
0000
1000
0000
0000
0010
0100
0010
0100
0000
0000
0000
0000
0000
0010
1000
0010
,
1000
0010
1000
0010
1000
0010
1000
0010
0100
0010
0100
0010
0100
0010
1000
0001
0000
0000
0000
0000
0000
0100
1000
0100
,
1000
0100
0010
0100
0010
0100
0010
0001
0010
0001
0010
0001
1000
0100
0010
0001
0010
0100
1000
0001
0100
0001
0100
0001
,
0100
0001
0100
0010
0100
0010
0100
1000
0100
1000
0100
1000
0100
0010
1000
0001
0010
0100
1000
0001
0100
0010
0100
0010
,
0100
0000
0000
0010
0000
1000
0000
0000
0001
0000
0100
0000
1001
0000
0000
0000
1001
0000
0000
0000
0000
0000
1001
0000
,
0000
0000
1000
0000
0000
0010
1000
0100
0001
0010
0000
1100
,
0000
0000
0000
0011
0000
0100
0010
0000
1001
0000
0000
0010
,
0100
0000
0000
0110
0000
1000
0001
0000
0010
0100
0000
0000
,
1000
0000
0001
0000
0100
0000
1000
0100
0001
0010
1000
0010
,
0100
0001
0100
0010
0001
0100
0010
1000
0001
0100
0010
1000
,
0001
0010
0100
1000
0001
0100
0010
0000
0100
0000
1000
0000
,
0001
0000
0010
0000
0100
0000
1000
0000
0001
0000
0100
0000
,
1000
0000
0100
0000
1000
0000
0010
0000
0001
0000
1000
0000
,
0001
0000
0010
0000
0100
0000
1000
0000
0100
0000
0001
0000
,
0010
0000
1000
0000
0001
0000
0100
1000
0001
0010
0100
1000
,
0001
0100
0010
0100
1000
0001
0100
0000
1000
0000
0010
0000
,
0001
0000
0100
0000
0010
0000
1000
0000
0100
0000
0001
0000
,
1000
0000
0001
0000
1000
0000
0100
0000
0010
0000
0001
0000
,
1000
0000
0010
0000
0100
0000
1000
0000
0010
0000
0100
0000
,
0001
0000
1000
0000
0010
0000
0100
0000
1000
0000
0001
0000
,
1000
0000
0100
0000
0010
0000
0001
0000
0010
0000
0001
0000
,
1000
0000
0001
0000
0100
0000
0010
0000
0001
0000
1000
0000
,
0100
0000
0001
0000
0010
0000
1000
0000
0100
0000
0001
0000
,
0010
0000
0001
0000
0100
0000
1000
0000
0010
0000
1000
0000
,
0001
0000
0010
0000
0100
0000
1000
0000
0100
0000
0010
0000
,
0100
0000
1000
0000
0010
0000
0100
0000
0010
0000
0100
0000
,
0010
0000
0001
0000
0010
0000
0001
0000
1000
0000
0100
0000
,
0010
0000
0001
0000
1000
0000
0200
0000
0000
0300
0000
0000
,
2020
3030
0202
0303
,
2200
0000
0000
0000
0000
0000
0000
0000
0000
0000
0000
0000
0000
0000
0000
0000
0000
0000
0000
0000
0000
0000
0000
3300
0001
0000
0000
0000
0000
0000
0000
0000
0010
0000
0000
0000
0000
0000
0000
0000
1000
0000
0000
0000
0000
0000
0000
0000
,
0100
0000
1001
1010
,
1100
0000
0000
0011
0000
0000
0010
0000
0100
0000
1000
0000
,
0001
0000
0010
0000
0100
0000
1000
0000
0001
0000
0100
0000
,
1000
0000
0100
0000
1000
0000
0010
0000
0001
0000
1000
0000
,
0001
0000
0010
0000
0100
0000
1000
0000
0100
0000
0001
0000
,
0010
0000
1000
0000
0001
0000
0010
0000
0100
0000
1000
0000
,
0001
0000
0010
0000
0100
0000
1000
0000
0001
0000
0100
0000
,
1000
0000
0100
0000
1000
0000
0010
0000
0001
0000
1000
0000
,
0001
0000
0010
0000
0100
0000
1000
0000
0100
0000
0001
0000
,
0010
0000
1000
0000
0001
0000
0010
0000
0100
0000
1000
0000
,
0001
0000
0010
0000
0100
0000
1000
0000
0001
0000
0100
0000
,
1000
0000
0100
0000
1000
0000
0010
0000
0001
0000
1000
0000
,
0001
0000
0010
0000
0100
0000
1000
0000
0100
0000
0001
0000
,
0010
0000
1000
0000
0001
0000
0100
0000
0000
0000
1000
0000
,
0001
0000
0000
0000
0100
0000
0010
0000
0000
0000
0010
0000
,
0100
0000
0000
0000
1000
0000
0001
0000
0010
0000
0100
0000
,
1000
0000
0001
0000
0100
0000
0010
0000
1000
0000
0001
0000
,
0100
0000
0010
0000
1000
0000
0220
0000
0000
0000
0000
0000
,
0000
0000
0000
0000
,
0000
0330
2002
0000
,
0000
0000
0000
0000
,
0000
0000
0000
0000
,
0000
0000
0000
0000
,
0000
0000
0000
0000
,
0000
3003
0000
0000
0000
0000
0000
0000
0000
0000
0000
0000
;

//---------------dance-single - ----------------
#NOTES:
     dance-single:
     :
     Beginner:
     4:
     0.222,0.431,0.268,0.000,0.000:
0000
0000
0000
0000
,
0000
0000
0000
0000
,
0000
0000
0000
0000
,
0000
0000
0000
0000
,
1000
0000
0000
0000
,
0001
0000
0000
0000
,
0100
0000
0010
0000
,
1000
0000
0001
0000
,
1000
0000
0001
0000
,
1001
0000
0000
0000
,
0010
0000
0100
0000
,
0100
0000
0100
0000
,
0100
0100
0100
0000
,
1000
0000
0001
0000
,
1000
0001
1001
0000
,
0001
0000
1000
0000
,
0100
0000
0010
0000
,
0100
0000
0110
0000
,
0000
0000
0110
0000
,
0100
0000
0100
0000
,
0001
0001
1001
0000
,
1000
0000
0001
0000
,
0100
0100
0110
0000
,
0010
0000
0010
0000
,
0001
0000
1000
0000
,
0001
0000
1000
0000
,
0000
0000
0001
0000
,
0000
0000
0110
0000
,
0000
0000
0100
0000
,
0100
0000
0110
0000
,
0000
0000
0001
0000
,
0000
0000
1001
0000
,
1000
1000
1000
0000
,
0001
0001
0001
0000
,
0010
0010
0010
0000
,
0110
0000
0100
0000
,
0000
0000
1000
0000
,
0000
0000
0001
0000
,
1000
0000
0001
0000
,
0000
0000
0010
0000
,
0010
0000
0100
0000
,
1000
0000
0001
0000
,
0000
0000
1000
0000
,
0000
0000
0001
0000
,
0001
0000
1000
0000
,
1000
0000
1001
0000
,
0000
0000
0110
0000
,
0000
0000
0010
0000
,
0000
0000
0010
0000
,
0000
0000
0100
0000
,
0100
0000
0110
0000
,
0000
0000
1000
0000
,
0000
0000
0001
0000
,
0000
0000
1000
0000
,
1000
0000
1001
0000
,
0000
0000
0010
0000
,
0000
0000
0100
0000
,
0000
0000
1000
0000
,
0000
0000
0001
0000
,
0000
0000
1000
0000
,
0000
0000
1001
0000
,
0000
0000
0001
0000
,
0000
0000
1000
0000
,
1000
0000
1000
0000
,
0000
0000
0001
0000
,
0000
0000
1000
0000
,
0001
0000
0001
0000
,
0001
0000
0001
0000
,
0000
0000
0010
0000
,
0000
0000
0100
0000
,
0100
0000
0110
0000
,
0000
0000
0010
0000
,
0000
0000
0100
0000
,
0000
0000
0010
0000
,
0000
0000
1001
0000
,
0110
0000
0110
0000
,
0110
0000
1001
0000
,
0110
0000
0110
0000
,
1001
0000
0000
0000
,
0000
0000
0000
0000
,
0000
0000
1001
0000
;
