#TITLE:V35;
#SUBTITLE:;
#ARTIST:Tiger YAMATO;
#TITLETRANSLIT:;
#SUBTITLETRANSLIT:;
#ARTISTTRANSLIT:;
#CREDIT:;
#BANNER:bn.bmp;
#BACKGROUND:bg.bmp;
#LYRICSPATH:;
#CDTITLE:IIDX 8th style.png;
#MUSIC:V35.mp3;
#OFFSET:-6.520;
#SAMPLESTART:71.381;
#SAMPLELENGTH:12.640;
#SELECTABLE:YES;
#BPMS:0.000=148.000;
#STOPS:;
#BGCHANGES:;

//---------------dance-single - ----------------
#NOTES:
     dance-single:
     :
     Hard:
     7:
     0.445,0.457,0.030,0.240,0.266:
0001
0000
0000
1000
0000
0000
0100
0000
0000
0000
0010
0000
1000
0000
0001
0000
,
0100
0000
0000
0001
0000
0000
1000
0000
0000
0000
0010
0000
0001
0000
0010
0000
,
0100
0000
0000
1000
0000
0000
0010
0000
0000
0000
0001
0000
0100
0000
0010
0000
,
1000
0000
0000
0100
0000
0000
0010
0000
0000
0000
0001
0000
1000
0000
0100
0000
,
0010
0000
0000
0001
0000
0000
0010
0000
0000
0000
0001
0000
0100
0000
1000
0000
,
0010
0000
0000
1000
0000
0000
0100
0000
0000
0000
0001
0000
0010
0000
1000
0000
,
0001
0000
0000
1000
0000
0000
0100
0000
0000
0000
0001
0000
0100
0000
1000
0000
,
0001
0000
0000
1000
0000
0000
0100
0000
0000
0000
0010
0000
0001
0000
1000
0000
,
0020
0000
0000
0000
,
0230
0000
0000
0000
,
0302
0000
0000
0000
,
2003
0000
0000
0000
,
3020
0000
0000
0000
,
0230
0000
0000
0000
,
0302
0000
0000
0000
,
1003
0000
0000
0010
0100
0000
0000
0100
1000
0000
0000
0001
0010
0000
0100
0000
,
0001
0000
0000
0010
0000
0000
1000
0000
0100
0000
0000
0001
0000
0000
0010
0000
,
0100
0000
0000
0001
0000
0000
0010
0000
1000
0000
0000
0001
0000
0000
1000
0000
,
0001
0000
0000
0010
0000
0000
0100
0000
1000
0000
0000
0001
0000
0000
1000
0000
,
0001
0000
0000
0100
0000
0000
0010
0000
0001
0000
0000
0001
0000
0000
0100
0000
,
1000
0000
0000
0010
0000
0000
0010
0000
0100
0000
0001
0000
0010
0000
1000
0000
,
0001
0000
0000
0100
0000
0000
1000
0000
0010
0000
1000
0000
0001
0000
0010
0000
,
1000
0000
0000
0100
0000
0000
0010
0000
1000
0000
0010
0000
0001
0000
0100
0000
,
0010
0000
0000
0001
0000
0000
0001
0000
1000
0000
0100
0000
0001
0000
0100
0000
,
0010
0001
0020
0000
0000
0100
0000
0130
,
1000
0001
0200
0000
0000
1000
0000
1300
,
0100
1000
0200
0000
0000
0010
0000
0310
,
0010
1000
0002
0000
0000
0100
0000
1003
,
0100
1000
0020
0000
0000
0100
0000
1030
,
0001
0000
0100
0000
2000
0000
0000
0000
0100
0000
0000
0100
0000
0000
3100
0000
,
0000
0010
0200
0000
0000
0001
0000
0301
,
1000
0000
0000
0001
0010
0000
0000
0010
0100
0000
0000
1000
0100
0000
0010
0000
,
0001
0000
0000
0010
0000
0000
0100
0000
1000
0000
0000
0100
0000
0000
1000
0000
,
0020
0000
0000
0000
0000
0000
0000
0031
,
0001
0000
0000
0010
0000
0000
0100
0000
1000
0000
0000
0010
0000
0000
0100
0000
,
2000
0000
0000
0000
0000
0000
0000
0010
,
3010
0000
0000
0100
0000
0000
1000
0000
0001
0000
0000
0100
0000
0000
1000
0000
,
0020
0000
0000
0000
0000
0000
0000
0030
,
2002
0000
0000
0000
0000
0000
0000
0000
0000
0000
0000
0000
0000
0000
0000
3003
,
0000
0000
0000
0000
,
0110
0000
0000
1000
0000
0000
0100
0000
0010
0000
0000
0100
0000
0000
1000
0000
,
0001
0000
0000
0100
0000
0000
1000
0000
0010
0000
0000
0100
0000
0000
1000
0000
,
0010
0000
0000
0001
0000
0000
0100
0000
0001
0000
0000
1000
0000
0000
0010
0000
,
0100
0000
0000
1000
0000
0000
0010
0000
0001
0000
0000
0010
0000
0000
0100
0000
,
1000
0000
0000
0001
0000
0000
1000
0000
0100
0000
1000
0000
0100
0000
0010
0000
,
1000
0000
0000
0001
0000
0000
0010
0000
0100
0000
1000
0000
0001
0000
0100
0000
,
1000
0000
0000
0010
0000
0000
0100
0000
1000
0000
0100
0000
0010
0000
0001
0000
,
0010
0000
0000
0100
0000
0000
1000
0000
0100
0000
0010
0000
0001
0000
0010
0000
,
0200
1000
0010
0302
,
0023
0000
0100
0000
1000
0000
0031
0100
,
1000
0000
0000
0100
0000
0000
0010
0000
0001
0000
0000
0010
0000
0000
1000
0000
,
0001
0000
0000
0100
0000
0000
1000
0000
0010
0000
0000
0001
0000
0000
1000
0000
,
0001
0000
0000
0010
0000
0000
0100
0000
1000
0000
0100
0000
0010
0000
1000
0000
,
0001
0000
0000
0010
0000
0000
0100
0000
1000
0000
0001
0000
0100
0000
1000
0000
,
0010
0000
0000
1000
0000
0000
0010
0000
0001
0000
0010
0000
0100
0000
1000
0000
,
0010
0000
0000
0100
0000
0000
1000
0000
0100
0000
0010
0000
0001
0000
0010
0000
,
2002
0000
0000
0000
,
3003
0000
0000
0000
;

//---------------dance-single - ----------------
#NOTES:
     dance-single:
     :
     Medium:
     6:
     0.345,0.428,0.080,0.331,0.140:
0001
0000
0000
1000
0000
0000
0001
0000
0000
0000
0000
0000
0000
0000
0000
0000
,
0010
0000
0000
1000
0000
0000
0001
0000
0000
0000
0000
0000
0000
0000
0000
0000
,
0010
0000
0000
0100
0000
0000
1000
0000
0000
0000
0000
0000
0000
0000
0000
0000
,
0001
0000
0000
1000
0000
0000
0100
0000
0000
0000
0000
0000
0000
0000
0000
0000
,
0010
0000
0000
1000
0000
0000
0010
0000
0000
0000
0000
0000
0000
0000
0000
0000
,
0100
0000
0000
0001
0000
0000
0100
0000
0000
0000
0000
0000
0000
0000
0000
0000
,
0001
0000
0000
1000
0000
0000
0010
0000
0000
0000
0000
0000
0000
0000
0000
0000
,
0100
0000
0000
1000
0000
0000
0010
0000
0000
0000
0000
0000
0001
0000
0100
0000
,
0020
0000
0000
0000
,
0230
0000
0000
0000
,
2300
0000
0000
0000
,
3200
0000
0000
0000
,
0320
0000
0000
0000
,
0032
0000
0000
0000
,
2003
0000
0000
0000
,
3100
0110
1010
0011
,
1000
0000
0000
0100
0000
0000
0010
0000
0100
0000
0000
0000
0010
0000
0000
0000
,
1000
0100
0001
0100
,
0001
0000
0000
1000
0000
0000
0010
0000
0100
0000
0000
1000
0000
0000
0010
0000
,
0001
0100
1000
0010
,
0001
0000
0000
0010
0000
0000
0100
0000
2000
0000
0000
0000
0000
0000
0000
0000
,
3010
0000
0000
0100
0000
0000
1000
0000
0002
0000
0000
0000
0000
0000
0000
0000
,
0013
0000
0000
0100
0000
0000
1000
0000
0002
0000
0000
0000
0000
0000
0000
0000
,
0013
0000
0000
0100
0000
0000
1000
0000
0100
0000
0001
0000
1000
0000
0001
0000
,
0200
0000
0000
0000
,
0320
0000
0000
0000
,
2030
0000
0000
0000
,
3200
0000
0000
0000
,
0302
0000
0000
0000
,
0023
0000
0000
0000
,
0230
0000
0000
0000
,
1300
1010
0011
1100
,
0001
1000
0010
1000
0001
1000
0010
1000
,
0000
0000
0000
0000
,
0001
0100
0010
1000
0001
0100
0010
1000
,
0000
0000
0000
0000
,
0100
0010
0001
1000
0100
1000
0010
0001
,
0000
0000
0000
0000
,
2002
0000
0000
0000
,
3003
0000
0000
0000
,
0010
0000
0000
0001
0000
0000
0010
0000
0200
0000
0000
0000
1300
0000
0000
0000
,
0010
0000
0000
0100
0000
0000
1000
0000
0002
0000
0000
0000
0103
0000
0000
0000
,
0010
0000
0000
0100
0000
0000
1000
0000
0200
0000
0000
0000
1300
0000
0000
0000
,
0010
0000
0000
0001
0000
0000
1000
0000
0200
0000
0000
0000
1300
0000
0000
0000
,
0010
0000
0000
0100
0000
0000
1000
0000
0100
0000
1000
0000
0100
0000
0000
0000
,
0010
0000
0000
0001
0000
0000
0100
0000
1000
0000
0100
0000
0010
0000
0000
0000
,
0001
0000
0000
0010
0000
0000
0100
0000
1000
0000
0100
0000
1000
0000
0000
0000
,
0010
0000
0000
0100
0000
0000
1000
0000
0100
0000
0010
0000
0001
0000
0010
0000
,
2000
3100
0020
0031
,
0002
0103
0020
0130
,
2000
3100
0020
0130
,
2000
3001
0020
0130
,
1000
0000
0000
0100
0000
0000
0010
0000
0001
0000
0010
0000
0001
0000
0010
0000
,
0001
0000
0000
0010
0000
0000
0100
0000
1000
0000
0100
0000
1000
0000
0100
0000
,
0010
0000
0000
1000
0000
0000
0100
0000
0010
0000
0000
0001
0000
0000
0010
0000
,
0100
0000
0000
1000
0000
0000
0010
0000
0100
0000
0010
0000
1000
0000
0010
0000
,
2002
0000
0000
0000
,
3003
0000
0000
0000
;

//---------------dance-single - ----------------
#NOTES:
     dance-single:
     :
     Easy:
     3:
     0.242,0.343,0.080,0.421,0.000:
0020
0000
0000
0030
0000
0000
0000
0000
,
0200
0000
0000
0300
0000
0000
0000
0000
,
2000
0000
0000
3000
0000
0000
0000
0000
,
0002
0000
0000
0003
0000
0000
0000
0000
,
0200
0000
0000
0300
0000
0000
0000
0000
,
2000
0000
0000
3000
0000
0000
0000
0000
,
0020
0000
0000
0030
0000
0000
0000
0000
,
0002
0000
0000
0003
0000
0000
1000
0000
,
2002
0000
0000
0000
,
0000
0000
0000
0000
,
0000
0000
0000
0000
,
0000
0000
0000
0000
0000
0000
0000
3000
,
0200
0000
0000
0000
,
0000
0000
0000
0003
,
0020
0000
0000
0330
,
1001
1010
0011
1100
,
0001
0100
0010
1000
,
0100
0010
0001
0100
,
0010
1000
0001
0100
,
1000
0100
0001
1000
,
0010
0100
2000
0100
,
3100
1000
0002
0013
,
0100
1000
0020
0130
,
0001
1000
0200
1300
,
0002
0000
0000
0000
,
0000
0000
0000
0000
,
2003
0000
0000
0000
,
0000
0000
0000
0000
,
3200
0000
0000
0000
,
0000
0000
0000
0000
,
0320
0000
0000
0000
,
0000
0000
0000
0000
,
0031
1000
0001
0100
,
1000
0000
0000
0000
,
0010
1000
0010
0001
,
0000
0000
0000
0000
,
0100
0010
1000
0001
,
0000
0000
0000
0000
,
1000
0010
0001
0100
,
2002
0000
0000
3003
,
1020
0130
0001
0100
,
1000
0010
0001
1000
,
0100
1000
0010
0001
,
0100
0010
1000
0100
,
0010
0001
0200
1000
,
1300
0100
0002
0010
,
0013
0100
2000
3100
,
0020
0031
0200
1300
,
2000
0000
0000
0000
,
3200
0000
0320
0000
,
0032
0000
0000
0000
,
0203
0000
0320
0000
,
2030
0000
0000
3100
,
0200
0000
0000
0310
,
0020
0000
0032
0000
,
2003
3200
0310
0001
,
2002
0000
0000
0000
,
3003
0000
0000
0000
;

//---------------dance-single - ----------------
#NOTES:
     dance-single:
     :
     Challenge:
     8:
     0.545,0.571,0.150,0.491,0.301:
2100
0000
0000
0010
0000
0000
3001
0000
0000
0000
0001
0000
0010
0000
0100
0000
,
2100
0000
0000
0010
0000
0000
3001
0000
0000
0000
0010
0000
0100
0000
0010
0000
,
0120
0000
0000
1000
0000
0000
1030
0000
0000
0000
1000
0000
0100
0000
0010
0000
,
0012
0000
0000
0010
0000
0000
0103
0000
0000
0000
0001
0000
0100
0000
0001
0000
,
0102
0000
0000
0010
0000
0000
0103
0000
0000
0000
0010
0000
0100
0000
0010
0000
,
0210
0000
0000
0010
0000
0000
0301
0000
0000
0000
0001
0000
0100
0000
0010
0000
,
0120
0000
0000
0100
0000
0000
1030
0000
0000
0000
1000
0000
0100
0000
0010
0000
,
0001
0000
0000
0010
0000
0000
0100
0000
0000
0000
1000
0000
0100
0000
0010
0000
,
0001
0020
0001
0000
0000
0001
0000
0031
,
0010
0100
2000
0000
0000
0100
0000
3100
,
1000
0200
0010
0000
0000
0010
0300
0010
,
0100
0020
0100
0000
0000
0130
0000
1000
,
0000
0100
1000
0000
0000
0100
0000
0010
,
0000
0000
0001
0000
0020
0000
0000
0000
0100
0000
0000
0100
0000
0000
0130
0000
,
0000
1000
0100
0000
0000
0010
0000
0001
,
0001
0000
0000
0001
0010
0000
0000
0010
0100
0000
0000
0100
1000
0000
0000
1000
,
0200
0000
0000
1300
0000
0000
0010
0000
0002
0000
0000
0013
0000
0000
0001
0000
,
0020
0000
0000
0130
0000
0000
0100
0000
2000
0000
0000
3100
0000
0000
0001
0000
,
2000
0000
0000
3001
0000
0000
0010
0000
0200
0000
0000
1300
0000
0000
0010
0000
,
0200
0000
0000
1300
0000
0000
1000
0000
0002
0000
0000
0013
0000
0000
1000
0000
,
0002
0000
0000
0013
0000
0000
1000
0000
0001
0000
0010
0000
0100
0000
1000
0000
,
1002
0000
0000
0103
0000
0000
0001
0000
0010
0000
0100
0000
1000
0000
0100
0000
,
2100
0000
0000
3001
0000
0000
0001
0000
1000
0000
0001
0000
0010
0000
0100
0000
,
2100
0000
0000
3001
0000
0000
0001
0000
0010
0000
0100
0000
1000
0000
0001
0000
,
0200
0001
0001
0000
0000
0001
0000
0001
,
0000
0000
0001
0000
0000
0001
0000
0001
,
0000
0000
0001
0000
0000
0001
0000
0001
,
0000
0000
0001
0000
0000
0001
0000
0001
,
0000
0000
0001
0000
0000
0001
0000
0001
,
0000
0000
0000
0000
0001
0000
0000
0000
0001
0000
0000
0001
0000
0000
0001
0000
,
0000
0000
0001
0000
0000
0301
0000
0100
,
1001
0000
0000
1000
0100
0000
0000
0010
0001
0000
0000
0100
1000
0000
0000
0001
,
0020
0000
0000
0100
0000
0000
0100
0000
0100
0000
0000
0100
0000
0000
0100
0000
,
0130
0000
1000
0000
0001
0000
1000
0200
,
1000
0000
0000
1000
0000
0000
1000
0000
1000
0000
0000
1000
0000
0000
1300
0000
,
0100
0000
0010
0000
0001
0000
1000
0001
,
0200
0000
0000
0010
0000
0000
0010
0000
0010
0000
0000
0010
0000
0000
0310
0000
,
0100
0001
0100
0010
,
2002
0000
0000
3003
,
0001
0010
0100
1000
,
1000
0000
1000
0100
0000
0000
0010
0000
0002
0000
0000
0013
0000
0000
0100
0000
,
2000
0000
0000
3100
0000
0000
0010
0000
2000
0000
0000
3010
0000
0000
0100
0000
,
0002
0000
0000
0103
0000
0000
0010
0000
0002
0000
0000
0013
0000
0000
0100
0000
,
2000
0000
0000
3100
0000
0000
0010
0000
2000
0000
0000
3010
0000
0000
0100
0000
,
1000
0000
0010
0100
0000
0000
1000
0000
0100
0000
0010
0000
0001
0000
0010
0000
,
0002
0000
0000
0013
0000
0000
0001
0000
0010
0000
0100
0000
1000
0000
0100
0000
,
2000
0000
0000
3100
0000
0000
1000
0000
0100
0000
0010
0000
0001
0000
0010
0000
,
0100
0000
0000
0001
0000
0000
0010
0000
0001
0000
0010
0000
1000
0000
0010
0000
,
0200
0000
0000
0010
0000
0000
0010
0000
0010
0000
0000
0010
0000
0000
0010
0000
,
0302
0000
0000
1000
0000
0000
1000
0000
1000
0000
0000
1000
0000
0000
1000
0000
,
2003
0000
0000
0001
0000
0000
0001
0000
0001
0000
0000
0001
0000
0000
0001
3000
,
0002
0000
0000
0100
0000
0000
0100
0000
0100
0000
0000
0100
0000
0000
0100
0000
,
0203
0000
0000
0010
0000
0000
0310
0000
0100
0000
0010
0000
0100
0000
0010
0000
,
0200
0000
0000
0301
0000
0000
1000
0000
0100
0000
0010
0000
0001
0000
0010
0000
,
0012
0000
0000
0103
0000
0000
0010
0000
1000
0000
0100
0000
0010
0000
0100
0000
,
1002
0000
0000
1003
0000
0000
1000
0000
0100
0000
0010
0000
0001
0000
0010
0000
,
0202
0000
0000
0000
,
0303
0000
0000
0000
;

//---------------dance-single - ----------------
#NOTES:
     dance-single:
     :
     Beginner:
     2:
     0.082,0.196,0.060,0.000,0.000: // measure 1
1000
0000
0000
0000
,  // measure 2
0001
0000
0000
0000
,  // measure 3
1000
0000
0000
0000
,  // measure 4
0001
0000
0000
0000
,  // measure 5
1000
0000
0000
0000
,  // measure 6
0001
0000
0000
0000
,  // measure 7
1000
0000
0000
0000
,  // measure 8
0001
0000
0000
0000
,  // measure 9
0100
0000
0000
0000
,  // measure 10
0000
0000
0000
0000
,  // measure 11
0000
0000
0000
0000
,  // measure 12
0000
0000
0000
0000
,  // measure 13
0000
0000
0000
0000
,  // measure 14
0000
0000
0000
0000
,  // measure 15
0000
0000
0000
0000
,  // measure 16
0001
0000
1000
0000
,  // measure 17
1001
0000
0000
0000
,  // measure 18
0010
0000
0000
0000
,  // measure 19
0100
0000
0000
0000
,  // measure 20
0100
0000
0000
0000
,  // measure 21
1000
0000
0000
0000
,  // measure 22
1000
0000
0000
0000
,  // measure 23
0001
0000
0000
0000
,  // measure 24
0010
0000
0000
0000
,  // measure 25
0001
0000
0000
0000
,  // measure 26
0000
0000
0000
0000
,  // measure 27
0000
0000
0000
0000
,  // measure 28
0000
0000
0000
0000
,  // measure 29
1000
0000
0000
0000
,  // measure 30
0001
0000
0000
0000
,  // measure 31
0100
0000
0000
0000
,  // measure 32
0110
0000
0110
0000
,  // measure 33
0110
0000
0000
0000
,  // measure 34
0000
0000
0000
0000
,  // measure 35
1000
0000
0000
0000
,  // measure 36
0000
0000
0000
0000
,  // measure 37
0001
0000
0000
0000
,  // measure 38
0000
0000
0000
0000
,  // measure 39
1000
0000
0000
0000
,  // measure 40
0000
0000
0000
0000
,  // measure 41
1001
0000
0000
0000
,  // measure 42
0001
0000
0000
0000
,  // measure 43
1000
0000
0000
0000
,  // measure 44
0100
0000
0000
0000
,  // measure 45
0010
0000
0000
0000
,  // measure 46
0010
0000
0000
0000
,  // measure 47
0010
0000
0000
0000
,  // measure 48
0010
0000
0001
0001
,  // measure 49
0001
0000
0000
0000
,  // measure 50
1000
0000
0001
0000
,  // measure 51
0100
0000
0000
0000
,  // measure 52
0010
0000
0000
0000
,  // measure 53
1000
0000
0000
0000
,  // measure 54
0001
0000
0000
0000
,  // measure 55
0100
0000
0000
0000
,  // measure 56
0010
0000
1000
1000
,  // measure 57
1001
0000
0000
0000
;
