#TITLE:Unicorn tail;
#SUBTITLE:;
#ARTIST:DJ YOSHITAKA;
#TITLETRANSLIT:;
#SUBTITLETRANSLIT:;
#ARTISTTRANSLIT:;
#CREDIT:;
#BANNER:bn.png;
#BACKGROUND:bg.png;
#LYRICSPATH:;
#CDTITLE:;
#MUSIC:Unicorn tail.mp3;
#OFFSET:-0.040;
#SAMPLESTART:0.020;
#SAMPLELENGTH:12.000;
#SELECTABLE:YES;
#BPMS:0.000=170.000,64.000=85.000,80.000=170.000,337.000=85.000;
#STOPS:64.000=2.118
;
#BGCHANGES:;

//---------------dance-single - ----------------
#NOTES:
     dance-single:
     :
     Hard:
     8:
     0.492,0.672,0.304,0.099,0.057:
0000
0000
0000
0000
,
0000
0000
0000
0000
,
0000
0000
0000
0000
,
0000
0000
0000
0000
,
0000
0000
0000
0000
,
0000
0000
0000
0000
,
0000
0000
0000
0000
,
0000
0000
0000
0000
,
1000
0001
0100
0001
0010
0001
1000
0100
,
0010
0100
0000
0000
0000
0000
0000
0000
,
0001
0100
0001
0010
0100
0001
1000
0001
,
0100
0010
0000
0000
0000
0000
0000
0000
,
1000
0001
0010
0001
1000
0100
0001
0100
,
0010
1000
0000
0000
0000
0000
0000
0000
,
1001
0000
1000
0001
0101
0000
0001
1000
,
0000
1100
0000
0011
0000
1001
0000
1000
,
0110
2000
3100
0002
,
0013
0002
0103
0020
,
0130
0000
0010
1000
0001
1000
0001
0100
,
0001
0010
0001
0100
0010
1000
0100
0010
,
0010
0000
0110
0000
1000
0001
0100
0000
,
0001
0000
1000
0001
0000
0001
0000
0001
,
0000
0001
0100
0010
1000
0000
0100
0000
,
1000
0001
0100
0000
0010
1000
0001
1000
,
0000
1000
0001
0100
0001
0000
0011
0000
,
0001
0010
0001
0100
0000
0010
0000
1000
,
0000
0001
1000
0100
1000
0000
1100
0000
,
1000
0001
0100
0001
0000
0100
0000
0001
,
0000
0001
1000
0100
1000
0001
0100
0000
,
0001
1000
0000
1000
0100
1000
0001
0100
,
0010
0000
0010
1000
0000
0001
1000
0100
,
1000
0100
0010
0100
0000
1000
0100
0010
,
0002
0000
0103
0101
,
0001
1000
0001
0000
0100
0000
0110
0000
,
0010
1000
0001
0000
1000
0001
1000
0001
,
0100
0001
0010
0001
0100
0010
1000
0100
,
1000
0000
0001
0100
0000
1000
0200
0000
0000
0000
0000
0000
1300
0000
0000
0000
0000
0000
0100
0000
0000
0000
0000
0000
,
1100
0000
1000
0001
0000
0100
0000
0001
,
0000
0001
0100
0010
1000
0000
1010
0000
,
0101
0000
1000
0001
0000
0001
0000
0001
,
0000
0001
0100
0010
0100
0000
0110
0000
,
1001
0000
1000
0100
0000
0100
0000
0100
,
0000
0100
0000
0010
0001
0000
0001
0100
,
0001
0000
0001
0100
0000
0100
0000
0100
,
0000
0100
0010
1000
0001
0000
1100
0000
,
0101
0000
0001
1000
0000
1001
0000
1001
,
0000
0001
0100
0010
0100
0000
1010
0000
,
0101
0000
1000
0001
0000
1001
0000
1100
,
0000
1000
0001
1000
0100
0000
1100
0000
,
0011
0000
0001
0100
0000
0110
0000
1001
,
0000
1000
0001
0010
0001
0200
0302
0000
,
1003
0000
1200
1300
0000
0001
0000
0001
,
1000
0000
0001
1000
0000
1000
0001
0000
0000
0000
0000
0000
0010
0000
0000
0100
0000
0000
0000
0000
0000
0010
0000
0000
,
1000
0001
0000
1000
0001
0100
0000
0001
,
0010
0001
0000
1000
0001
0100
0000
0010
,
1000
0001
0000
1000
0001
1000
0000
0001
,
0100
0001
0000
1000
0001
0100
0000
0010
,
0100
0010
0000
1000
0100
1000
0000
0001
,
1000
0001
0000
0001
0100
0010
0000
0010
,
1000
0001
0000
1000
0001
0100
0000
0100
,
0001
0010
0001
1000
0100
0000
1000
0000
,
0100
1000
1000
0000
0001
0000
1000
0000
,
0001
0100
0100
0000
0010
0000
1000
0000
,
0001
0100
0100
0000
0110
0000
0000
0000
,
1001
0000
0000
0000
1000
0100
1000
0000
,
0100
0000
1000
0000
0001
0100
0010
1000
,
0000
0001
1000
0100
2000
0000
0000
0000
,
3100
0100
0000
0100
2100
0000
3100
0000
,
2002
0000
0000
3003
1000
0000
0001
0000
,
0100
0010
1000
0001
,
1000
0000
0001
0100
0010
0000
0100
0000
,
0010
1000
0001
1000
,
0100
0000
1000
0001
0100
0000
0010
0000
,
1000
0001
1100
0001
,
0100
0000
0001
0100
0101
0000
0100
0000
,
0011
0000
0100
0010
0000
0110
0000
1001
,
0000
1000
0100
1000
1010
0000
0100
0000
,
0001
0000
1000
0100
0000
1000
0000
0100
,
0000
1000
0001
0100
0010
0000
0100
0000
,
0010
0000
0010
1000
0000
0010
0000
1000
,
0000
0010
0100
0001
1000
0000
0001
0000
,
1001
0000
0001
0100
0000
0100
0000
0100
,
0000
0010
1000
0001
1000
0000
0001
1000
,
0100
0000
1000
1100
0000
0011
0000
0101
,
0001
0000
0000
0000
0001
0000
0100
0000
0000
0000
0010
0000
2000
0000
0000
0000
0000
0000
3001
0000
0000
0000
0000
0000
1000
0000
0000
0000
0000
0000
0001
0000
0000
0000
0000
0000
0001
0000
0000
0100
0000
0000
0000
0000
0000
0010
0000
0000
,
0000
0100
0000
0010
1000
0001
1000
0000
0001
0000
0100
0000
0001
0100
0000
0010
,
0000
1000
0000
0010
1000
0100
0010
0000
0000
0000
0000
0000
0000
0000
0000
0000
;

//---------------dance-single - ----------------
#NOTES:
     dance-single:
     :
     Medium:
     6:
     0.386,0.428,0.149,0.057,0.000:
0000
0000
0000
0000
,
0000
0000
0000
0000
,
0000
0000
0000
0000
,
0000
0000
0000
0000
,
0000
0000
0000
0000
,
0000
0000
0000
0000
,
0000
0000
0000
0000
,
0000
0000
0000
0000
,
1000
0002
0200
0000
0000
0000
0000
0000
,
0303
0000
0000
0000
,
0001
2000
0200
0000
0000
0000
0000
0000
,
3300
0000
0000
0000
,
0010
1000
0020
0000
0000
0000
0000
0000
,
1030
0000
0000
0000
,
1010
0000
0101
0000
,
1000
0001
0000
1000
0000
0001
0100
0010
,
1000
1000
0001
0100
,
0010
0000
1000
0000
1000
0000
0001
1000
,
0001
0100
0010
0000
0010
0000
1000
0000
,
0100
1000
0010
0100
,
0001
1000
0001
0000
1000
0000
0001
0100
,
0000
0100
0001
0000
0001
0000
0100
0010
,
0100
0000
0010
0000
1000
0000
0010
1000
,
0010
0000
1000
0100
0000
1000
0000
0100
,
0000
1000
0100
0000
1100
0000
0011
0000
,
0001
1000
0001
0000
1000
0000
0001
1000
,
0000
1000
0001
0000
0001
0000
0100
0000
,
0010
0000
1000
0010
0000
1000
0000
0010
,
0000
1000
0010
0000
1010
0000
0101
0000
,
1000
0001
0100
0000
1000
0000
1000
0100
,
0000
0100
1000
0000
1000
0000
0100
0000
,
0010
0001
1000
0000
0001
0000
0100
0010
,
2000
0000
3010
0010
,
0010
1000
0010
0000
0001
0000
1000
0000
,
0001
0100
0010
0000
1000
0001
1000
0001
,
0100
0001
0100
0001
0000
0010
0000
0001
,
1000
1000
1000
0000
1001
0000
0001
0000
,
0100
0000
0001
0100
0000
0001
0000
0100
,
0000
0001
0100
0010
1000
0000
0010
0000
,
0010
0000
1000
0010
0000
0010
0000
0010
,
0000
0010
1000
0000
1000
0000
0001
0000
,
1001
0000
0001
1000
0000
1000
0000
1000
,
0000
1000
0001
0000
0001
0000
0100
0000
,
0010
0000
0010
1000
0000
1000
0000
1000
,
0000
1000
0000
1000
0100
0000
1000
0000
,
0100
0000
1000
0100
0000
0010
0000
0001
,
0000
0001
0010
0000
0001
0000
0100
0000
,
0010
0000
0100
0010
0000
1000
0000
0010
,
0000
0010
1000
0000
1000
0000
0001
0000
,
1001
0000
0001
1000
0000
1000
0000
1000
,
0000
1000
0100
0000
1100
0000
0010
0000
,
0011
0000
0001
0100
0000
0001
0000
0100
,
0010
0010
0010
0000
1000
0000
0010
0000
,
1000
0010
1000
0000
0001
0000
0100
0000
,
0001
0100
0001
0000
0010
0000
0001
0000
,
0010
0001
0010
0000
0011
0000
0000
0000
,
1100
0000
0000
0000
1000
0100
1000
0000
,
0100
0000
1000
0000
0001
1000
0001
0000
,
1000
0000
0001
0000
0100
0010
0100
0000
,
0010
0000
1000
0000
0100
1000
0100
0000
,
1000
0100
1000
0000
1100
0000
0010
0001
,
0100
0000
0001
0010
0001
0000
0001
0100
,
0001
0000
1000
0001
1000
0000
0000
0000
,
0000
0000
1100
0000
,
0011
0000
0000
0000
0001
0000
1000
0001
,
1000
0000
0010
0000
1000
0000
0100
1000
,
0100
0000
1000
0000
0100
0000
0010
0001
,
0100
0010
1000
0010
,
2002
3003
1000
1000
,
0001
0001
0100
0100
,
0010
0000
0010
1000
0100
0000
1000
0000
,
0100
1000
0010
0001
,
0100
0001
0010
1000
,
0001
1000
1001
0001
,
0100
0010
0101
0010
,
1100
0000
0010
1000
0000
0001
0000
1000
,
0000
0001
0000
0001
0100
0000
0001
0000
,
0100
0000
0010
0100
0000
0010
0000
1000
,
0000
0010
1000
0010
1000
0000
0010
0000
,
1000
0000
0001
1000
0000
0001
0000
1000
,
0000
0001
0100
0010
1000
0000
0010
0000
,
1000
0000
0010
1000
0000
0100
0000
0010
,
0000
0001
0010
0001
0100
0000
0010
1000
,
0010
0000
0010
1000
0000
0001
0000
1000
,
0001
0001
1001
1000
0000
0001
0000
0100
,
0000
0010
0000
1000
0001
0100
0010
1000
,
0100
0010
0001
1000
0000
0000
0000
0000
;

//---------------dance-single - ----------------
#NOTES:
     dance-single:
     :
     Easy:
     4:
     0.261,0.359,0.113,0.071,0.000:
0000
0000
0000
0000
,
0000
0000
0000
0000
,
0000
0000
0000
0000
,
0000
0000
0000
0000
,
0000
0000
0000
0000
,
0000
0000
0000
0000
,
0000
0000
0000
0000
,
0000
0000
0000
0000
,
0020
2000
0000
0000
,
3030
0000
0000
0000
,
0001
0200
0000
0000
,
0300
0000
0000
0000
,
0110
0020
0000
0030
,
0110
0000
0000
0000
,
0010
0000
1000
0000
,
0000
0001
0000
1000
0000
0001
0000
0100
,
0001
0010
0000
0010
,
0000
0010
0001
1000
,
0100
1000
0000
0010
,
0000
0100
0000
0010
,
1000
1000
0010
1000
,
0001
1000
0001
0100
,
0010
1000
0100
1000
,
0010
0100
0001
0010
,
0001
0100
0010
0010
,
0100
0100
0010
1000
,
0001
0010
0001
0100
,
0010
1000
0100
1000
,
0010
1000
1000
0010
,
0100
0001
0010
0001
,
0100
0010
1000
0001
,
1000
0001
0100
0010
,
2000
0000
3010
0010
,
0010
0010
1000
0001
,
0100
0010
1000
0010
,
0100
0010
1000
0001
,
1000
0001
1001
0000
0001
0000
1000
0000
,
0001
0100
0001
0100
,
0010
1000
1000
0010
,
0100
0010
1000
0001
,
0100
0001
0010
0010
,
0010
0001
0010
0001
,
0100
0010
1000
0010
,
0100
0000
0010
1000
0000
0010
0000
1000
,
0000
0010
0000
1000
0010
0000
1000
0000
,
0001
1000
0001
0100
,
0010
1000
1100
1000
,
0010
0100
0001
0010
,
0001
0010
0001
0100
,
0010
1000
0001
1000
,
0010
1000
0100
1000
,
0010
0000
0100
0001
0000
1000
0000
0001
,
1000
0100
1100
0000
1000
0000
0000
0000
,
0001
0000
0100
0000
,
0010
0000
1000
0000
,
0000
0000
0000
0000
,
0001
0000
1000
0000
,
0000
0000
0000
0000
,
0001
0000
0100
0000
,
0000
0000
0010
0000
,
1000
0000
0000
0000
1001
0000
0001
1000
,
0001
0000
1000
0000
,
0001
0000
0100
0000
,
0000
0000
0010
0000
,
0010
0000
0000
0000
0010
0000
0000
0100
,
0000
1000
0000
0000
,
0001
0000
2002
0000
,
3003
0000
0001
0000
,
0200
0000
0310
0000
,
0010
0000
1000
0000
,
1000
0000
0001
0000
,
0001
0000
1000
0000
,
0001
0000
0100
0000
,
0000
0000
0101
0000
,
0000
0000
1100
0000
,
1010
0000
0011
1100
,
1010
0101
1001
1000
,
0001
1000
0001
0100
,
0010
1000
0100
1000
,
0010
1000
0100
1000
,
0010
1000
0100
0010
,
0001
0100
0010
0100
,
0001
0010
0001
0100
,
0001
0010
0001
0100
,
0001
0022
0033
0000
;

//---------------dance-single - ----------------
#NOTES:
     dance-single:
     :
     Beginner:
     1:
     0.086,0.149,0.035,0.000,0.000: // measure 1
0000
0000
0000
0000
,  // measure 2
0000
0000
0000
0000
,  // measure 3
0000
0000
0000
0000
,  // measure 4
0000
0000
0000
0000
,  // measure 5
0000
0000
0000
0000
,  // measure 6
0000
0000
0000
0000
,  // measure 7
0000
0000
0000
0000
,  // measure 8
0000
0000
0000
0000
,  // measure 9
0010
0000
0000
0000
,  // measure 10
0000
0000
0000
0000
,  // measure 11
0100
0000
0000
0000
,  // measure 12
0000
0000
0000
0000
,  // measure 13
1000
0000
0000
0000
,  // measure 14
0001
0000
0000
0000
,  // measure 15
1000
0000
1000
0000
,  // measure 16
0001
0000
0000
0000
,  // measure 17
0110
0010
0000
0000
,  // measure 18
0000
0010
0000
0000
,  // measure 19
0000
1000
0000
0000
,  // measure 20
0000
0001
0000
0000
,  // measure 21
0000
0000
1000
0000
,  // measure 22
0000
0000
0001
0000
,  // measure 23
0000
0000
0100
0000
,  // measure 24
0000
0000
0010
0000
,  // measure 25
0010
0000
0010
0000
,  // measure 26
0000
0000
1000
0000
,  // measure 27
0000
0000
0001
0000
,  // measure 28
0000
0000
1000
0000
,  // measure 29
0000
0000
0001
0000
,  // measure 30
0000
0000
0100
0000
,  // measure 31
0000
0000
0010
0000
,  // measure 32
0000
0000
1000
0000
,  // measure 33
1001
0000
0001
0000
,  // measure 34
0000
0000
0001
0000
,  // measure 35
0000
0000
1000
0000
,  // measure 36
1000
0000
1000
0000
,  // measure 37
0000
1001
0001
0000
,  // measure 38
0000
0000
0001
0000
,  // measure 39
0000
0000
1000
0000
,  // measure 40
0000
0000
1000
0000
,  // measure 41
0000
0000
0010
0000
,  // measure 42
0000
0000
0010
0000
,  // measure 43
0000
0000
0100
0000
,  // measure 44
0000
0000
0100
0000
,  // measure 45
0100
0000
0100
0000
,  // measure 46
0000
0000
0010
0000
,  // measure 47
0000
0000
1000
0000
,  // measure 48
0000
0000
0001
0000
,  // measure 49
0000
0000
1000
0000
,  // measure 50
0000
0000
0001
0000
,  // measure 51
0000
0000
0100
0000
,  // measure 52
0000
0000
0000
0000
,  // measure 53
0000
1000
1000
0000
,  // measure 54
0000
0000
0001
0000
,  // measure 55
0000
0000
0100
0000
,  // measure 56
0000
0000
0000
0000
,  // measure 57
0010
0000
0010
0000
,  // measure 58
0000
0000
0000
0000
,  // measure 59
1000
0000
1000
0000
,  // measure 60
0000
0000
0000
0000
,  // measure 61
0000
0000
0001
0000
,  // measure 62
0001
0000
0000
0000
,  // measure 63
0000
0000
0001
0000
,  // measure 64
0000
0000
0100
0000
,  // measure 65
0100
0000
0100
0000
,  // measure 66
0000
0000
0000
0000
,  // measure 67
0000
0000
0010
0000
,  // measure 68
0000
0000
0010
0000
,  // measure 69
0000
0000
1001
0000
,  // measure 70
0000
0000
0000
0000
,  // measure 71
0000
0000
0001
0000
,  // measure 72
0000
0000
0000
0000
,  // measure 73
0000
0000
1000
0000
,  // measure 74
0000
0000
0010
0000
,  // measure 75
0000
0000
0100
0000
,  // measure 76
0100
0000
0100
0000
,  // measure 77
0000
0000
1001
0000
,  // measure 78
0000
0000
0001
0000
,  // measure 79
0000
0000
1000
0000
,  // measure 80
0000
0000
0010
0000
,  // measure 81
0000
0000
0100
0000
,  // measure 82
0000
0000
0010
0000
,  // measure 83
0000
0000
1000
0000
,  // measure 84
0000
0000
0001
0000
,  // measure 85
1000
0000
0000
0000
;
