#TITLE:Ultra High-Heels;
#SUBTITLE:;
#ARTIST:dj TAKA feat. ANGEL;
#TITLETRANSLIT:;
#SUBTITLETRANSLIT:;
#ARTISTTRANSLIT:;
#CREDIT:;
#BANNER:bn.bmp;
#BACKGROUND:bg.bmp;
#LYRICSPATH:;
#CDTITLE:IIDX 4th style.png;
#MUSIC:Ultra High-Heels.mp3;
#OFFSET:-3.040;
#SAMPLESTART:51.000;
#SAMPLELENGTH:12.000;
#SELECTABLE:YES;
#BPMS:0.000=160.000;
#STOPS:;
#BGCHANGES:;

//---------------dance-single - ----------------
#NOTES:
     dance-single:
     :
     Hard:
     8:
     0.488,0.507,0.088,0.254,0.149:
1000
0000
0001
0000
0100
0000
0000
1000
0000
0001
0100
0000
0010
0000
1000
0000
,
0001
0000
0000
0001
0000
0000
1000
0000
0000
1000
0000
0000
0100
0000
0010
0000
,
1000
0000
0001
0000
0100
0000
0010
1000
0000
0100
0001
0000
2000
0000
0200
0000
,
0000
0000
3300
0000
,
0001
0000
0010
0000
0100
0000
0000
1000
0000
0100
1000
0000
0001
0000
0100
0000
,
0020
0000
0000
0130
0000
0000
0200
0000
0000
0310
0000
0000
0001
0000
1000
0000
,
0100
0000
0010
0000
0001
0000
0001
0010
0000
0010
0100
0000
2000
0000
0200
0000
,
0000
0000
0000
0000
0000
0000
0000
3300
,
0011
0000
0101
0000
1000
0001
1000
0001
,
0000
0000
0000
1000
0100
0010
0001
0100
,
0000
0000
0000
0000
0000
0001
1000
0002
,
0000
1003
0000
0200
0000
1300
0000
0100
,
0000
0000
1100
0000
0010
1000
0001
1000
,
0000
0000
0000
1000
0100
0010
0001
0100
,
0000
0000
0000
0000
0000
0001
1000
0002
,
0000
1000
0000
0100
0000
0010
0000
1003
,
0000
0000
1001
0000
1000
0100
0010
0001
,
0000
0000
0000
0001
0010
1000
0010
1000
,
0000
0000
0000
0000
0000
1000
0100
0002
,
0000
0100
0000
0010
0000
0100
0000
0013
,
0000
0000
0011
0000
0001
0010
0100
1000
,
0000
0000
0000
1000
0001
0100
1000
0010
,
0000
0000
0000
0000
0000
0001
1000
0001
,
0000
1000
0000
0100
0000
0010
0000
0001
,
0000
0000
0011
0000
0001
0200
0000
0301
,
0000
0000
0000
0000
1000
0100
0000
2000
,
0000
3100
0000
0000
0000
1000
0100
0010
,
0000
0001
1000
0001
1000
0001
0100
0001
,
0100
0000
0101
0000
1000
0200
0000
1300
,
0000
0000
0000
0000
1000
0100
0000
0020
,
0000
0002
0000
0000
0033
0001
0100
0001
,
1000
0001
0100
0010
,
1000
0100
0010
0001
0010
1000
0000
1000
,
0000
0001
1000
0001
0100
0001
0000
1000
,
0000
1000
0100
0010
0001
0010
0000
0001
,
0000
0001
0100
0010
1000
0010
0000
0000
,
1000
0100
0010
0001
0010
0001
0000
0100
,
0000
0001
1000
0001
1000
0001
0000
1000
,
0000
2000
0020
0000
0000
0000
3030
0000
,
1000
0100
0010
0001
,
1001
0001
1000
0001
0100
0001
0000
1000
,
0000
1000
0100
0010
0001
0010
0000
0001
,
0000
0001
0100
0010
1000
0010
0000
1000
,
0000
1000
0100
0010
0001
0010
0000
0000
,
1000
0001
0100
0010
1000
0001
1000
1000
,
0000
0000
0000
0000
0001
1000
0001
0000
0000
0000
1000
0100
1000
0000
0010
0001
,
0010
0000
0100
0000
0010
0000
0000
0001
0000
1000
0010
0000
0100
0000
0001
0000
,
1000
0000
0000
1000
0000
0000
0001
0000
0000
0001
0000
0000
0010
0000
0100
0000
,
0001
0000
1000
0000
0010
0000
0100
0001
0000
0010
1000
0000
0002
0000
0020
0000
,
0000
0000
0033
0000
,
1000
0000
0100
0000
0010
0000
0000
0001
0000
0010
0001
0000
1000
0000
0010
0000
,
0200
0000
0000
0310
0000
0000
0020
0000
0000
0130
0000
0000
1000
0000
0001
0000
,
0010
0000
0100
0000
1000
0000
1000
0100
0000
0100
0010
0000
0002
0000
2000
0000
,
0000
0000
0000
0000
,
3003
0000
0000
0000
;

//---------------dance-single - ----------------
#NOTES:
     dance-single:
     :
     Medium:
     5:
     0.377,0.388,0.066,0.232,0.000:
1000
0000
0100
0000
0001
0000
0100
0001
,
0201
0001
0001
0301
,
0001
0000
0100
0000
0010
0000
2000
0200
,
0000
0000
0000
3300
,
1000
0100
1000
0000
0100
0000
0010
0002
,
0100
0100
0100
0103
,
0001
1000
0001
0000
0100
0000
2000
0200
,
0000
0000
0000
3300
,
0101
0000
1000
0000
0001
1000
0001
0000
,
1000
0100
0010
0001
,
0100
0000
1000
0000
0001
0000
1000
0001
,
0000
1000
0000
0001
0000
0100
0000
0010
,
0000
1010
1000
0100
,
1000
0100
0010
0001
,
0100
0000
1000
0000
0010
1000
0001
1000
,
0000
0001
0000
0100
0000
0010
0000
1000
,
0000
1100
1000
0100
,
0010
0000
0001
0000
0100
1000
0100
0000
,
1000
0000
0100
0000
0010
0001
1000
0001
,
0000
1000
0000
1000
0000
1000
0000
1000
,
0000
1001
0001
0100
,
0010
1000
0100
0010
,
0001
0000
1000
0000
0000
1000
0001
1000
,
0000
1000
0000
0100
0000
0010
0000
0001
,
0000
0000
0000
0000
2000
0000
0000
3100
,
0000
0000
0000
0000
0010
0001
0000
0010
,
0000
0001
0000
0000
0000
0000
0001
0000
,
0100
0000
1000
0000
0100
0000
0001
1000
,
0001
0000
1100
0000
1000
0100
0000
0010
,
0000
0000
0000
0000
0001
0200
0000
0001
,
0000
0301
0000
0000
0000
0001
0010
0010
,
1000
1000
0000
0000
,
1000
0000
0001
0000
0100
0001
0000
1000
,
0000
0000
0100
0000
0010
0000
0000
0002
,
0000
0000
1003
0000
0100
0000
0000
0020
,
0000
0031
0100
0000
,
0001
0000
1000
0000
0100
0000
0000
2000
,
0000
0000
0010
0000
3010
0000
0000
2000
,
0000
3001
0000
0000
,
1000
0100
0010
0001
,
0100
0001
0100
0001
0100
0001
0000
0010
,
0000
1000
0010
1000
0010
1000
0000
1000
,
0000
0100
1000
0100
1000
0100
0000
0010
,
0000
0001
0010
0001
0010
0001
0000
0000
,
1000
0100
0010
0001
,
0000
0000
0010
0000
0000
0100
0100
1000
,
0100
0000
1000
0000
0100
0000
0010
0001
,
0020
0031
0200
1300
,
0001
1000
0001
0000
0100
0000
0020
2000
,
0000
0000
0000
3030
,
1000
0100
2000
0000
0100
0000
3100
0000
,
0020
0031
0200
0301
,
1000
0001
0100
0000
0010
0000
2000
0200
,
0000
0000
0000
0000
,
3300
0000
0000
0000
;

//---------------dance-single - ----------------
#NOTES:
     dance-single:
     :
     Easy:
     3:
     0.272,0.328,0.088,0.210,0.000:
1000
1000
1000
1000
,
0002
0103
2000
3100
,
0010
1000
0200
0002
,
0000
0000
0000
0303
,
0001
1000
0100
0010
,
0002
0103
2000
3100
,
1000
0100
0010
0002
,
0000
0000
0000
0003
,
1001
1000
0001
1000
,
0100
0000
1000
0100
,
1000
0000
0000
0000
,
0001
0010
0100
1000
,
0001
1001
1000
1000
,
0000
0000
0001
0000
,
0000
0000
0000
0000
,
0100
0010
1000
0100
,
0001
0101
0100
0100
,
0100
0000
1000
1000
,
1000
0000
0000
0001
,
1000
0100
0010
0001
,
0100
1001
1000
0100
,
1000
0000
0001
0100
,
0001
0000
0000
1000
,
0001
0100
0010
1000
,
0100
0000
1000
0000
,
0001
0000
0100
0000
,
0010
0000
1000
0000
,
0001
0001
1000
1000
,
1001
1001
0100
0000
,
0100
0000
0010
0000
,
0020
0000
0000
0000
,
2000
0000
0000
3030
,
1000
1000
1000
0000
,
0001
0001
0001
0000
,
0100
0100
0100
0000
,
0010
0010
0010
0000
,
1000
1000
1000
0000
,
0001
0001
0001
0000
,
0202
0000
0000
0000
,
0303
0000
0000
0000
,
1010
0010
0010
0000
,
0100
0100
0100
0000
,
1000
1000
1000
0000
,
0001
0001
0001
0000
,
1000
0100
0010
0001
,
0000
1000
0000
0001
,
0100
1000
0100
0001
,
0200
0000
0302
0000
,
0103
0001
0020
2000
,
0000
0000
0000
3030
,
1000
0001
0100
0010
,
2000
0000
3200
0000
,
1300
0010
0002
2000
,
0000
0000
0000
0000
,
3003
0000
0000
0000
;

//---------------dance-single - ----------------
#NOTES:
     dance-single:
     :
     Beginner:
     1:
     0.063,0.119,0.033,0.000,0.000: // measure 1
1000
0000
0000
0000
,  // measure 2
0000
0000
0000
0000
,  // measure 3
0001
0000
0000
0000
,  // measure 4
0000
0000
0000
0000
,  // measure 5
0100
0000
0000
0000
,  // measure 6
0000
0000
0000
0000
,  // measure 7
0010
0000
0000
0000
,  // measure 8
0000
0000
0000
0000
,  // measure 9
1001
0000
0000
0000
,  // measure 10
0000
0000
0000
0000
,  // measure 11
0000
0000
0000
0000
,  // measure 12
0000
0000
0000
0000
,  // measure 13
1000
0000
0000
0000
,  // measure 14
0000
0000
0000
0000
,  // measure 15
0001
0000
0000
0000
,  // measure 16
0000
0000
0000
0000
,  // measure 17
0000
0010
0000
0000
,  // measure 18
0000
0000
0000
0000
,  // measure 19
0100
0000
0000
0000
,  // measure 20
0000
0000
0000
0000
,  // measure 21
0000
1001
0000
0000
,  // measure 22
0000
0000
0000
0000
,  // measure 23
1000
0000
0000
0000
,  // measure 24
0000
0000
0000
0000
,  // measure 25
0001
0000
0000
0000
,  // measure 26
0000
0000
0000
0000
,  // measure 27
1000
0000
0000
0000
,  // measure 28
0000
0000
0000
0000
,  // measure 29
0010
0110
0000
0000
,  // measure 30
0000
0000
0000
0000
,  // measure 31
0100
0000
0000
0000
,  // measure 32
0000
0000
0000
0000
,  // measure 33
0001
0000
0000
0000
,  // measure 34
0001
0000
0000
0000
,  // measure 35
0001
0000
0000
0000
,  // measure 36
0001
0000
0000
0000
,  // measure 37
1000
0000
0000
0000
,  // measure 38
1000
0000
0000
0000
,  // measure 39
1000
0000
0000
0000
,  // measure 40
0000
0000
0000
0000
,  // measure 41
0010
0000
0000
0000
,  // measure 42
0010
0000
0000
0000
,  // measure 43
0010
0000
0000
0000
,  // measure 44
0010
0000
0000
0000
,  // measure 45
0100
0000
0000
0000
,  // measure 46
0000
0100
0000
0010
,  // measure 47
0010
0000
0000
0000
,  // measure 48
1000
0000
0000
0000
,  // measure 49
0010
0000
0000
0000
,  // measure 50
0000
0000
0000
0000
,  // measure 51
0100
0000
0000
0000
,  // measure 52
0001
0000
0000
0000
,  // measure 53
1000
0000
0000
0000
,  // measure 54
0000
0000
0000
0000
,  // measure 55
1000
0000
0000
0000
;
