#TITLE:ULTiMΛTE;
#SUBTITLE:;
#ARTIST:TËЯRA;
#TITLETRANSLIT:ULTiMATE;
#SUBTITLETRANSLIT:;
#ARTISTTRANSLIT:TERRA;
#CREDIT:;
#BANNER:bn.PNG;
#BACKGROUND:bg.PNG;
#LYRICSPATH:;
#CDTITLE:IIDX RED.png;
#MUSIC:ultimate.ogg;
#OFFSET:-0.800;
#SAMPLESTART:43.440;
#SAMPLELENGTH:15.000;
#SELECTABLE:YES;
#DISPLAYBPM:180.000;
#BPMS:0.000=180.000,95.000=90.000,103.000=180.000,183.000=90.000,191.000=180.000,211.000=90.000,219.000=180.000,283.000=175.000,295.000=170.000,299.000=165.000,303.000=150.000,305.000=135.000,306.000=115.000;
#STOPS:30.000=0.340
;
#BGCHANGES:;

//---------------dance-single - ----------------
#NOTES:
     dance-single:
     :
     Hard:
     8:
     0.438,0.542,0.174,0.091,0.058: // measure 1
0000
0000
0000
0000
,  // measure 2
0000
0000
0000
0000
,  // measure 3
0000
0000
0000
0000
,  // measure 4
0000
0000
0000
0000
,  // measure 5
0000
0000
0000
0000
,  // measure 6
0000
0000
0000
0000
,  // measure 7
0000
0000
0000
0000
,  // measure 8
0000
0000
0000
0000
0000
0000
0001
0100
,  // measure 9
0001
0100
0000
0010
0000
0100
0000
1000
,  // measure 10
0100
1000
0000
1000
0100
0010
0001
0000
,  // measure 11
0001
0100
0010
0000
0010
0000
0100
0000
,  // measure 12
0100
0000
1000
0000
0001
1000
0001
1000
,  // measure 13
0010
1000
0000
0100
0000
1000
0000
1000
,  // measure 14
0100
1000
0000
1000
0100
1000
0100
0000
,  // measure 15
0010
0001
0100
0001
1000
0010
0000
0000
,  // measure 16
0000
0000
0001
0100
0010
1000
0001
0000
,  // measure 17
1000
0100
0000
0010
0000
0001
0000
0100
,  // measure 18
0001
0100
0000
0000
0000
0000
0110
0000
,  // measure 19
0010
0100
0000
0001
0000
1000
0000
1000
,  // measure 20
0001
0100
0000
0000
0000
0000
1010
0000
,  // measure 21
0001
0100
0000
1000
0000
0100
0000
0010
,  // measure 22
0001
0010
0100
1000
,  // measure 23
0001
0000
0100
0000
0010
2000
0002
0000
,  // measure 24
0000
0000
0000
0000
0000
0000
0000
0000
3003
0000
0000
0000
1000
0000
0000
0001
,  // measure 25
0000
0000
0010
0000
0100
0000
0000
0000
0010
0100
0001
1000
0010
0000
0000
1000
,  // measure 26
0000
0000
0100
0000
0010
0000
0000
0000
0001
0100
0010
1000
0001
0000
0000
0000
,  // measure 27
0000
1000
0100
0010
,  // measure 28
0001
0100
0010
1000
,  // measure 29
0000
0001
0002
0000
1000
0000
1000
0000
,  // measure 30
0000
1000
2000
0000
3003
0000
0110
0000
,  // measure 31
0000
0010
0000
0000
0100
0000
0010
0000
,  // measure 32
0000
0000
0001
0100
0010
1000
0010
0000
,  // measure 33
0000
1000
0000
0000
0100
0000
1100
0000
,  // measure 34
0000
0000
1000
0100
1000
0100
1000
0000
,  // measure 35
0000
0000
0001
0100
0001
0100
0001
0000
,  // measure 36
0000
0010
0000
0011
,  // measure 37
0000
0000
0000
1000
0001
1000
0010
0000
,  // measure 38
0110
0000
1100
0000
0011
0000
0001
0010
,  // measure 39
0001
0010
0100
1000
0100
1000
0010
1000
,  // measure 40
0001
1000
0010
1000
0001
0100
0001
1000
,  // measure 41
0001
1000
0010
0001
0010
0100
1000
0100
,  // measure 42
0010
0001
1000
0010
1000
0001
0100
0000
,  // measure 43
1000
0100
0010
0000
0001
1000
0010
0000
,  // measure 44
0001
1000
0100
0000
0001
1000
0010
0000
,  // measure 45
0001
1000
0100
0000
1000
0100
0001
0000
,  // measure 46
0010
1000
0001
0000
0100
0010
1000
0000
,  // measure 47
0001
0100
0010
1000
,  // measure 48
0001
0000
0000
0000
0001
0000
1000
0000
0100
0000
1000
0001
0100
0000
0000
0000
,  // measure 49
0010
0110
0110
0110
,  // measure 50
1000
0000
0001
0000
0010
1000
0000
0000
,  // measure 51
0001
0100
0010
2000
,  // measure 52
0000
0001
0002
0000
3003
0000
0220
0000
,  // measure 53
0000
0000
0000
0000
0000
0000
0000
0000
0330
0000
0000
0000
1000
0000
0000
0001
,  // measure 54
0000
0000
0100
0000
0010
0000
0000
0000
1000
0100
1000
0100
1000
0000
0000
0010
,  // measure 55
0000
0000
0001
0000
0100
0000
0000
0000
0001
1000
0010
1000
0001
0000
0000
0000
,  // measure 56
1000
0100
0010
0001
,  // measure 57
0100
1000
0001
0200
,  // measure 58
0000
0010
0310
0000
0001
0000
2000
0000
,  // measure 59
0000
0100
3100
0000
0000
0000
1001
0000
,  // measure 60
1000
0100
0000
0010
0001
0000
0110
0000
,  // measure 61
0001
0000
0001
0010
0100
1000
0100
0000
,  // measure 62
1000
0100
0000
0001
0010
0000
0110
0000
,  // measure 63
0010
0000
0001
1000
0010
1000
0001
0000
,  // measure 64
0000
0000
1000
0001
0100
0010
1000
0000
,  // measure 65
0000
0000
1000
0001
0010
0100
0001
0000
,  // measure 66
0000
0000
0010
1000
0001
0100
0010
0000
,  // measure 67
0000
1000
0000
1001
,  // measure 68
0000
0000
1000
0001
1000
0010
1000
0000
,  // measure 69
0000
1000
0000
0101
,  // measure 70
0000
0000
0000
0001
0010
0100
1100
0000
,  // measure 71
0011
0000
0110
0000
1001
0000
0001
0010
,  // measure 72
0001
0010
0100
1000
0100
1000
0010
1000
,  // measure 73
0010
1000
0001
1000
0010
1000
0002
0000
,  // measure 74
0000
0100
0000
0000
1000
0000
0103
0000
,  // measure 75
0000
0010
0000
1000
,  // measure 76
0000
0000
0000
0001
0010
0100
1000
0100
,  // measure 77
0010
0000
0001
0000
0000
0000
0001
0000
1000
0000
0000
0000
0000
0001
0000
0000
;

//---------------dance-single - ----------------
#NOTES:
     dance-single:
     :
     Medium:
     6:
     0.345,0.383,0.208,0.141,0.004: // measure 1
0000
0000
0000
0000
,  // measure 2
0000
0000
0000
0000
,  // measure 3
0000
0000
0000
0000
,  // measure 4
0000
0000
0000
0000
,  // measure 5
0000
0000
0000
0000
,  // measure 6
0000
0000
0000
0000
,  // measure 7
0000
0000
0000
0000
,  // measure 8
0000
0000
1001
1000
,  // measure 9
0100
0000
0010
0000
0001
0100
0000
1000
,  // measure 10
0000
0100
0000
0010
0100
0010
0100
0000
,  // measure 11
0001
0100
1000
1100
,  // measure 12
0010
0000
0011
0000
0001
0100
0001
0000
,  // measure 13
0100
1000
0010
0100
,  // measure 14
1000
0000
0100
0000
0010
1000
0010
0000
,  // measure 15
0100
1000
0001
0100
,  // measure 16
1000
0100
1000
0100
,  // measure 17
1000
0100
0000
0010
0000
0001
0000
0100
,  // measure 18
1000
0100
0000
0000
0000
0000
0010
0000
,  // measure 19
0001
1000
0000
0100
0000
1000
0000
0010
,  // measure 20
1000
0010
0000
0000
0000
0000
0100
0000
,  // measure 21
1000
0100
0000
0010
0000
0001
0000
0100
,  // measure 22
0000
1000
0000
0000
0100
0000
1100
0000
,  // measure 23
0000
0000
0000
2002
,  // measure 24
0000
0000
3003
0020
,  // measure 25
0000
0130
1000
0001
,  // measure 26
0010
0000
0100
0000
1000
0100
0010
0000
,  // measure 27
0000
0001
0100
1000
,  // measure 28
0010
0100
1000
0001
,  // measure 29
0000
0001
0002
0000
0000
0000
1000
0000
,  // measure 30
0000
1000
1003
0000
0000
0000
0010
0000
,  // measure 31
0000
0100
0000
0000
1000
0000
1100
0000
,  // measure 32
0000
0000
0010
1000
0010
1000
0010
0000
,  // measure 33
0000
0011
0000
0000
0100
0000
0101
0000
,  // measure 34
0000
0000
0001
0100
0001
0100
0001
0000
,  // measure 35
0000
0000
0010
1000
0010
1000
0010
0000
,  // measure 36
0100
1000
0000
0011
,  // measure 37
0000
0000
0001
1000
,  // measure 38
0100
0000
0010
0000
0001
0000
1000
0100
,  // measure 39
1000
0000
0010
0000
0100
0000
0001
0100
,  // measure 40
0001
0000
0010
0000
1000
0000
0010
0100
,  // measure 41
0010
0000
1000
0000
0001
0000
0100
1000
,  // measure 42
0100
0000
0010
0000
1000
0000
0001
0100
,  // measure 43
0001
0010
1000
1010
,  // measure 44
0010
0110
0001
0011
,  // measure 45
0100
1000
0100
0010
,  // measure 46
1000
0100
1000
1001
,  // measure 47
0000
0010
0001
0100
,  // measure 48
1000
2020
3030
0000
,  // measure 49
1000
0100
0010
0002
,  // measure 50
0000
0000
0000
0103
1000
0100
0000
0000
,  // measure 51
0010
0100
1000
1010
,  // measure 52
0000
0001
2002
0000
0000
0000
3003
0000
,  // measure 53
0000
0000
0000
2200
,  // measure 54
0000
0000
3300
0000
0010
0010
0020
0000
,  // measure 55
0000
0000
0031
0000
0001
0100
1010
0000
,  // measure 56
0000
1000
0100
0010
,  // measure 57
0001
0100
1000
0020
,  // measure 58
0000
0100
0130
0000
0100
0000
2000
0000
,  // measure 59
0000
0100
0200
0000
3300
0000
0011
0000
,  // measure 60
0000
0110
0000
0000
0010
0000
1010
0000
,  // measure 61
0000
0000
1000
0100
0010
0001
0010
0000
,  // measure 62
0000
0011
0000
0000
0010
0000
0110
0000
,  // measure 63
0000
0000
1000
0100
1000
0100
1000
0000
,  // measure 64
0000
0000
0001
0100
0001
0100
0001
0000
,  // measure 65
0000
0000
0010
0001
0010
0001
0010
0000
,  // measure 66
0000
0000
0010
1000
0010
1000
0010
0000
,  // measure 67
0000
1000
0000
1100
,  // measure 68
0000
0000
1000
0100
0010
0001
0010
0000
,  // measure 69
0000
0001
0000
0100
,  // measure 70
0000
0000
0000
0000
1000
0100
0010
0000
,  // measure 71
0001
0100
1000
2002
,  // measure 72
0000
0000
0000
0000
0000
0000
0000
3003
,  // measure 73
0000
0000
0000
1000
,  // measure 74
0000
0100
0000
0000
0010
0000
0001
0000
,  // measure 75
0000
0000
0000
1000
,  // measure 76
0000
0000
0100
1000
,  // measure 77
0000
0000
0001
0000
0000
0000
0000
0000
1000
0000
0000
0000
0000
0001
0000
0000
;

//---------------dance-single - ----------------
#NOTES:
     dance-single:
     :
     Easy:
     4:
     0.228,0.287,0.025,0.249,0.000: // measure 1
0000
0000
0000
0000
,  // measure 2
0000
0000
0000
0000
,  // measure 3
0000
0000
0000
0000
,  // measure 4
0000
0000
0000
0000
,  // measure 5
0000
0000
0000
0000
,  // measure 6
0000
0000
0000
0000
,  // measure 7
0000
0000
0000
0000
,  // measure 8
0000
0000
0000
0100
,  // measure 9
1000
0100
0010
0001
,  // measure 10
0010
0100
1000
0010
,  // measure 11
0100
2000
3000
0200
,  // measure 12
0300
0020
0030
0001
,  // measure 13
0100
1000
0010
0100
,  // measure 14
1000
0001
0010
0100
,  // measure 15
1000
0100
0010
1000
,  // measure 16
0000
0100
1000
0002
,  // measure 17
0000
0000
0010
0010
,  // measure 18
0000
0000
0100
0100
,  // measure 19
0000
0000
0000
0000
1000
0000
1000
0003
,  // measure 20
0000
0010
0000
1000
,  // measure 21
0100
0010
0001
0100
,  // measure 22
1000
0010
0100
2000
,  // measure 23
0000
0000
0000
0200
,  // measure 24
0000
0000
3300
0010
,  // measure 25
0000
0001
0010
0100
,  // measure 26
0000
0000
1000
0000
0100
1000
0100
0000
,  // measure 27
0000
0010
0001
0100
,  // measure 28
1000
0010
0100
2000
,  // measure 29
0000
0000
0000
0002
,  // measure 30
0000
3003
0000
0110
,  // measure 31
0000
0000
0010
0010
,  // measure 32
0000
1000
0100
0010
,  // measure 33
0000
0000
0001
0001
,  // measure 34
0000
1000
0100
0001
,  // measure 35
0000
0001
0010
1000
,  // measure 36
0000
0100
0000
1000
,  // measure 37
0000
0000
0010
1000
,  // measure 38
0100
0010
0001
2000
,  // measure 39
0000
3200
0000
0320
,  // measure 40
0000
0032
0000
0023
,  // measure 41
0000
0230
0000
2300
,  // measure 42
0000
3002
0000
0100
,  // measure 43
0000
0100
0000
0100
,  // measure 44
0000
0100
0000
0203
,  // measure 45
0000
0320
0000
2030
,  // measure 46
0000
3200
0000
0310
,  // measure 47
0000
0001
0000
1000
,  // measure 48
0000
0100
0000
0000
,  // measure 49
1000
0001
0100
0010
,  // measure 50
0000
0000
1000
0000
,  // measure 51
0100
1000
0010
0002
,  // measure 52
0000
0200
0000
0303
,  // measure 53
0000
0000
0000
0010
,  // measure 54
0000
0000
1000
1000
,  // measure 55
0000
0000
0001
0010
,  // measure 56
0000
0100
1000
0010
,  // measure 57
1000
0001
0100
2000
,  // measure 58
0000
0000
0000
0020
,  // measure 59
0000
3030
0000
0120
,  // measure 60
0000
0000
0000
0130
,  // measure 61
0000
1000
0100
0022
,  // measure 62
0000
0000
0000
0033
,  // measure 63
0000
0001
0001
0001
,  // measure 64
0000
1000
1000
1000
,  // measure 65
0000
0100
0100
0100
,  // measure 66
0000
0010
0010
0010
,  // measure 67
0000
1000
0000
0100
,  // measure 68
0000
1000
1000
1000
,  // measure 69
0000
0001
0000
0010
,  // measure 70
0000
0000
0100
1000
,  // measure 71
0100
0010
0001
2000
,  // measure 72
0000
0000
0000
0000
,  // measure 73
0000
0000
0000
0001
,  // measure 74
0000
0000
0000
3002
,  // measure 75
0000
0000
0000
2000
,  // measure 76
0000
0000
0000
0000
,  // measure 77
0000
0000
0000
0000
0000
0000
0000
0000
0000
0000
0000
0000
0000
3003
0000
0000
;

//---------------dance-single - ----------------
#NOTES:
     dance-single:
     :
     Beginner:
     2:
     0.083,0.159,0.025,0.000,0.004: // measure 1
0000
0000
0000
0000
,  // measure 2
0000
0000
0000
0000
,  // measure 3
0000
0000
0000
0000
,  // measure 4
0000
0000
0000
0000
,  // measure 5
0000
0000
0000
0000
,  // measure 6
0000
0000
0000
0000
,  // measure 7
0000
0000
0000
0000
,  // measure 8
0000
0000
0000
1000
,  // measure 9
0000
0000
0000
0000
,  // measure 10
0000
0000
0000
0001
,  // measure 11
0000
0000
0000
0000
,  // measure 12
0000
0000
0000
0100
,  // measure 13
0000
0000
0000
0000
,  // measure 14
0000
0000
0000
0010
,  // measure 15
0000
0000
0000
0000
,  // measure 16
0000
1000
1000
1000
,  // measure 17
0000
0000
0000
0000
,  // measure 18
0000
0000
0000
0001
,  // measure 19
0000
0000
0000
0000
,  // measure 20
0000
0000
0000
0100
,  // measure 21
0000
0000
0000
0000
,  // measure 22
0000
0000
0000
0000
,  // measure 23
0000
0000
0000
0110
,  // measure 24
0000
0000
0000
1000
,  // measure 25
0000
0000
0001
0001
,  // measure 26
0000
0000
1000
1000
,  // measure 27
0000
0000
0000
0000
,  // measure 28
0000
0000
0000
0001
,  // measure 29
0000
0000
0000
1000
,  // measure 30
0000
0000
0000
0010
,  // measure 31
0000
0000
0000
0000
,  // measure 32
0000
0100
0000
0100
,  // measure 33
0000
0000
0000
0000
,  // measure 34
0000
1000
0000
1000
,  // measure 35
0000
0001
0000
0001
,  // measure 36
0000
0001
0000
0001
,  // measure 37
0000
0000
0000
1000
,  // measure 38
0000
0001
0000
1001
,  // measure 39
0000
0000
0000
0000
,  // measure 40
0000
0000
0000
0000
,  // measure 41
0000
0000
0000
0000
,  // measure 42
0000
0000
0000
0010
,  // measure 43
0000
0000
0000
0100
,  // measure 44
0000
0000
0000
1000
,  // measure 45
0000
0000
0000
0001
,  // measure 46
0000
0000
0000
1000
,  // measure 47
0000
0000
0000
0000
,  // measure 48
0000
0000
0000
0001
,  // measure 49
0000
0000
0000
0000
,  // measure 50
0000
0000
1000
0000
,  // measure 51
1000
0000
0000
0001
,  // measure 52
0000
0001
0000
1001
,  // measure 53
0000
0000
0000
0100
,  // measure 54
0000
0000
0000
0010
,  // measure 55
0000
0000
1000
1000
,  // measure 56
0000
0000
0000
0000
,  // measure 57
0000
0000
0000
0001
,  // measure 58
0000
0000
0000
0100
,  // measure 59
0000
0000
0000
0010
,  // measure 60
0000
0000
0000
0000
,  // measure 61
0000
1000
0000
1000
,  // measure 62
0000
0000
0000
0000
,  // measure 63
0000
0001
0000
0001
,  // measure 64
0000
1000
0000
1000
,  // measure 65
0000
0100
0000
0100
,  // measure 66
0000
0010
0000
0010
,  // measure 67
0000
0010
0000
0010
,  // measure 68
0000
0100
0000
0100
,  // measure 69
0000
1000
0000
0001
,  // measure 70
0000
0000
0000
1000
,  // measure 71
0000
0001
0000
1000
,  // measure 72
0000
0000
0000
0000
,  // measure 73
0000
0000
0000
0000
,  // measure 74
0000
0000
0000
0000
,  // measure 75
0000
0000
0000
0000
,  // measure 76
0000
0000
0000
0000
,  // measure 77
0000
0000
0000
0000
0000
0000
0000
0000
0000
0000
0000
0000
0000
0001
0000
0000
;
