#TITLE:Turii -Panta rhei-;
#SUBTITLE:;
#ARTIST:Zektbach;
#TITLETRANSLIT:;
#SUBTITLETRANSLIT:;
#ARTISTTRANSLIT:;
#CREDIT:;
#BANNER:bn.PNG;
#BACKGROUND:bg.PNG;
#LYRICSPATH:;
#CDTITLE:kxlxj.png;
#MUSIC:Turii-Pantarhei-.mp3;
#OFFSET:-0.260;
#SAMPLESTART:40.020;
#SAMPLELENGTH:12.000;
#SELECTABLE:YES;
#BPMS:0.000=148.000,48.000=74.000,64.000=148.000,192.000=74.000,208.000=148.000,240.000=74.000;
#STOPS:;
#BGCHANGES:;

//---------------dance-single - ----------------
#NOTES:
     dance-single:
     :
     Hard:
     7:
     0.476,0.453,0.116,0.372,0.194: // measure 1
0000
0000
0000
0000
,  // measure 2
0000
0000
0000
0000
,  // measure 3
0000
0000
0000
0000
,  // measure 4
0000
0000
0000
0000
,  // measure 5
1000
0000
0001
0010
0000
0010
0100
0000
0100
1000
0000
1000
,  // measure 6
0100
0000
0010
0001
0000
0010
1000
0000
0001
0100
0000
0001
,  // measure 7
0010
0000
0100
1000
0000
0100
0010
0000
0001
1000
0000
1000
,  // measure 8
0001
0000
0001
0010
0000
0010
0100
0000
0100
1000
0000
1000
,  // measure 9
0100
0000
0001
0010
0000
0001
0100
0000
0010
1000
0000
0001
,  // measure 10
1000
0000
1000
0100
0000
0010
0001
0000
0001
0100
0000
0010
,  // measure 11
0100
0000
1000
0100
0000
0001
1000
0000
1000
0001
0000
0010
,  // measure 12
0100
0000
1000
0100
0000
0100
0010
0000
0010
0001
0000
0001
,  // measure 13
1000
0002
0203
0302
,  // measure 14
0023
0000
0130
0000
,  // measure 15
2000
3200
2300
3020
,  // measure 16
0230
0000
0302
0000
,  // measure 17
1003
0100
0010
0001
0010
0100
0001
0100
,  // measure 18
0010
1000
0010
1000
1001
0001
1001
0000
,  // measure 19
1000
0100
0010
0001
0010
0001
0010
0100
,  // measure 20
0001
0100
0010
1000
1010
0010
0110
0000
,  // measure 21
0001
1000
0001
0000
0200
0000
0310
0000
,  // measure 22
1000
0100
0010
0000
0002
0000
0103
0000
,  // measure 23
1000
0200
1300
0020
,  // measure 24
0031
0000
0100
0001
0200
0000
0310
0000
,  // measure 25
2100
0000
3100
0000
1000
0100
1000
0000
,  // measure 26
0020
0000
0130
0000
0001
1000
0010
0000
,  // measure 27
0200
0310
0200
0310
,  // measure 28
0001
0010
0100
1000
0100
0010
0001
0010
,  // measure 29
1000
0001
2000
0000
3001
0000
0101
0000
,  // measure 30
0001
0010
0002
0000
0103
0000
0110
0000
,  // measure 31
0010
1000
0020
0000
0130
0000
0110
0000
,  // measure 32
1000
0100
2000
0000
3100
0000
0110
0000
,  // measure 33
0002
0103
0020
0130
,  // measure 34
0020
1030
0200
1300
,  // measure 35
1010
0000
1000
0100
1000
0000
0010
0001
,  // measure 36
1000
0001
0100
0020
,  // measure 37
1030
0100
0010
0001
0010
0100
0001
0100
,  // measure 38
0010
1000
0010
1000
0001
1000
0001
1000
,  // measure 39
0001
0010
0100
1000
0100
0010
0001
1000
,  // measure 40
0001
1000
0010
1000
0001
0100
0001
0100
,  // measure 41
0001
0010
0100
1000
0100
0010
0001
0010
,  // measure 42
0001
0001
1000
1000
0001
0001
1000
1000
,  // measure 43
0001
0010
0100
0010
0100
0010
0100
0001
,  // measure 44
0010
0001
0010
0100
1000
0100
0010
0000
,  // measure 45
1000
0100
1000
0010
0001
0100
0001
0010
,  // measure 46
0100
1000
0001
0100
0001
0010
1010
0000
,  // measure 47
0001
0010
0100
1000
0100
0010
0001
0010
,  // measure 48
0001
0010
0100
0010
1000
0010
0011
0000
,  // measure 49
0002
0000
1003
0000
2000
0000
3100
0010
,  // measure 50
0002
1003
0020
0130
,  // measure 51
1000
0100
0010
0000
0001
0000
1000
0000
,  // measure 52
0010
1000
0100
0010
0002
0200
0000
0303
,  // measure 53
1000
0100
1000
0000
0020
0000
0130
0000
,  // measure 54
0001
1000
0001
0000
0020
0000
0031
0000
,  // measure 55
0100
0001
0100
0000
0020
0000
0130
0000
,  // measure 56
2000
0000
3100
0000
0020
0000
0031
0010
,  // measure 57
0002
0000
0103
0000
0010
0100
0010
0000
,  // measure 58
1000
0000
1100
0000
0010
1000
0001
0000
,  // measure 59
0200
0000
1300
0000
1000
0100
0010
0000
,  // measure 60
0012
0103
1020
0130
,  // measure 61
0001
1000
0010
1000
0000
0010
0000
1000
0000
0002
0000
0000
0003
0000
1000
0100
,  // measure 62
0010
0000
0001
0010
0000
0100
0000
2000
0000
0000
0000
0000
0000
0000
3000
0000
,  // measure 63
0001
1000
0001
1000
0000
0010
1000
0010
0000
0020
0000
0000
0030
0000
0100
1000
,  // measure 64
0100
0000
1000
0100
0000
0010
0000
0002
0000
0000
0000
0000
0000
0000
0000
0000
,  // measure 65
2000
0000
0000
0000
,  // measure 66
3003
0000
0000
0000
;

//---------------dance-single - ----------------
#NOTES:
     dance-single:
     :
     Medium:
     5:
     0.347,0.403,0.209,0.240,0.000:
0000
0000
0000
0000
,
0000
0000
0000
0000
,
0000
0000
0000
0000
,
0000
0000
0000
0000
,
1100
0110
0011
0101
,
0001
1000
0010
0100
,
0110
0110
1001
1001
,
1000
0100
0010
0001
,
0200
0302
2003
3002
,
1003
1001
0001
0101
,
0020
0230
0320
0230
,
0310
1100
0010
0011
,
1001
0010
0001
0010
,
0200
0000
1300
0000
,
1000
0000
0001
0000
0100
0000
0000
0010
,
0200
0000
0301
0000
,
1001
0001
1000
0100
,
0011
0100
0101
1010
,
0110
1000
0100
0010
,
0011
0000
0100
0000
1100
0001
1001
0000
,
1002
0000
1003
0000
1000
0100
1000
0000
,
0010
0000
0001
0000
0100
0001
0100
0000
,
0010
0200
0310
2000
,
3100
0000
0001
0010
0001
0000
0100
0000
,
0002
0103
2000
3100
,
0020
1030
0002
0013
,
0001
0000
1000
0001
1000
0000
0010
0000
,
0100
0000
1000
0000
1000
0100
0010
0000
,
0002
0000
1003
0000
0010
1000
0010
0000
,
0100
0000
0010
0000
0001
0010
0001
0000
,
0100
0000
0010
0000
0100
0000
1000
0001
,
1000
0010
1000
0010
,
0100
0100
0010
0010
,
1000
1000
0001
0001
,
2000
0000
0000
0000
,
0002
0000
0000
3003
,
0001
0000
1000
0000
0001
1000
0001
0000
,
0010
0000
0100
0000
1000
1000
1000
0000
,
0010
1010
0100
0110
,
0001
1000
0001
1000
0010
1000
0010
0000
,
0010
0000
1010
0000
0001
0100
0001
0000
,
0010
0000
0100
0000
0001
0001
0001
0000
,
2000
3001
0200
0310
,
0010
1000
0010
1000
0001
0100
0001
0000
,
0001
1000
0001
0010
,
0100
0000
1000
0000
0001
0100
0101
0000
,
0101
0001
0100
1000
,
0100
0000
0001
0000
0010
1000
0010
0000
,
1000
0001
0100
1000
,
0100
0010
0002
0000
,
1003
0001
0100
0010
,
0100
0000
0010
0000
2000
0002
0000
3003
,
1000
0100
1000
0000
0100
0000
0010
0000
,
0001
0010
0001
0000
0100
0000
0001
0000
,
0010
0100
0010
0000
1000
0000
0001
0000
,
1000
0100
1000
0000
1000
0000
0100
0000
,
0010
0001
0010
0000
0100
0000
0001
0000
,
1000
0001
1000
0000
0010
0000
0100
0000
,
0010
1000
0010
0000
0001
0000
0100
0000
,
0002
0000
0000
2000
0000
0000
3003
0000
,
1000
0100
0010
0001
,
0010
0100
2000
3002
,
0103
0001
0010
0100
,
1000
0100
0010
0002
,
2000
0000
0000
0000
,
3003
0000
0000
0000
;

//---------------dance-single - ----------------
#NOTES:
     dance-single:
     :
     Easy:
     3:
     0.227,0.352,0.077,0.279,0.000:
0000
0000
0000
0000
,
0000
0000
0000
0000
,
0000
0000
0000
0000
,
0000
0000
0000
0000
,
1000
1000
1000
1000
,
0000
0000
0000
0000
,
0001
0001
0001
0001
,
0000
0000
0000
0000
,
0010
0010
0010
0010
,
0000
0000
0000
0000
,
0100
0100
0100
0100
,
0000
0000
0000
0000
,
0000
0002
1003
2000
,
3100
0000
0001
0000
,
0020
0030
0200
0300
,
0002
0000
1003
0000
,
1100
1000
0100
0010
,
0011
0100
0110
0110
,
0110
0010
0100
0010
,
1001
0100
1001
0010
,
0002
0000
0000
1003
,
2000
0000
0000
3000
,
0000
0002
0103
0020
,
2030
0000
3100
0000
,
0001
1000
0001
0000
,
0100
0010
0100
1000
,
0020
0000
0000
0000
,
2000
0000
0000
3030
,
0001
0100
0001
0100
,
0001
1000
0010
1000
,
0001
2000
3100
0010
,
0002
0000
0103
0000
,
0010
1000
0010
0000
,
0002
0000
1003
0100
,
0020
0000
0000
0000
,
0002
0000
0000
0033
,
0001
1000
0001
1000
,
0010
1000
0001
0010
,
1000
0100
0001
0100
,
1000
0010
1000
0001
,
0100
0001
0010
0001
,
0010
0100
1000
0100
,
1000
1000
0001
0001
,
0100
0010
0100
1000
,
0001
0001
1000
1000
,
0001
1000
0001
1000
,
0010
0100
0010
0100
,
0010
0010
0100
0100
,
2002
0000
3003
0000
,
0200
0000
0300
0000
,
0020
0000
0030
0000
,
2000
0000
3001
0000
,
0001
1000
0200
0000
,
0310
0000
2000
0000
,
3100
0010
0001
0010
,
0002
0000
0103
0000
,
0010
1000
0010
1000
,
0002
0000
1003
0000
,
2000
0000
3001
0000
,
0200
0000
0020
0330
,
2002
0000
0000
3000
,
0200
0000
0000
0303
,
0220
0000
0000
0300
,
2030
0000
0000
0000
,
0002
0000
0000
0000
,
3003
0000
0000
0000
;

//---------------dance-single - ----------------
#NOTES:
     dance-single:
     :
     Beginner:
     1:
     0.063,0.124,0.015,0.000,0.000:
0000
0000
0000
0000
,
0000
0000
0000
0000
,
0000
0000
0000
0000
,
0000
0000
0000
0000
,
0001
0000
0000
0000
,
0000
0000
0000
0000
,
1000
0000
0000
0000
,
0000
0000
0000
0000
,
0010
0000
0000
0000
,
0000
0000
0000
0000
,
0100
0000
0000
0000
,
0000
0000
0000
0000
,
1000
0000
0000
0000
,
0000
0000
0000
0000
,
0001
0000
0000
0000
,
0000
0000
0000
0000
,
0010
0000
0000
0000
,
0100
0000
0100
0100
,
0100
0000
0000
0000
,
0001
0000
1000
1000
,
1000
0000
0000
0000
,
0001
0000
0000
0000
,
0000
0000
0000
0000
,
0100
0000
0100
0000
,
0100
0000
0000
0000
,
0010
0000
0000
0000
,
0001
0000
0000
0000
,
1000
0000
0000
0000
,
1000
0000
0000
0000
,
0100
0000
0000
0000
,
0010
0000
0000
0000
,
0001
0000
0000
0000
,
1000
0000
0000
0000
,
1000
0000
0000
0000
,
0001
0000
0000
0000
,
0100
0000
0000
0000
,
1000
0000
0000
0000
,
0001
0000
0000
0000
,
0001
0000
0000
0000
,
0001
0000
0000
0000
,
0100
0000
0000
0000
,
0010
0000
0000
0000
,
1000
0000
0000
0000
,
0001
0000
0000
0000
,
0100
0000
0000
0000
,
0000
0000
0000
0000
,
0010
0000
0000
0000
,
0000
0000
0000
0000
,
1001
0000
0000
0000
,
0001
0000
0000
0000
,
0100
0000
0000
0000
,
0010
0000
0000
0000
,
1000
0000
0000
0000
,
1000
0000
0000
0000
,
0001
0000
0000
0000
,
0100
0000
0000
0000
,
0010
0000
0000
0000
,
1000
0000
0000
0000
,
0001
0000
0000
0000
,
1000
0000
0000
0000
,
1001
0000
0000
0000
,
0000
0000
0000
0000
,
0010
0000
0000
0000
,
0000
0000
0000
0000
,
0100
0000
0000
0000
;

//---------------dance-single - ----------------
#NOTES:
     dance-single:
     :
     Challenge:
     9:
     0.623,0.755,0.093,0.194,0.717:
0000
0000
0000
0000
,
0000
0000
0000
0000
,
0000
0000
0000
0000
,
0000
0000
0000
0000
,
1000
0100
0010
0001
0010
0100
1000
0001
0100
0001
0010
0100
,
1000
0100
0010
0001
0100
0001
1000
0100
0010
0001
0010
0100
,
0001
0010
0100
1000
0100
0010
0001
1000
0010
1000
0100
0010
,
0001
0010
0100
1000
0010
1000
0001
0010
0100
1000
0100
0010
,
0001
1000
0100
0010
0001
0010
0100
0001
1000
0010
1000
0001
,
1000
0001
1000
0010
1000
0001
0100
0010
0001
0010
0100
1000
,
0001
0100
0010
1000
0100
0010
0001
1000
0001
1000
0010
0100
,
0010
1000
0100
0010
0001
0100
0010
1000
0001
1000
0010
1000
,
1001
0001
0200
0310
2000
3100
0020
0031
,
0200
0000
0000
0010
0001
0300
0000
0000
,
2000
3100
0020
0031
0200
0301
0020
1030
,
0002
0103
2000
3100
0020
0000
0000
0000
,
1030
0001
0100
0010
1000
0100
0010
0001
,
0010
0000
0100
0000
0010
0000
1000
0000
0001
1000
0010
0100
0001
0000
0000
0000
,
1000
0001
1000
0010
1000
0001
0010
1000
,
0100
0000
0001
0000
0100
0000
1000
0000
0001
0010
0100
0010
0001
0000
0000
0000
,
1100
0100
0010
0001
0010
0100
1000
0000
,
0001
1000
0010
1000
0001
0100
0001
0100
,
0001
0000
0000
0001
0100
0000
0000
0010
0100
0000
0000
0010
1000
0000
0000
1000
,
0100
0000
0000
0010
0001
0000
0000
0001
1000
0000
0000
0010
1000
0000
0000
0001
,
0100
0000
0000
1000
0100
0000
0000
0010
0001
0000
0000
0000
0010
0000
0000
0100
,
0010
0000
0000
0010
0100
0000
0000
1000
0100
0000
0000
0010
0001
0000
0000
0010
,
0100
0000
0000
1000
0001
0000
0000
0001
0010
0000
1000
0000
0100
0000
1000
0000
,
0100
0100
0010
0010
0001
0001
1000
1000
,
1002
0000
0000
0000
1000
0000
0000
0000
0013
0000
0000
0000
0010
0000
0000
0010
,
0200
0000
0000
0000
1000
0000
0000
0000
0310
0000
0000
1000
0001
0000
0000
0001
,
0100
0000
0000
0010
0100
0000
0000
0010
1000
0000
0000
0001
0100
0000
0000
1000
,
0100
0000
0000
0010
0001
0000
0000
0001
1000
0000
0000
0010
1000
0000
0000
0000
,
0120
0000
0000
0000
1000
0000
0000
0000
0031
0000
0000
0001
0010
0000
0000
0100
,
2000
0100
0010
3001
,
1001
0000
0000
0010
0100
0000
0000
0010
1000
0000
0000
0001
0100
0000
0000
0010
,
1000
0000
0000
0001
0100
0000
0000
0010
1000
0000
0000
0000
0001
0000
0000
0001
,
0100
0001
1000
0010
1000
0001
0100
1000
,
0010
0001
0100
0001
1000
0010
1000
0001
,
0100
1000
0100
0010
0001
1000
0001
1000
,
0010
0100
0001
1000
0100
0010
0001
0010
,
0001
0010
0100
1000
0001
1000
0010
1000
,
0001
0100
1000
0100
0010
0001
0100
0001
,
1000
0010
1000
0100
0001
0010
0001
1000
,
0001
1000
0010
0100
0001
1000
0100
0010
,
0001
0010
0001
0010
0100
0010
0100
0010
1000
0010
1000
0010
1000
0100
0010
0001
,
0010
0100
1000
0001
1000
0100
0010
0001
0010
0100
1000
0001
0100
0000
0000
0000
,
1000
0100
1000
0100
0010
0100
0010
0100
0001
0100
0001
0100
0001
0010
0100
1000
,
0100
0010
0001
1000
0001
0010
0100
1000
0100
0010
0001
1000
0010
0000
0000
0000
,
1000
0000
0001
0100
0001
0000
0010
0000
1000
0000
0001
1000
0010
0000
0100
0000
,
2000
0000
0100
0000
0010
0000
3001
0100
0001
0000
1000
0000
0010
0000
0100
0000
,
1010
0000
0000
0000
1000
0000
0000
0000
0001
0000
0000
0000
0001
0100
0001
0100
0001
0000
0000
0000
1000
0000
0000
0000
0001
0000
0000
0000
0010
1000
0010
1000
,
0010
1000
0100
0010
0002
0200
0000
0303
,
1000
0000
0000
0010
1000
0000
0001
0000
0100
0000
0000
0010
0100
0000
0001
0000
,
1000
0000
0000
0010
1000
0000
0001
0000
0100
0000
0000
1000
0100
0000
0010
0000
,
0001
0000
0000
0001
0100
0000
0001
0000
1000
0000
0000
0010
0100
0000
0001
0000
,
1000
0000
0000
0000
1000
0000
0100
0000
2000
0000
0000
0100
0000
0000
0010
3000
,
0001
0000
0000
0100
0010
0000
0000
1000
0010
0000
0000
0001
0010
0000
0000
0000
,
0002
0000
0000
0013
0000
0000
0100
0000
2000
0000
0000
3100
0000
0000
0010
0000
,
1001
0011
1100
0110
,
1002
0000
0000
2000
0000
0000
3003
0000
,
1000
0100
0010
0001
0010
0100
1000
0001
0100
1000
0100
0010
,
0001
1000
0010
0100
1000
0100
0010
0001
0010
0100
0010
1000
,
1001
0001
1000
0001
0100
0010
1000
0100
0010
0001
0010
0100
,
1000
0100
0010
0001
0010
0100
1000
0100
0010
1000
0010
2000
,
0002
0000
0000
0000
,
3003
0000
0000
0000
;
