#TITLE:Tree In Lake;
#SUBTITLE:;
#ARTIST:Nekomata Master;
#TITLETRANSLIT:;
#SUBTITLETRANSLIT:;
#ARTISTTRANSLIT:;
#CREDIT:;
#BANNER:bn.PNG;
#BACKGROUND:bg.PNG;
#LYRICSPATH:;
#CDTITLE:;
#MUSIC:treeinlake.mp3;
#OFFSET:-0.320;
#SAMPLESTART:30.000;
#SAMPLELENGTH:12.000;
#SELECTABLE:YES;
#BPMS:0.000=100.000;
#STOPS:207.500=0.900
;
#BGCHANGES:;

//---------------dance-single - ----------------
#NOTES:
     dance-single:
     :
     Hard:
     7:
     0.358,0.455,0.030,0.069,0.309:
0000
0000
0000
0000
,
0000
0000
0000
0000
,
0000
0000
0000
0000
,
0000
0000
0000
0000
,
0001
0000
0000
1000
0000
0000
0001
0000
0100
0000
0000
0000
0000
0000
0000
0000
,
0010
0000
0000
0100
0000
0000
1000
0000
0001
0000
0000
0000
0000
0000
0000
0000
,
1000
0000
0000
0001
0000
0000
0100
0000
0010
0000
0000
0000
0000
0000
0000
0000
,
0001
0000
0000
1000
0000
0000
0001
0000
0100
0000
0000
0000
0000
0000
0000
0000
,
0001
0000
0000
0001
0000
0000
0100
0000
0110
0000
0000
0000
0000
0000
0001
0100
,
0001
0000
1000
0100
1000
0000
0010
0100
0010
0000
0100
0000
0100
0000
0010
1000
,
0010
0000
0010
1000
0010
0000
0001
0100
0001
0000
1000
0000
0100
0000
0010
0001
,
0010
0000
0100
1000
0100
0000
0010
0100
0010
0000
1000
0000
0001
0000
0100
0000
,
0020
0000
0000
0000
0000
0000
0000
0000
0130
0000
0010
0100
0010
0000
0001
1000
,
0001
0000
1000
0000
1100
0000
1000
0100
1000
0000
0010
0100
0010
0000
0001
0100
,
0001
0000
1000
0000
0001
0000
0010
0100
0010
0000
0001
1000
0001
0000
1000
0100
,
1000
0000
0100
0000
0010
0000
0001
0010
0002
0000
0000
0000
0000
0000
0000
0000
,
0200
0000
0000
0000
0303
0100
0010
0100
0010
0000
0000
0000
0000
0000
1000
0100
,
0000
0000
0000
0000
0000
0000
0010
0001
0000
0000
0000
0000
0000
0000
0010
0100
,
0000
0000
0000
0000
0000
0000
0010
1000
0000
0000
0000
0000
0001
0000
1000
0000
,
0100
0000
0000
0000
0000
0000
0000
0000
0000
1000
0100
0000
1000
0000
0000
0000
0000
0000
0000
0000
0000
0000
0000
0000
0010
0000
0000
0000
0000
0000
0000
0000
0000
0000
0000
0000
0000
0000
0000
0000
0000
0000
0000
0000
0000
0000
0000
0000
,
0000
0000
0000
0000
1000
0000
0001
0000
0100
0000
0000
0000
0000
0000
0010
0100
,
0000
0000
0000
0000
0000
0000
1000
0100
0000
0000
0000
0000
0000
0000
0010
0001
,
0000
0000
0000
0000
0000
0000
0010
0100
0000
0000
0000
0000
0001
0000
1000
0000
,
0001
0000
0000
0000
0000
0000
0000
0000
0000
0001
0100
0000
0001
0000
0000
0000
0000
0000
0000
0000
0000
0000
0000
0000
1000
0000
0000
0000
0000
0000
0000
0000
0000
0000
0000
0000
0000
0000
0000
0000
0000
0000
0000
0000
0000
0001
1000
0000
,
0001
0000
1000
0000
,
0001
0000
0100
0000
0010
0000
0000
0100
,
0010
0000
0001
1000
0010
0000
0000
0000
,
0000
0000
0000
0000
0001
0000
1000
0000
0001
0000
0000
0000
0000
0000
0001
0100
,
0001
1000
0100
0010
,
0100
1000
0010
0100
,
0001
0000
0000
0000
0000
0000
0000
0000
0000
0000
0000
0000
1000
0000
0000
0000
0000
0000
0000
0000
0000
0001
1000
0000
0001
0000
0000
0000
0000
0000
0000
0000
0000
0000
0000
0000
0000
0000
0000
0000
0000
0000
0000
0000
0000
0000
0000
0000
,
0000
0000
0000
1000
0100
0000
0010
0000
,
0001
0000
1000
0000
0000
0000
0001
1000
,
0010
0000
0100
0010
0100
0000
0010
0100
0010
0000
0100
0000
1000
0000
0001
1000
,
0001
0000
1000
0001
1000
0000
0001
1000
0001
0000
1000
0000
0100
0000
0001
0100
,
0001
0000
0100
0001
0100
0000
0001
0100
0001
0000
0100
0000
0001
0000
0010
0100
,
0020
0000
0000
0000
0130
0000
0001
1000
0001
0000
1000
0001
1000
0000
0001
1000
,
0001
0000
1000
0000
0100
0000
1000
0100
1000
0000
0100
1000
0100
0000
1000
0100
,
1000
0000
0100
0000
0010
0000
0010
0001
0010
0000
0001
0010
0001
0000
0010
0001
,
0010
0100
0001
1000
0020
0000
0000
0000
,
0200
0000
0000
0000
0330
0000
0000
0000
0001
0000
0001
1000
0001
0000
0001
0100
,
0001
0000
1000
0000
0010
0000
1000
0100
1000
0000
0010
0001
0010
0000
0100
0001
,
0100
0000
0010
0000
1000
0000
0001
0000
0001
0000
0010
0100
0010
0000
0001
1000
,
0001
0000
0010
0000
0100
0000
1000
0100
2000
0000
0000
0000
3001
0000
0100
0001
,
0010
0000
0001
0100
0010
0000
0001
0100
0010
0000
1000
0000
0001
0000
1000
0100
,
0001
0000
1000
0100
0001
0000
1000
0100
0001
0000
1000
0000
0010
0000
0001
1000
,
0001
0000
0100
0010
0100
0000
1000
0100
1000
0000
0010
0000
0100
0000
0010
0000
,
0002
0000
2000
3003
,
0010
0000
0000
0000
0000
0000
0000
0000
0000
0000
0000
0000
0000
0000
0100
1000
,
0000
0000
0000
0000
0000
0000
0000
0000
0000
0000
0000
0000
0000
0000
0100
0001
,
0000
0000
0000
0000
0000
0000
0000
0000
0000
0000
0000
0000
0000
0000
1000
0001
,
0000
0000
0000
0000
0000
0000
0000
0000
0000
0000
0000
0000
1000
0000
0000
0000
0000
0000
1100
0000
0000
0101
0000
0010
;

//---------------dance-single - ----------------
#NOTES:
     dance-single:
     :
     Medium:
     5:
     0.198,0.317,0.061,0.061,0.046:
0000
0000
0000
0000
,
0000
0000
0000
0000
,
0000
0000
0000
0000
,
0000
0000
0000
0000
,
0001
0000
0000
0000
0000
0000
0000
0000
0000
0000
0000
1000
0000
0000
0100
0000
,
1000
0000
0000
0000
,
0010
0000
0000
0000
0000
0000
0000
0000
0000
0000
0000
0100
0000
0000
0010
0000
,
0100
0000
0000
0000
,
1000
0000
0000
0000
,
0001
0000
1000
0000
0001
0100
0001
0000
,
1000
0000
0001
0000
1000
0100
1000
0000
,
1000
0100
0010
0001
,
0200
0320
0130
0100
,
0010
1000
0001
0000
1000
0000
1000
0000
,
1000
0100
0010
0001
0010
0000
0010
0000
,
0100
0000
0010
1000
0002
0000
0000
0000
,
2000
0000
0000
0000
0000
0000
0000
0000
3003
0000
0000
0000
0000
0000
0000
0010
,
0000
0000
0000
0000
0000
0000
0000
0010
0000
0000
0000
0000
0000
0000
0000
0100
,
0000
0000
0000
0000
0000
0000
0000
1000
0000
0000
0000
0000
0100
0000
0000
0000
,
1000
0100
0010
0000
,
0001
0000
0000
0000
0000
0000
0000
0000
1001
0000
0000
0000
0000
0000
0000
0010
,
0000
0000
0000
0000
0000
0000
0000
0010
0000
0000
0000
0000
0000
0000
0000
0100
,
0000
0000
0000
0000
0000
0000
0000
1000
0000
0000
0000
0000
0001
0000
0000
0000
,
1000
0100
1000
0000
,
0010
0000
0100
0000
,
0010
0000
0010
0000
0100
0000
0000
1000
,
0001
0000
0001
1000
0001
0000
0000
0000
,
0000
0000
0000
0000
0100
0000
0010
0000
0100
0000
0000
0000
0000
0000
0001
0100
,
0001
0100
1000
1000
,
1000
0001
0100
0001
,
0010
0100
0010
0000
,
0000
0000
1000
0001
,
0100
0010
0000
0000
,
0010
0000
0010
0000
0010
1000
0001
0000
,
1000
0000
1000
0000
1000
0100
0001
0000
,
0001
0000
0001
0000
0001
0000
0001
0100
,
0010
0010
0110
0010
,
0100
0001
1000
0000
1000
0000
1000
0000
,
1000
0100
0001
0000
0001
0000
0001
0000
,
0001
0010
1000
0001
1000
0000
0000
0000
,
0002
0000
0103
0010
,
0010
1000
0001
0000
1000
0000
0100
0000
,
0010
1000
0001
0000
0100
0000
0001
0000
,
0010
0100
0010
0000
2000
0000
3100
0000
,
1100
0000
0110
0000
0001
0100
0010
0000
,
0110
0000
1001
0000
1000
0100
0001
0000
,
0101
0000
1100
0000
0010
0000
0100
0010
,
2000
0000
0200
0000
,
3300
0000
0000
0000
0000
0000
0000
0010
,
0000
0000
0000
0000
0000
0000
0000
0100
,
0000
0000
0000
0000
0000
0000
0000
1000
,
0000
0000
0000
0000
0000
0000
0000
0000
0000
0000
0000
0000
0000
0000
0000
0000
0000
0000
0001
0000
0000
0001
0000
1000
;

//---------------dance-single - ----------------
#NOTES:
     dance-single:
     :
     Easy:
     2:
     0.136,0.178,0.053,0.091,0.000:
0000
0000
0000
0000
,
0000
0000
0000
0000
,
0000
0000
0000
0000
,
0000
0000
0000
0000
,
0002
0000
0003
0000
,
2000
0000
3000
0000
,
0020
0000
0030
0000
,
0200
0000
0300
0000
,
0000
0000
0000
0000
,
0010
0000
0000
0000
,
0010
0000
0000
0000
,
0100
0000
0000
0000
,
1000
0001
0100
0000
,
0100
0000
0010
0000
,
0010
1000
0001
0000
,
0001
0000
2000
0000
,
0200
3300
0010
0000
,
0000
0000
0100
0000
,
0000
0000
0010
0100
,
0010
1000
0001
0000
,
0001
1000
0001
0000
,
0100
0000
0010
0000
,
1000
0000
0100
0010
,
1000
0001
1000
0000
,
1000
0000
1001
0000
,
0001
1000
0100
0000
,
0010
0001
0100
0000
,
0000
1000
1000
0000
,
0100
0000
0010
0010
,
0010
0100
0010
1000
,
0001
0100
0001
0000
,
0000
0000
1000
0010
,
0100
0001
0000
0000
,
1001
0000
0001
1000
,
0100
0000
0010
0001
,
0100
0000
0010
1000
,
0200
1300
1100
0000
,
0010
0100
0010
0000
,
1000
0001
0100
0000
,
0010
0100
0020
0000
,
2000
3030
1010
0000
,
0010
0100
0010
0000
,
0001
1000
0100
0000
,
0010
0001
0200
0300
,
0110
0000
0010
0000
,
1001
0000
1000
0000
,
0101
0000
1000
0000
,
0020
0000
2000
3030
,
0001
0000
0000
0000
,
1000
0000
0000
0000
,
0001
0000
0000
0000
,
0100
0000
0000
0000
0000
0000
0001
1000
;

//---------------dance-single - ----------------
#NOTES:
     dance-single:
     :
     Beginner:
     1:
     0.054,0.118,0.030,0.000,0.000: // measure 1
0000
0000
0000
0000
,  // measure 2
0000
0000
0000
0000
,  // measure 3
0000
0000
0000
0000
,  // measure 4
0000
0000
0000
0000
,  // measure 5
0000
0000
0000
0000
,  // measure 6
0000
0000
0000
0000
,  // measure 7
0000
0000
0000
0000
,  // measure 8
0000
0000
0000
0000
,  // measure 9
0000
0000
0000
0000
,  // measure 10
0010
0000
0000
0000
,  // measure 11
0001
0000
0000
0000
,  // measure 12
1000
0000
0000
0000
,  // measure 13
0000
0000
0010
0000
,  // measure 14
0000
0000
0010
0000
,  // measure 15
0000
0000
0100
0000
,  // measure 16
0000
0000
1000
0000
,  // measure 17
0001
0000
1000
0000
,  // measure 18
0000
0000
0001
0000
,  // measure 19
0000
0000
0100
0000
,  // measure 20
0000
0000
0010
0000
,  // measure 21
0000
0000
0010
0000
,  // measure 22
0000
0000
0100
0000
,  // measure 23
0000
0000
1000
0000
,  // measure 24
0000
0000
0001
0000
,  // measure 25
0001
0000
0001
0000
,  // measure 26
0000
0000
1000
0000
,  // measure 27
0000
0000
0100
0000
,  // measure 28
0000
0000
0010
0000
,  // measure 29
0010
0000
0001
0000
,  // measure 30
0000
0000
1000
0000
,  // measure 31
0000
0000
0100
0000
,  // measure 32
0000
0000
0010
0000
,  // measure 33
0000
0000
0000
0000
,  // measure 34
0001
0000
0000
0000
,  // measure 35
0001
0000
0000
0000
,  // measure 36
1000
0000
0000
0000
,  // measure 37
1000
0000
0100
0000
,  // measure 38
0000
0000
0010
0000
,  // measure 39
0000
0000
0001
0000
,  // measure 40
0000
0000
0100
0000
,  // measure 41
0000
0000
0010
0000
,  // measure 42
0000
0000
0010
0000
,  // measure 43
0000
0000
0100
0000
,  // measure 44
0000
0000
1000
0000
,  // measure 45
1001
0000
0000
0000
,  // measure 46
1001
0000
0000
0000
,  // measure 47
0110
0000
0000
0000
,  // measure 48
0010
0000
0100
0000
,  // measure 49
0010
0000
0000
0000
,  // measure 50
0000
0000
0000
0000
,  // measure 51
0000
0000
0000
0000
,  // measure 52
0000
0000
0100
1001
;
