#TITLE:Treasure X Star;
#SUBTITLE:;
#ARTIST:NAOKI & Ryu* Fw. Sachimayi;
#TITLETRANSLIT:;
#SUBTITLETRANSLIT:;
#ARTISTTRANSLIT:;
#CREDIT:;
#BANNER:bn.PNG;
#BACKGROUND:bg.PNG;
#LYRICSPATH:;
#CDTITLE:IIDX GOLD.png;
#MUSIC:Treasure X Star.mp3;
#OFFSET:-0.240;
#SAMPLESTART:12.820;
#SAMPLELENGTH:12.000;
#SELECTABLE:YES;
#BPMS:0.000=171.000;
#STOPS:80.000=1.053
;
#BGCHANGES:;

//---------------dance-single - ----------------
#NOTES:
     dance-single:
     :
     Hard:
     8:
     0.550,0.679,0.122,0.178,0.085: // measure 1
0000
0000
0000
0000
,  // measure 2
0000
0000
0000
0000
,  // measure 3
0000
0000
0000
0000
,  // measure 4
0000
0000
0000
0000
,  // measure 5
0000
0000
0000
0000
,  // measure 6
1000
0100
0010
0001
0010
0100
1000
0001
,  // measure 7
1000
0010
1000
0001
0100
0000
0001
0000
,  // measure 8
0010
0100
1000
0100
0010
0001
0010
1000
,  // measure 9
0000
0001
1001
0000
0020
0000
0230
0000
,  // measure 10
0301
0000
0000
0000
0010
0100
0000
1000
,  // measure 11
0100
1000
0000
0010
0001
0000
0000
0000
,  // measure 12
0010
0000
0000
1000
0000
0000
0100
0000
1000
0000
0000
0010
0000
0000
0001
0000
,  // measure 13
2000
0000
3010
0000
,  // measure 14
1100
0000
0000
0010
0100
0010
0000
0100
,  // measure 15
1000
0100
0000
0010
0001
0000
0000
0000
,  // measure 16
0010
0000
0000
0100
0000
0000
1000
0000
0010
0000
0000
0100
0000
0000
1000
0000
,  // measure 17
0002
0000
0000
0013
0100
1000
0100
0000
,  // measure 18
0010
0100
0010
0000
0010
1000
0010
0000
,  // measure 19
0001
1000
0001
1000
0001
1000
0001
1000
,  // measure 20
0001
0000
0001
0000
0001
0000
0001
0000
0001
1000
0001
1000
0001
1000
0001
1000
,  // measure 21
0000
0000
0001
0000
0010
0100
0000
1000
,  // measure 22
0000
0001
0000
0010
0100
0001
0000
0000
,  // measure 23
0000
0000
1000
0100
1000
0100
0000
0010
,  // measure 24
0000
0001
0000
0000
0000
0000
0000
0000
,  // measure 25
0000
0000
0001
1000
0001
0100
0000
1000
,  // measure 26
0000
0001
0000
0010
0100
1000
0000
0000
,  // measure 27
0000
0000
1000
0100
0010
0001
0000
0001
,  // measure 28
0000
0002
0000
0000
1000
0000
0100
0000
,  // measure 29
0013
0000
0001
0010
0001
0100
0000
1000
,  // measure 30
0100
2000
0000
3200
0000
0320
0000
0030
,  // measure 31
0000
0000
1000
0001
1000
0001
0000
0010
,  // measure 32
0100
0002
0000
0203
0000
0320
0000
0130
,  // measure 33
0000
0000
0001
0010
0001
0100
0000
1000
,  // measure 34
0100
1000
0000
0001
0000
0100
0000
2000
,  // measure 35
0000
3100
0010
0001
0010
0001
0010
0100
,  // measure 36
1000
0100
1000
0100
1000
0100
0020
0000
,  // measure 37
0032
0000
1003
0000
0000
0000
0100
1000
,  // measure 38
0000
0010
1000
0010
0000
0010
0100
0000
,  // measure 39
0000
0000
0000
0000
0001
0000
0000
1000
0000
0000
0100
0000
1000
0000
0000
0010
,  // measure 40
0000
0000
0100
0000
0110
0000
0000
1010
0000
0000
0010
0000
0001
0010
0001
0000
,  // measure 41
0001
0010
0200
0000
0300
1000
0100
0010
,  // measure 42
0000
0001
0010
0100
0000
1000
1001
0000
,  // measure 43
0000
0000
0000
0000
1000
0000
0000
0100
0000
0000
0010
0000
1000
0000
0000
0001
,  // measure 44
0000
0100
1000
0000
0000
0010
0200
0000
,  // measure 45
0000
0000
0310
0100
0001
1000
0010
0100
,  // measure 46
0001
1000
0010
1000
0001
0100
0010
0000
,  // measure 47
0011
0000
0001
0010
0100
1000
0100
0010
,  // measure 48
0001
1000
0000
1010
0001
0000
0010
0000
,  // measure 49
0100
0000
0010
0100
0010
1000
0010
1000
,  // measure 50
0010
0001
0010
0100
0001
0100
0010
0000
,  // measure 51
1010
0000
0010
0100
0010
1000
0001
0100
,  // measure 52
1000
0100
0000
0011
1100
0000
0110
0000
,  // measure 53
1001
0000
0010
1000
0010
1000
0000
0100
,  // measure 54
1000
0100
0000
0010
0001
0010
0000
0001
,  // measure 55
0100
0001
0010
1000
0001
0100
0000
1000
,  // measure 56
0100
1000
0000
0010
1000
0000
0010
0000
,  // measure 57
0000
0000
0001
1000
0010
0100
0000
1000
,  // measure 58
0100
0010
0000
0001
0100
0010
0000
1000
,  // measure 59
0001
0100
1000
0100
0010
0001
0000
0010
,  // measure 60
0100
0001
1000
0100
0002
0000
1003
0000
,  // measure 61
0000
0000
0001
1000
0001
1000
0000
0010
,  // measure 62
1000
0010
0000
0001
0100
0001
0000
0010
,  // measure 63
0001
0010
0001
0010
0100
1000
0000
0010
,  // measure 64
1000
0010
0000
0010
0100
0000
1001
0000
,  // measure 65
0000
0000
0010
0100
0010
0100
0000
0001
,  // measure 66
1000
0001
0000
0010
1000
0010
0000
0001
,  // measure 67
0100
0001
0001
0010
0100
1000
0000
0100
,  // measure 68
1000
0010
0200
0000
0000
0010
0310
0000
,  // measure 69
0010
0000
0001
0100
0001
0000
0010
1000
,  // measure 70
0010
0000
0001
1000
0001
1000
0010
1000
,  // measure 71
0010
0000
0100
0000
1000
0000
0100
0000
0010
0000
0001
0000
1000
0100
0010
0001
,  // measure 72
1000
0100
0010
0001
2000
0000
0000
0000
0000
0000
0000
0000
0000
0000
0000
0000
,  // measure 73
0000
3001
0000
0000
;

//---------------dance-single - ----------------
#NOTES:
     dance-single:
     :
     Medium:
     6:
     0.392,0.441,0.103,0.132,0.000:
0000
0000
0000
0000
,
0000
0000
0000
0000
,
0000
0000
0000
0000
,
0000
0000
0000
0000
,
0000
0000
0000
0000
,
1000
0100
0010
0001
,
1000
0100
0010
0001
,
1000
0100
0010
0001
,
0000
1000
0001
0000
0100
0000
0010
0000
,
1000
0000
0000
0000
0100
1000
0000
0100
,
1000
0100
0000
0010
0001
0000
0000
0000
,
0002
0000
2003
0000
,
3020
0000
1030
0000
,
1100
0000
0000
0010
1000
0010
0000
0001
,
0100
0000
1000
0000
,
0010
1000
0001
0100
,
2000
0000
0000
3000
0001
0000
0000
0000
,
1000
0000
0001
0000
,
1000
0001
1000
0001
,
0001
1000
0001
1000
0001
1000
0001
1000
,
0001
0010
0100
1000
,
0100
0000
0010
0000
0010
0100
0000
0000
,
0000
1000
0100
0010
,
0001
1000
0100
0010
,
1000
0000
0001
0100
0001
0100
0000
0100
,
0000
0100
0000
1000
0100
1000
0000
0000
,
0000
0000
0010
0100
0010
0100
0000
0010
,
0000
0100
0000
0000
1000
0000
0100
0000
,
0010
0001
0100
1000
,
0100
1000
0000
1000
0000
1000
0000
0000
,
0000
0010
0100
1000
,
0001
0200
0000
0010
0000
0010
0000
0010
,
0300
0000
0010
0000
1000
0100
0000
0010
,
0000
0001
0000
0100
0000
1000
0000
0100
,
0000
1000
0000
0000
,
0010
0100
0020
0000
0000
0000
1030
0000
,
0001
0000
1001
0000
0000
0000
0010
1000
,
0000
0000
0001
0100
0000
0010
0001
0000
,
0000
2000
0000
3200
,
0000
0000
0310
0000
0000
0001
0011
0000
,
0000
0000
0101
0000
0000
0010
1000
0010
,
0000
0010
0100
0000
0000
0100
1000
0000
,
0000
0110
0010
1001
,
1000
2100
0000
3010
,
0000
0001
0010
0100
,
1000
0001
0100
1020
,
1030
1000
0100
0010
,
0001
0000
0000
0010
0001
0000
0010
0000
,
1000
0001
0100
0010
,
1000
0100
0010
0001
,
0011
0002
0000
0000
,
0000
0000
0000
1000
1000
0000
1003
0000
,
1001
0000
0010
0000
0100
1000
0000
0100
,
1000
0100
0000
0010
0100
0010
0000
0010
,
0100
0000
0010
0000
1000
0100
0000
0010
,
0001
0010
0000
0001
0100
0000
0010
0000
,
0000
0000
0010
0000
1000
0100
0000
0010
,
0001
0010
0000
0001
0100
0001
0000
0010
,
1000
0000
0100
0000
1000
0100
0000
0010
,
0000
0002
0000
1003
,
0000
0000
0010
0100
0010
0100
0000
0010
,
1000
0010
0000
0001
0100
0001
0000
0010
,
0001
0000
0010
0100
0010
1000
0000
0010
,
1000
0100
0000
0010
0001
0000
0011
0000
,
0000
0000
0001
0000
0001
0100
0000
1000
,
0100
0010
0000
0001
0010
0100
0000
1000
,
0100
0000
0010
1000
0010
0100
0000
0010
,
0000
1000
0200
0000
0000
0000
0301
0000
,
0000
1000
0000
0001
,
0000
1000
0001
1000
,
0001
0000
1000
0100
0010
0001
0010
0100
,
1000
0001
2000
0000
0000
0000
0000
0000
,
0000
3001
0000
0000
;

//---------------dance-single - ----------------
#NOTES:
     dance-single:
     :
     Easy:
     4:
     0.203,0.468,0.132,0.056,0.000:
0000
0000
0000
0000
,
0000
0000
0000
0000
,
0000
0000
0000
0000
,
0000
0000
0000
0000
,
0000
0000
0000
0000
,
1000
0100
0010
0001
,
0100
1000
0010
0010
,
0100
0001
0010
0100
,
0000
1000
0100
0000
0020
0000
0000
0000
,
0130
0000
1000
0000
,
0001
0000
0010
0000
,
1000
0000
1000
0000
,
0100
0000
0010
0000
,
0001
0000
1000
0000
,
0010
0000
0100
0000
,
0001
0000
1000
0000
,
0100
0000
0010
0000
,
0010
0000
0010
0000
,
0010
0010
0010
0010
,
0110
0110
0110
0110
,
1001
1000
0000
0000
,
0000
0000
0000
0000
,
0000
0010
0000
0000
,
0000
0000
0000
0000
,
0000
0001
0000
0000
,
0000
0000
0000
0000
,
0000
0100
0000
0000
,
0000
0000
1000
0100
,
0010
0001
0000
0000
,
0000
0000
0000
0000
,
0000
1000
0000
0000
,
0000
0000
0000
0000
,
0000
0010
0000
0000
,
0000
0000
0000
0000
,
0000
0100
0000
0000
,
0000
0001
0000
2000
,
3200
0301
0000
0010
,
0000
0100
0000
1000
,
0000
0010
0000
1000
,
0000
1001
0000
0110
,
0000
0010
0000
0001
,
0000
1000
0000
0100
,
0000
0001
0000
1000
,
0000
0010
0000
0100
,
0000
1000
0000
0000
,
0000
0000
0000
0012
,
0013
1000
0000
0100
,
0000
0000
0000
0001
1000
0000
1001
0000
,
0000
0010
0000
1000
,
0000
0100
0000
0011
,
0011
0011
0000
0000
,
0000
0000
0000
1000
0001
0000
0100
0000
,
0010
1000
0000
0001
,
0000
0010
0000
1000
,
0000
0001
0000
0010
,
0000
0100
0000
1000
,
0000
0010
0000
1000
,
0000
0001
0000
0100
,
0000
0010
0000
1000
,
0000
0100
0000
0011
,
0000
0001
0000
0100
,
0000
1000
0000
0010
,
0000
0100
0000
0001
,
0000
1000
0000
0010
,
0000
0010
0000
0100
,
0000
0001
0000
1000
,
0000
0001
0000
0010
,
0000
1000
0000
0001
,
0000
1000
0000
0001
,
0000
1000
1000
1000
,
1000
0001
1000
2002
,
0000
3003
0000
0000
;

//---------------dance-single - ----------------
#NOTES:
     dance-single:
     :
     Challenge:
     9:
     0.705,0.848,0.263,0.291,0.141:
0000
0000
0000
0000
,
0001
0100
0001
1000
0001
0100
0001
1000
,
0000
1000
0100
0010
0001
0000
0011
0000
,
0001
0010
0100
1000
0100
0010
0001
1000
,
0000
1001
1001
0000
1001
0000
1001
0000
,
0001
1000
0010
1000
0001
1000
0010
1000
,
0000
1000
0100
0010
0001
0000
0010
0000
,
1100
0010
0011
0100
,
0000
0101
1100
0000
0110
0000
1001
0000
,
1000
0100
0010
0001
0010
0100
1000
0100
,
0010
0000
1000
0000
0010
0000
1000
0000
0001
0100
0001
0000
0100
0000
1000
0000
,
0100
1000
0100
0010
0001
0010
0100
1000
,
0002
0000
0200
0303
,
0001
0010
0100
1000
0100
0010
0001
0010
,
0100
0000
0010
0000
1000
0000
0001
0000
1000
0100
1000
0000
0010
0000
0100
0000
,
0010
0100
0001
1000
0010
0100
0010
1000
,
1002
0000
0000
0000
0100
0000
0000
0000
1003
0001
1000
0000
0001
0000
1000
0000
,
0001
1000
0001
0000
1000
0000
0001
0000
0001
1000
0001
0000
1000
0000
0001
0000
,
0001
1000
0001
0000
0001
1000
0001
0000
0001
1000
0001
0000
1000
0001
1000
0000
,
0001
0000
1000
0000
0001
0000
1000
0000
0001
1000
0001
1000
0001
1000
0001
1000
,
0001
0000
1000
0100
0010
0001
0010
0100
,
0001
0100
0001
0100
0001
0100
0001
0100
,
1000
0000
1000
0100
0010
0001
0010
0100
,
1000
0100
0001
0100
0001
1000
0001
0100
,
0002
0000
0103
1000
0100
0010
0001
0010
,
0100
1000
0100
0010
1000
0010
1000
0010
,
1000
0000
1000
0100
0010
0001
0010
0100
,
1000
0100
0000
0000
0110
0000
0010
0000
,
0110
0000
1000
0100
1000
0200
0000
0010
,
0010
0010
0000
0001
0000
0301
0000
0000
,
0000
0000
0001
0010
0100
1000
0000
1000
,
0100
1100
0000
0011
0000
1100
0000
0011
,
0000
0000
0100
0001
0010
1000
0000
1000
,
0100
0010
0000
0001
0000
0100
0000
1000
,
0000
0100
1100
0000
0000
0000
1000
0100
,
0010
0000
0001
0000
1000
0100
0010
0001
0010
0100
1000
0001
2000
0000
0000
0000
,
0010
0000
3001
1000
0001
1000
0010
1000
,
0010
1000
0001
0100
0001
0100
0010
0001
,
0010
0100
1000
0100
0010
0001
0010
0100
,
0010
0000
0100
0000
1001
0000
0000
0110
0000
0000
1000
0000
0100
1000
0100
0000
,
0010
0001
1000
0100
1000
0100
0010
0001
,
0010
0100
0001
0100
0001
0100
0010
1000
,
0010
1000
0001
1000
0001
1000
0010
1000
,
0010
1000
1010
0000
0000
0000
0012
0000
,
0000
2000
0000
0000
,
0000
0000
0000
0000
,
3003
0000
0010
1000
0010
1000
0001
0100
,
0001
0100
0000
0101
1100
0000
0110
0000
,
1001
0000
1000
0100
0010
0001
0010
0100
,
0100
0100
0000
0001
0001
1000
0001
0000
,
0100
0000
0010
2000
0200
0000
0000
0000
,
0300
0000
0000
0010
0010
0000
0001
0000
,
3001
0000
0001
0100
0001
0200
0000
0301
,
0100
0002
0000
0103
0001
0200
0000
0301
,
0100
0001
0010
1000
0010
2000
0000
3010
,
1000
0020
0000
1030
0020
0000
1030
0000
,
0000
0000
1000
0100
1000
0200
0000
1300
,
0100
2000
0000
3100
1000
0200
0000
1300
,
0100
0010
0001
0010
0100
0002
0000
0103
,
0001
0100
0010
1000
0020
0000
1030
0000
,
0000
0000
1000
0001
1000
0002
0000
1003
,
0001
2000
0000
3001
1000
0002
0000
1003
,
0001
1000
0010
1000
0010
2000
0000
3010
,
1000
0020
0000
1030
0100
0000
0101
0000
,
0000
0000
0001
0010
0100
2000
0000
3100
,
0010
0002
0000
0013
0100
2000
0000
3100
,
0010
0001
0010
0100
0001
0100
0000
0001
,
0100
0000
0010
0000
1000
0000
0100
0000
0010
0000
0001
0000
1000
0001
1000
0000
,
0001
0000
1000
0000
0001
1000
0001
0000
1000
0000
0001
0000
0001
1000
0001
0000
,
1000
0000
0001
0000
0001
1000
0001
0000
0001
1000
0001
0000
1000
0001
1000
0000
,
1000
0001
1000
0000
0001
0000
0010
0000
0001
0000
1000
0000
0001
1000
0001
1000
,
0001
1000
0001
2000
0002
0000
0000
0000
0000
0000
0000
0000
0000
0000
0000
0000
,
0000
3003
0000
0000
;
