#TITLE:合体せよ!ストロングイェーガー!!;
#SUBTITLE:;
#ARTIST:L.E.D.;
#TITLETRANSLIT:The Strong Jaeger;
#SUBTITLETRANSLIT:;
#ARTISTTRANSLIT:;
#CREDIT:;
#BANNER:bn.PNG;
#BACKGROUND:z The_Strong_Jaeger__Ryu_Remix__0001.jpg;
#LYRICSPATH:;
#CDTITLE:Beatmania IIDX.png;
#MUSIC:222-the_strong_jaeger.mp3;
#OFFSET:0.000;
#SAMPLESTART:14.300;
#SAMPLELENGTH:12.000;
#SELECTABLE:YES;
#BPMS:0.000=154.980;
#STOPS:33.000=1.160
,94.000=1.160
,251.000=1.140
;
#BGCHANGES:;

//---------------dance-single - ----------------
#NOTES:
     dance-single:
     :
     Hard:
     9:
     0.580,0.703,0.082,0.033,0.573: // measure 1
0000
0000
0000
0000
,  // measure 2
0000
0000
0000
0000
,  // measure 3
0000
0000
0000
0000
,  // measure 4
0000
0000
0000
0000
,  // measure 5
0000
0000
0000
0000
,  // measure 6
0000
0000
0000
0000
1100
0000
0000
0100
0000
0000
0010
0000
0000
0001
0000
0000
,  // measure 7
0100
0000
0001
0000
0100
0000
0000
0001
0000
0000
0100
0000
0000
0010
0000
0000
,  // measure 8
0001
1000
0001
1000
0001
0000
0000
1000
0000
0000
0100
0000
0000
0010
0000
0000
,  // measure 9
0001
0000
0100
0000
0001
0000
0000
0000
1000
0000
0000
0100
0000
0000
0010
0000
,  // measure 10
0001
0000
0010
0100
0010
1000
0001
0100
,  // measure 11
0000
0010
1000
0010
1000
0001
0100
0010
,  // measure 12
0100
0000
0000
0000
0010
0000
1000
0000
0010
0000
0000
0010
0000
0000
0010
0000
,  // measure 13
0000
1000
0001
0100
0010
1000
0010
1000
,  // measure 14
0010
0000
1000
0100
0010
0001
0010
0100
,  // measure 15
0000
0010
1000
0010
1000
0001
0100
0010
,  // measure 16
1000
0000
0000
0000
0001
0000
0100
0000
0001
0000
0001
0100
0001
0000
1000
0000
,  // measure 17
0010
1000
0010
0000
1000
0000
0010
0000
0001
0000
1000
0000
0010
0000
1000
0000
,  // measure 18
0001
0000
1000
0000
0010
0000
1000
0000
0001
0100
0001
0100
0000
0010
1000
0010
,  // measure 19
1000
0010
1000
0010
1000
0010
1000
0010
1000
0000
0001
0000
0010
0000
0100
0000
,  // measure 20
1000
0000
0100
0000
0010
0000
1000
0000
0001
0100
0001
0100
0000
0010
1000
0010
,  // measure 21
1000
0010
1000
0010
1000
0010
1000
0010
1000
0000
0001
0000
0010
0000
0100
0000
,  // measure 22
1000
0000
0100
0000
0010
0000
1000
0000
0001
0100
0001
0100
0000
0010
1000
0010
,  // measure 23
1000
0010
1000
0010
1000
0010
1000
0000
0001
0000
1000
0000
0010
0000
0100
0000
,  // measure 24
0010
0000
1000
0000
0001
0100
0010
1000
0001
0000
0000
0000
1000
0000
0100
0000
,  // measure 25
0000
1000
0000
0000
0100
0000
0000
0010
0000
0000
0100
0000
0001
0000
0000
0100
,  // measure 26
0000
0000
0001
0000
1000
0000
0000
0010
0000
0000
0100
0000
0000
0000
1000
0000
,  // measure 27
0000
0100
0000
0000
0010
0000
0000
0001
0000
0000
0010
0000
0100
0000
0000
1000
,  // measure 28
0000
0000
0001
0000
0100
0000
0000
0010
0000
0000
1000
0000
0000
0000
0100
0000
,  // measure 29
0000
1000
0000
0000
0100
0000
0000
0010
0000
0000
0001
0000
0100
0000
0000
0001
,  // measure 30
0000
0000
0100
0000
0010
0000
0000
1000
0000
0000
0001
0000
0000
0000
1000
0000
,  // measure 31
0000
0100
0000
0000
0010
0000
0000
0001
0000
0000
0100
0000
0010
0000
0100
0000
,  // measure 32
0001
1000
0010
1000
0001
1000
0000
1000
,  // measure 33
0000
0100
0000
0000
0010
0000
0000
0001
0000
0000
0010
0000
0100
0000
0000
1000
,  // measure 34
0000
0000
0001
0000
0100
0000
0000
1000
0000
0000
0100
0001
0000
0000
1000
0000
,  // measure 35
0000
0100
0000
0000
0010
0000
0000
0001
0000
0000
0100
0000
0010
0000
0000
1000
,  // measure 36
0000
0000
0001
0000
0100
0000
0000
1000
0000
0000
0100
0000
0000
0000
0010
0000
,  // measure 37
0000
1000
0000
0000
0001
0000
0000
0100
0000
0000
1000
0000
0100
0000
0000
0010
,  // measure 38
0000
0000
0001
0000
0010
0000
0000
0100
0000
0000
0001
0100
0000
0000
0010
0000
,  // measure 39
0000
0100
0000
0000
1000
0000
0000
0001
0000
0000
0100
0000
1000
0000
0000
0100
,  // measure 40
0000
0000
0010
0000
0001
0000
0000
0100
0000
0000
0010
0000
0002
0000
0100
0000
,  // measure 41
0000
0100
0000
0000
0100
0000
0000
0100
0000
0000
0103
0000
0010
0000
0000
1000
,  // measure 42
0000
0000
0001
0000
0100
0000
0000
1000
0000
0000
0001
1000
0000
0000
1000
0000
,  // measure 43
0000
0100
0000
0000
0010
0000
0000
0001
0000
0000
0010
0000
0100
0000
0000
0001
,  // measure 44
0000
0000
1000
0000
0010
0000
0000
0100
0000
0000
0010
0000
2000
0000
0001
0000
,  // measure 45
0000
0001
0000
0000
0001
0000
0000
0001
0000
0000
3001
0000
0010
0000
0000
0100
,  // measure 46
0000
0000
1000
0000
0100
0000
0000
1000
0000
0000
0010
0100
0000
0000
0010
0000
,  // measure 47
0000
0100
0000
0000
1000
0000
0000
0100
0000
0000
0010
0000
1000
0000
0000
0100
,  // measure 48
0000
0000
0010
0000
0001
0000
0000
0010
0000
0000
0100
0000
1000
0000
0001
1000
,  // measure 49
0001
0000
0100
0000
0010
0000
0000
1000
0000
0000
0001
0000
0000
0000
0000
0000
,  // measure 50
0000
0000
0000
0000
0000
1001
0001
0100
,  // measure 51
0010
0000
1000
0010
1000
0000
0000
0010
0000
0000
0010
0000
0000
0000
0000
0000
,  // measure 52
0000
0000
0000
0000
0000
0000
0000
0000
0000
0000
1000
0100
1000
0000
0100
0000
,  // measure 53
0000
0010
0000
0000
1000
0000
0000
0001
0000
0000
0100
0000
0110
0000
0010
0000
,  // measure 54
0000
0100
0000
0000
1000
0000
0000
0100
0000
0000
0001
0000
1001
0000
0000
0010
,  // measure 55
0000
0000
0100
0000
0110
0000
0000
0010
0000
0000
1000
0000
1010
0000
0000
0101
,  // measure 56
0000
0000
1100
0000
0000
0011
0000
0000
0001
0000
1000
0000
0010
0000
1000
0000
,  // measure 57
0001
0100
0010
1000
0001
1000
0100
0010
,  // measure 58
0001
0010
0100
0001
0100
0000
0001
1000
,  // measure 59
0010
0000
0100
0000
0001
0000
1000
0000
0010
0000
0100
0000
0001
0000
0000
2000
,  // measure 60
0000
0020
3030
0001
1000
0100
0010
0001
,  // measure 61
0010
0100
1000
0100
0010
1000
0001
0100
,  // measure 62
0010
1000
0010
1000
0001
0100
0001
0010
,  // measure 63
0100
1000
0100
0010
1000
0001
0100
0000
,  // measure 64
1000
0000
0000
0100
0000
0000
0010
0000
0000
0001
0000
0000
0100
0000
0001
0000
,  // measure 65
0100
0000
0000
0001
0000
0000
0100
0000
0000
0010
0000
0000
1000
0000
0010
0000
,  // measure 66
0001
1000
0001
1000
0000
1000
0100
0010
0001
0010
0100
1000
0001
1000
0010
0100
,  // measure 67
0001
1000
0001
1000
0000
0100
0001
1000
0100
0010
0001
1000
0100
0010
0001
0000
,  // measure 68
1000
0000
0000
0100
0000
0000
0010
0000
0000
0001
0000
0000
0010
0000
0100
0000
,  // measure 69
0010
0000
0000
0100
0000
0000
1000
0000
0000
0100
0000
0000
0001
0000
1000
0000
,  // measure 70
0001
0100
0001
0100
0000
0010
1000
0010
1000
0010
1000
0010
1000
0010
1000
0010
,  // measure 71
1000
0100
1000
0100
0000
1000
0100
0010
0001
0010
0100
1000
0010
0100
0010
0000
,  // measure 72
1001
0000
0000
0000
;

//---------------dance-single - ----------------
#NOTES:
     dance-single:
     :
     Medium:
     6:
     0.439,0.468,0.157,0.082,0.111: // measure 1
0000
0000
0000
0000
,  // measure 2
0000
0000
0000
0000
,  // measure 3
0000
0000
0000
0000
,  // measure 4
0000
0000
0000
0000
,  // measure 5
0000
0000
0000
0000
,  // measure 6
0000
1001
1000
0001
,  // measure 7
1000
0101
0001
0100
,  // measure 8
1000
0100
1100
0000
0010
0000
1010
0000
,  // measure 9
0101
0000
1100
0000
0001
1000
0001
0000
,  // measure 10
0100
0000
1000
0100
0010
0000
0001
0000
,  // measure 11
1000
0001
1000
0000
0001
0100
0001
0100
,  // measure 12
0001
0000
1000
0100
2000
0000
0010
0000
,  // measure 13
0001
0000
3100
0000
1000
0100
0010
0000
,  // measure 14
0001
0000
1000
0001
0100
0000
0010
0000
,  // measure 15
1000
0000
0010
0001
1000
0000
0001
0000
,  // measure 16
0100
0010
1000
0100
,  // measure 17
0000
0100
0000
0000
0100
0000
1000
0000
,  // measure 18
0010
0000
0001
0000
1000
0001
1000
0010
,  // measure 19
0100
1000
0100
0010
0001
0010
0001
0000
,  // measure 20
0100
0000
1000
0000
0100
0010
1000
0001
,  // measure 21
1000
0001
0100
0001
0100
0001
0100
0000
,  // measure 22
1000
0000
0010
0000
0010
1000
0001
1000
,  // measure 23
0001
0010
0001
1000
0001
0000
1000
0000
,  // measure 24
0100
0000
0010
1000
0001
0000
0000
1000
,  // measure 25
0000
0100
0000
0000
0010
0000
0000
0001
0000
0000
0100
0000
0001
0000
0000
0100
,  // measure 26
0000
0000
0001
0000
0100
0000
0000
0001
0000
0000
1000
0000
0000
0000
1000
0000
,  // measure 27
0000
0100
0000
0000
0010
0000
0000
0001
0000
0000
0100
0000
0001
0000
0000
1000
,  // measure 28
0000
0000
0010
0000
0100
0000
0000
1000
0000
0000
0001
0000
0000
0000
0000
0000
,  // measure 29
0100
0010
0001
0100
,  // measure 30
0001
0000
1000
0000
0010
1000
0001
1000
,  // measure 31
0001
1000
0010
1000
0010
1000
0001
1000
,  // measure 32
0001
0100
0001
1000
0001
0000
1000
0100
,  // measure 33
1000
0000
0100
0000
0110
0000
0001
0100
,  // measure 34
0001
0000
0020
0000
0031
0000
0010
0100
,  // measure 35
0010
0000
1000
0000
1100
0000
0010
1000
,  // measure 36
0010
0000
0200
0000
0310
0000
0001
1000
,  // measure 37
0001
0000
0100
0000
0101
0000
0010
0100
,  // measure 38
0010
0000
0001
1000
0010
1000
0001
0000
,  // measure 39
1000
0000
0100
1000
0010
0000
0001
0000
,  // measure 40
0100
0000
0001
1000
0010
0000
2002
0000
,  // measure 41
0000
0000
0000
3003
0000
1001
0001
0000
,  // measure 42
0100
0000
1000
0000
0100
1000
0100
0000
,  // measure 43
0010
0000
0001
0000
0100
0001
1000
0000
,  // measure 44
0010
0100
0001
0000
1000
0000
2002
0000
,  // measure 45
0000
0000
0000
0000
3003
1001
0002
0000
,  // measure 46
0000
0000
0000
0000
0000
1003
0100
1000
,  // measure 47
0100
0000
0010
0001
0010
0000
0001
0100
,  // measure 48
0001
1000
0010
1000
0001
1000
0000
1000
,  // measure 49
0100
0010
0002
0000
0000
0003
0000
0000
,  // measure 50
0000
0000
0000
0000
0000
0001
1000
0001
,  // measure 51
0100
0010
2000
0000
0000
3000
0000
0000
,  // measure 52
0000
0000
0000
0000
0000
1000
1100
0000
,  // measure 53
0000
0000
0000
0000
0000
0001
0011
0000
,  // measure 54
0000
0000
0000
0000
0000
0010
0110
0000
,  // measure 55
0000
0000
1000
0000
1100
0000
0000
0000
0000
0000
0010
0000
0011
0000
0000
0001
,  // measure 56
0000
0000
1000
0000
0000
0010
0000
0000
0001
0000
1000
0000
0001
0000
0000
1000
,  // measure 57
0000
0000
0100
0000
0000
0010
0000
0000
0001
0000
0100
0000
0001
0000
0000
0100
,  // measure 58
0000
0000
0010
0000
0000
0000
0100
0000
0010
0000
0100
0000
0010
0000
0000
1000
,  // measure 59
0000
0000
0001
0000
0000
1000
0000
0000
0001
0000
0100
0000
0001
0000
0000
0010
,  // measure 60
0000
0000
0100
0000
0000
0000
1000
0000
0100
0000
1000
0000
0100
0000
0000
1000
,  // measure 61
0000
0000
0100
0000
0000
0010
0000
0000
0001
0000
1000
0000
0001
0000
0000
0010
,  // measure 62
0000
0000
0100
0000
0000
0000
1000
0000
0100
0000
1000
0000
0100
0000
0000
1000
,  // measure 63
0000
0000
0100
0000
0000
0010
0000
0000
0001
0000
1000
0000
0001
0000
0000
0000
,  // measure 64
1000
0000
0000
0100
0000
0000
0010
0000
0000
0001
0000
0000
0100
0000
0001
0000
,  // measure 65
0100
0000
0000
0001
0000
0000
1000
0000
0000
0000
0001
0000
0100
0000
0001
0000
,  // measure 66
1000
0100
0010
0001
0010
0100
0001
0100
,  // measure 67
0010
1000
0001
1000
0010
1000
0001
0000
,  // measure 68
0100
0000
0000
0001
0000
0000
1000
0000
0000
0010
0000
0000
0001
0000
0010
0000
,  // measure 69
0001
0000
0000
0010
0000
0000
0100
0000
0000
0000
0010
0000
0001
0000
0010
0000
,  // measure 70
0100
0001
1000
0010
1000
0001
0010
0001
,  // measure 71
1000
0100
0010
0100
1000
0100
0010
0001
,  // measure 72
1001
0000
0000
0000
;

//---------------dance-single - ----------------
#NOTES:
     dance-single:
     :
     Easy:
     4:
     0.289,0.322,0.115,0.148,0.000: // measure 1
0000
0000
0000
0000
,  // measure 2
0000
0000
0000
0000
,  // measure 3
0000
0000
0000
0000
,  // measure 4
0000
0000
0000
0000
,  // measure 5
0000
0000
0000
0000
,  // measure 6
0000
1001
0000
0000
,  // measure 7
0000
1100
0000
0000
,  // measure 8
0000
0011
0000
1100
,  // measure 9
0101
1001
1000
0001
,  // measure 10
0100
0010
1000
0010
,  // measure 11
1000
0100
0010
0001
,  // measure 12
0100
0001
1000
0001
,  // measure 13
0100
0010
1000
0010
,  // measure 14
1000
0001
0100
0001
,  // measure 15
0010
0001
0010
0100
,  // measure 16
1000
0001
1000
0001
,  // measure 17
0000
0001
0000
0000
0001
0000
1000
0000
,  // measure 18
0001
0100
0002
0000
,  // measure 19
0000
0000
1003
0001
,  // measure 20
0100
0020
2000
0000
,  // measure 21
0000
3030
1000
0100
,  // measure 22
0010
0001
0200
0000
,  // measure 23
0000
0000
0301
1000
,  // measure 24
0100
0010
1001
1000
,  // measure 25
0000
0001
0000
0100
,  // measure 26
0000
0010
0000
1010
,  // measure 27
0000
1000
0000
0001
,  // measure 28
0000
0100
0000
0110
,  // measure 29
0010
0010
0010
1000
,  // measure 30
0001
1000
0100
0010
,  // measure 31
0001
0100
0001
0100
,  // measure 32
1000
0000
0010
0000
1000
0001
1000
0000
,  // measure 33
0001
0100
1000
0100
,  // measure 34
0001
0100
1000
1000
,  // measure 35
0010
0001
0010
1000
,  // measure 36
0010
0001
0010
1000
,  // measure 37
0010
0100
0100
0010
,  // measure 38
1000
0010
1000
0001
,  // measure 39
0100
0010
0010
0100
,  // measure 40
0001
1000
0001
2200
,  // measure 41
0000
0000
3300
2200
,  // measure 42
0000
0000
3300
0001
,  // measure 43
1000
0100
0010
0001
,  // measure 44
0010
0100
1000
2020
,  // measure 45
0000
0000
3030
0202
,  // measure 46
0000
0000
0303
0001
,  // measure 47
1000
1000
0001
1000
,  // measure 48
0100
0010
0001
2000
,  // measure 49
0000
0000
0000
0000
0000
3000
0000
0000
,  // measure 50
0000
0000
0000
0002
,  // measure 51
0000
0000
0000
0000
0000
0003
0000
0000
,  // measure 52
0000
0000
0000
0200
,  // measure 53
0000
0000
0300
0020
,  // measure 54
0000
0000
0030
2000
,  // measure 55
3000
0002
0003
1000
,  // measure 56
0001
0100
0010
1100
,  // measure 57
1000
0100
0010
0001
,  // measure 58
0100
0001
0100
0010
,  // measure 59
1000
0000
0100
0000
0010
0001
0010
0000
,  // measure 60
0001
0010
0100
1000
,  // measure 61
0010
1000
0001
0100
,  // measure 62
0010
1000
0100
0010
,  // measure 63
0001
0000
1000
0000
0001
0100
0001
0000
,  // measure 64
1000
0100
0010
0001
,  // measure 65
0010
0100
1000
0001
,  // measure 66
1000
0001
1000
0000
0001
0000
0100
0000
,  // measure 67
0001
0100
0001
0000
0100
0000
0001
0000
,  // measure 68
0010
1000
0100
0010
,  // measure 69
0001
0010
0100
1000
,  // measure 70
0010
1000
0010
0000
1000
0000
0001
0000
,  // measure 71
0100
0001
0100
0000
1000
0000
0001
1000
,  // measure 72
0001
0000
0000
0000
;

//---------------dance-single - ----------------
#NOTES:
     dance-single:
     :
     Beginner:
     1:
     0.067,0.117,0.025,0.000,0.000: // measure 1
0000
0000
0000
0000
,  // measure 2
0000
0000
0000
0000
,  // measure 3
0000
0000
0000
0000
,  // measure 4
0000
0000
0000
0000
,  // measure 5
0000
0000
0000
0000
,  // measure 6
0000
1000
0000
0000
,  // measure 7
0000
1000
0000
0000
,  // measure 8
0000
0001
0000
0001
,  // measure 9
0000
0000
0001
0000
,  // measure 10
0000
0000
0000
0000
,  // measure 11
0000
0000
1000
0000
,  // measure 12
0000
0000
0000
0000
,  // measure 13
0000
0000
0010
0000
,  // measure 14
0000
0000
0000
0000
,  // measure 15
0000
0000
0100
0000
,  // measure 16
0000
0000
0000
0000
,  // measure 17
0000
0000
0010
0000
,  // measure 18
0000
0000
0001
0000
,  // measure 19
0000
0000
1000
0000
,  // measure 20
0000
0000
1000
0000
,  // measure 21
0000
0000
0100
0000
,  // measure 22
0000
0000
0001
0000
,  // measure 23
0000
0000
1000
0000
,  // measure 24
0000
0000
0000
0001
,  // measure 25
0000
0000
0000
0000
,  // measure 26
0000
0000
0000
1000
,  // measure 27
0000
0000
0000
0000
,  // measure 28
0000
0000
0000
0010
,  // measure 29
0000
0000
0000
0000
,  // measure 30
0000
0000
0000
0100
,  // measure 31
0000
0000
0000
0000
,  // measure 32
0000
0000
0000
1000
,  // measure 33
0000
0000
0000
0000
,  // measure 34
0000
0000
0000
0001
,  // measure 35
0000
0000
0000
0000
,  // measure 36
0000
0000
0000
0010
,  // measure 37
0000
0000
0000
0000
,  // measure 38
0000
0000
0000
0100
,  // measure 39
0000
0000
0000
0000
,  // measure 40
0000
0000
0000
1001
,  // measure 41
0000
0000
0000
0100
,  // measure 42
0000
0000
0000
0010
,  // measure 43
0000
0000
0000
0000
,  // measure 44
0000
0000
0000
0110
,  // measure 45
0000
0000
0000
0010
,  // measure 46
0000
0000
0000
0100
,  // measure 47
0000
1000
0000
0001
,  // measure 48
0000
1000
0000
0000
,  // measure 49
0000
0000
0000
0000
,  // measure 50
0000
0000
0000
0010
,  // measure 51
0000
0000
0000
0000
,  // measure 52
0000
0000
0000
1000
,  // measure 53
0000
0000
0000
1000
,  // measure 54
0000
0000
0000
0001
,  // measure 55
0000
0001
0000
0001
,  // measure 56
0000
0000
0000
0010
,  // measure 57
0000
0000
0000
0010
,  // measure 58
0000
0000
0000
0100
,  // measure 59
0000
0000
0000
0000
,  // measure 60
0000
0000
0000
1000
,  // measure 61
0000
0000
0000
1000
,  // measure 62
0000
0000
0000
0001
,  // measure 63
0000
0000
0000
0000
,  // measure 64
0010
0000
0000
0000
,  // measure 65
0100
0000
0000
0000
,  // measure 66
1000
0000
0000
0000
,  // measure 67
0000
0000
0000
0000
,  // measure 68
0001
0000
0000
0000
,  // measure 69
0001
0000
0000
0000
,  // measure 70
1000
0000
0001
0000
,  // measure 71
0100
0000
0010
0000
,  // measure 72
1001
0000
0000
0000
;
