#TITLE:The Dirty of Loudness;
#SUBTITLE:;
#ARTIST:Tatsh Assault X;
#TITLETRANSLIT:;
#SUBTITLETRANSLIT:;
#ARTISTTRANSLIT:;
#CREDIT:Stepfile created by Digi379 aka DHB;
#BANNER:bn.PNG;
#BACKGROUND:bg.PNG;
#LYRICSPATH:;
#CDTITLE:13 dd.png;
#MUSIC:1-02_the_dirty_of_loudness.mp3;
#OFFSET:0.317;
#SAMPLESTART:28.300;
#SAMPLELENGTH:12.000;
#SELECTABLE:YES;
#DISPLAYBPM:*;
#BPMS:0.000=330.000,406.000=82.500,410.000=329.999,422.000=82.500,426.000=329.999,458.000=220.000,459.000=165.000,460.000=110.000,461.000=55.000,462.000=330.000;
#STOPS:125.500=0.364
,127.500=0.360
,129.500=1.091
,131.500=0.364
,133.500=0.364
,135.500=1.091
,164.000=0.182
,165.000=0.182
,263.500=0.364
,265.500=0.364
,267.500=1.091
,269.500=0.364
,271.500=0.364
,273.500=0.344
,462.000=0.455
;
#BGCHANGES:;

//---------------dance-single - ----------------
#NOTES:
     dance-single:
     :
     Hard:
     10:
     0.800,0.971,0.324,0.134,0.000: // measure 1
0000
0000
0000
0000
,  // measure 2
0000
0000
0000
0000
,  // measure 3
0000
0000
0000
0000
,  // measure 4
0000
0000
0000
0000
,  // measure 5
0000
0000
0000
0000
,  // measure 6
0000
0001
0000
0010
0000
1100
0000
0010
,  // measure 7
0000
0001
0000
0100
0000
0010
0000
1000
,  // measure 8
0001
0000
0001
0100
0001
0000
0100
1000
,  // measure 9
0100
0000
0000
1000
0010
0000
0100
0001
,  // measure 10
0100
0001
0000
1000
0000
0010
0000
0100
,  // measure 11
0000
0010
0000
1000
0000
0001
0000
0000
,  // measure 12
1100
0101
2200
0000
,  // measure 13
3300
0000
1001
0000
,  // measure 14
1000
0001
0000
1000
0000
0010
0000
1000
,  // measure 15
0000
0001
0000
0100
0000
0001
0000
0100
,  // measure 16
0000
0010
0000
0100
0000
0010
0000
1000
,  // measure 17
0100
0000
0000
0101
0000
0000
0011
0000
,  // measure 18
0001
1000
0000
0010
0000
1000
0000
0100
,  // measure 19
0000
1000
0000
0100
0000
0010
0000
0100
,  // measure 20
0010
0100
0000
0010
0001
0000
1000
0010
,  // measure 21
1000
0000
0000
0001
0100
0000
0010
0100
,  // measure 22
0010
1000
0000
0010
0000
1000
0000
0100
,  // measure 23
0000
0010
0000
0100
0000
1000
0000
0100
,  // measure 24
0000
0010
0000
0001
0000
0010
0000
0001
,  // measure 25
0000
1000
0000
0001
0000
0100
0000
0001
,  // measure 26
0000
0100
0000
0100
0000
0010
0000
0001
,  // measure 27
0000
1000
0000
0100
0000
0010
0000
1000
,  // measure 28
0000
0001
0000
0001
0000
0001
0000
0001
,  // measure 29
0000
1000
0000
1000
0000
1000
0000
1000
,  // measure 30
0001
1001
0110
0110
,  // measure 31
1001
0000
1000
0001
1000
0001
1000
0001
,  // measure 32
0010
0001
0010
0001
0010
1000
0010
1000
,  // measure 33
1000
0100
1000
0100
0010
0001
0010
0001
,  // measure 34
0001
0100
0001
0100
0010
0100
0010
0100
,  // measure 35
1000
0100
0010
0100
,  // measure 36
0010
1000
1001
0110
,  // measure 37
0010
1000
0001
0100
,  // measure 38
0010
0100
0010
1000
,  // measure 39
0001
0100
0010
1000
,  // measure 40
0110
0001
0110
0010
,  // measure 41
1000
0010
0100
0010
,  // measure 42
0011
1100
0010
1000
,  // measure 43
0010
0100
0010
0100
,  // measure 44
0001
0000
0010
0000
0001
0000
0010
1000
,  // measure 45
0010
0000
0100
0000
0010
0100
0010
0000
,  // measure 46
0010
0000
0001
1000
,  // measure 47
0010
0100
0010
1000
,  // measure 48
0010
0100
1100
0000
,  // measure 49
0011
0000
2000
3200
,  // measure 50
0320
0032
1003
0010
,  // measure 51
0100
0000
0001
0100
0010
0000
0100
0000
,  // measure 52
1001
0000
0010
1000
,  // measure 53
0001
0000
1000
0100
0010
0000
0001
0010
,  // measure 54
0001
0000
0001
0100
,  // measure 55
0010
0000
0010
0100
0010
0000
0100
0000
,  // measure 56
1001
0000
0000
0000
0010
0000
1000
0100
,  // measure 57
1000
0000
0110
0000
0010
0000
0100
0010
,  // measure 58
0100
0010
1000
0100
,  // measure 59
0010
0000
0001
0010
0100
0000
0010
0000
,  // measure 60
0100
0010
0100
0010
,  // measure 61
0100
0000
1000
0100
0010
0000
0010
0000
,  // measure 62
0100
0001
0100
0010
,  // measure 63
0100
0000
1000
0010
1000
0000
0100
0000
,  // measure 64
0001
0000
0100
0010
0100
0001
1000
0000
,  // measure 65
0010
1000
0100
0010
,  // measure 66
0100
0010
0100
0000
0010
0100
0010
0100
,  // measure 67
1000
0100
1000
0100
0010
0100
0010
0100
,  // measure 68
0010
0001
0010
0001
0010
0100
0010
0100
,  // measure 69
1000
0100
1000
0100
2002
0000
0000
0000
,  // measure 70
0000
3003
0010
1000
,  // measure 71
0010
0100
0010
0100
,  // measure 72
1001
0000
0000
0000
0010
1000
0000
0000
,  // measure 73
0001
0100
0000
0000
0010
0100
0000
0000
,  // measure 74
0010
1000
0000
0000
1000
0100
0000
0000
,  // measure 75
0010
0001
0000
0000
1000
0100
0000
0000
,  // measure 76
0001
0100
0000
0000
0010
0100
0000
0000
,  // measure 77
0001
1000
0000
0000
0010
0000
0100
0000
,  // measure 78
0010
0100
0010
0000
0010
0000
1000
0000
,  // measure 79
0001
0100
0010
0100
,  // measure 80
0010
0100
0010
0000
0010
1000
0100
0001
,  // measure 81
0010
0100
1000
0010
0100
0001
0100
0010
,  // measure 82
0100
1001
0010
1000
,  // measure 83
0001
0100
1000
0100
,  // measure 84
0010
0001
0010
0100
,  // measure 85
0010
0100
0001
1000
,  // measure 86
0010
0000
0100
0000
0010
0100
0010
0100
,  // measure 87
0010
0100
0010
0100
0010
0100
0010
0100
,  // measure 88
0010
0100
0010
0100
1000
0000
0100
0000
,  // measure 89
0010
0001
0100
0000
0010
0100
0010
0000
,  // measure 90
1000
0000
0100
0000
0010
0100
0001
1000
,  // measure 91
0100
0001
0100
1000
0010
0001
0010
0100
,  // measure 92
1000
0100
0001
0000
0010
0000
0100
0000
,  // measure 93
0010
0000
0100
0000
0001
0000
1000
0010
,  // measure 94
0001
0100
0010
1000
0100
0010
1000
0100
,  // measure 95
1000
0100
1000
0100
1000
0100
1000
0100
,  // measure 96
1000
0000
0000
0000
0010
0100
0010
0100
,  // measure 97
0010
0100
0010
0100
0010
0100
0010
0100
,  // measure 98
0010
0000
0001
0000
0001
0100
0001
0100
,  // measure 99
0001
0100
0001
0000
0001
0010
0001
0010
,  // measure 100
0001
0010
0000
0000
0010
0001
1000
0100
,  // measure 101
0010
0100
0001
1000
0010
0001
0100
0010
,  // measure 102
0100
0010
0100
0000
1002
0000
0000
0000
,  // measure 103
0000
0000
0000
0000
1003
0100
0000
0010
,  // measure 104
0000
0100
0000
0010
0000
0100
0000
0001
,  // measure 105
0000
0100
0000
1000
0000
0010
0000
0100
,  // measure 106
0000
0001
0000
0010
0200
0000
0000
0000
,  // measure 107
0000
0000
0000
0000
1300
0000
0100
0010
,  // measure 108
0100
0000
1000
0010
0100
0001
1000
0100
,  // measure 109
0010
0001
0010
0100
0000
0000
0000
0000
,  // measure 110
0110
0000
0011
0000
,  // measure 111
0000
0110
0000
0000
0000
1000
0000
0001
,  // measure 112
0000
0110
0000
0000
0100
0010
1000
0100
,  // measure 113
0010
0001
0010
0100
1000
0001
0100
0010
,  // measure 114
0100
1000
0001
0100
0010
1000
0001
1000
,  // measure 115
0001
0100
0010
0000
2002
0000
0000
0000
,  // measure 116
0000
0000
3003
1000
,  // measure 117
0010
0100
0010
1000
,  // measure 118
0000
1001
0000
0110
,  // measure 119
0000
0000
0000
2002
,  // measure 120
0000
0000
0000
3003
;

//---------------dance-single - ----------------
#NOTES:
     dance-single:
     :
     Medium:
     8:
     0.567,0.685,0.229,0.172,0.000:
0000
0000
0000
0000
,
0000
0000
0000
0000
,
0000
0000
0000
0000
,
0000
0000
0000
0000
,
0000
0000
0000
0000
,
1000
0000
0100
0000
,
0010
0000
0100
0000
,
1001
0000
0010
0000
,
0100
0000
1000
0100
,
0010
0001
0001
0000
,
0100
0000
0010
0000
,
1001
1001
1001
0000
,
0000
0000
0110
0000
,
0010
1000
0001
0000
,
0010
0000
0110
0000
,
0001
0000
1000
0000
,
1100
0000
0000
0011
0000
0000
1001
0000
,
0010
0100
0001
0000
,
0010
1000
0001
0000
,
0010
1000
0001
0100
,
0010
0000
0010
0000
,
0100
1000
0100
0000
,
0010
0100
0001
0000
,
1001
0000
0010
0000
,
0110
0000
0010
0000
,
0010
1000
0010
0100
,
0001
0100
0010
1000
,
0001
0100
0010
1000
,
0001
0100
0010
0100
,
1000
1000
0001
0001
,
0100
0000
0100
0000
0010
0000
0010
0100
,
0010
1000
0100
1000
,
0100
0010
0001
0100
,
0010
0100
0100
1000
,
0010
1000
0010
0100
,
0001
0100
0010
0000
,
0010
0100
0001
1000
,
0010
0100
1100
0000
,
0010
0100
0001
1000
,
0010
0100
0010
0000
,
0001
0100
0010
0000
,
0001
1000
0010
1000
,
0001
0000
0010
1000
,
0001
0000
0001
0100
,
0010
1000
0001
0100
,
0010
0000
0010
1000
,
0001
0000
0010
0100
,
0001
0000
1000
0000
,
0100
0000
0110
0110
,
0110
0110
0010
1000
,
0002
0000
0103
0010
,
2000
0000
3100
0010
,
0001
0010
0100
1000
,
0100
0000
0010
0100
,
0002
0000
1003
0100
,
0020
0000
0130
1000
,
0100
0010
0001
0010
,
0100
0000
1000
0100
,
1000
0000
0010
0100
,
0001
0000
0010
0100
,
0001
1000
0010
0100
,
0002
0000
1003
0100
,
0020
0000
0130
0001
,
2000
0000
3010
0100
,
0001
0000
0100
1000
,
0100
0000
1000
0100
,
0010
0001
0010
0100
,
1000
0100
0001
0100
,
0010
0100
2002
0000
,
0003
3000
0010
0100
,
0010
1000
0010
0000
,
0100
0000
1000
0100
,
0010
0001
1000
0100
,
0010
0001
0010
0100
,
1000
0100
0010
0100
,
0001
1000
0010
0100
,
0010
1000
0010
0100
,
0001
0100
0010
0001
,
0010
0100
1000
0100
,
0010
0100
0001
0100
,
0010
1000
0010
0100
,
0010
0100
0010
1000
,
0010
0100
0001
0010
,
0001
0010
0100
1000
,
0100
0010
0100
0001
,
0100
0000
1000
1000
,
0100
0100
0010
0010
,
0001
0001
0010
0100
,
0001
1000
0010
0100
,
0001
0000
0010
0100
,
0010
0100
0010
1000
,
0001
0100
0010
1000
,
0001
0100
0010
0100
,
0001
0000
1000
0100
,
0010
0001
1000
0100
,
0010
0001
0001
0010
,
0100
1000
0001
0010
,
0100
1000
0001
0100
,
0010
0000
0010
1000
,
0010
0000
0001
1000
,
0010
0100
0010
0001
,
1000
0100
2002
3000
,
2000
3003
0010
0100
,
0010
1000
0001
0100
,
0010
1000
0010
0100
,
0010
0100
2002
0000
,
0000
3003
1000
0100
,
0010
0100
0010
0100
,
0001
1000
1000
0000
,
1100
0000
0011
0000
,
0000
0001
0000
0000
0000
0010
0000
1000
,
0000
0100
0000
0000
0010
0000
0100
0000
,
0001
1000
0010
0100
,
0010
1000
0010
0100
,
0010
0100
2002
0000
,
0000
0000
3003
0010
,
0100
0001
1000
0010
,
0000
0100
0000
1001
,
0000
0000
0000
2002
,
0000
0000
0000
3003
;

//---------------dance-single - ----------------
#NOTES:
     dance-single:
     :
     Easy:
     6:
     0.436,0.566,0.343,0.105,0.000:
0000
0000
0000
0000
,
0000
0000
0000
0000
,
0000
0000
0000
0000
,
0000
0000
0000
0000
,
0000
0000
0000
0000
,
0010
0000
0000
0000
,
0000
0000
0000
0000
,
0001
0000
0000
0000
,
0000
0000
0000
0000
,
1000
0000
0000
0000
,
0000
0000
0000
0000
,
0001
1000
0001
0000
,
0000
0000
1001
0000
,
0010
0000
0100
0000
,
1000
0000
0010
0000
,
0100
0000
0001
0000
,
0100
0000
1000
0100
,
0010
0000
0100
0000
,
0001
0000
1000
0000
,
0100
0000
0010
0000
,
0100
0000
0010
0000
,
1001
0000
0010
0000
,
1001
0000
0010
0000
,
1001
0000
0010
0000
,
0100
0000
1000
0000
,
1100
0000
0101
0000
,
1100
0000
0101
0000
,
1100
0000
0101
0000
,
1100
0000
0101
0000
,
0010
0100
0010
0100
,
0010
0100
0010
0000
,
1000
0000
0001
0000
,
1000
0000
0001
0000
,
1000
0000
0001
0000
,
1000
0000
0001
0000
,
0100
0000
0010
1000
,
0001
0000
0100
0000
,
1000
0100
0010
0000
,
0001
0000
0100
0000
,
0001
1000
0010
0000
,
0100
0000
0001
0000
,
1001
1001
0010
0000
,
0100
0000
1000
0100
,
0010
0000
0001
0000
,
0011
0000
0001
0100
,
0010
0000
1000
0000
,
1010
0000
0010
1000
,
0001
0000
0100
0000
,
0010
0000
0001
1000
,
0001
1000
0001
0000
,
1000
0000
0100
1000
,
0010
0000
0001
0000
,
0011
0000
0010
0100
,
0001
0000
1000
0000
,
0101
0000
0010
0000
,
0101
0000
0010
0000
,
1000
0000
1000
0100
,
0010
0000
0010
0000
,
1010
0000
1000
0100
,
0010
0000
0001
0000
,
0110
0000
0001
0000
,
1010
0000
0001
0000
,
1100
0000
0010
0100
,
0001
0000
1001
0000
,
1001
0000
0010
0100
,
0010
0000
1000
0000
,
0100
0000
0010
0000
,
1001
0000
0110
0000
,
1100
0000
0022
0000
,
0000
0033
0200
0000
,
0000
0000
0000
0000
,
0310
0000
1000
0000
,
0100
0000
0010
0000
,
0001
0000
0001
0100
,
0010
0000
1000
0100
,
0010
0000
0001
0100
,
0010
0000
0001
1000
,
0001
0000
0010
1000
,
0001
0000
0100
0001
,
0010
0000
0100
1000
,
0010
0000
0100
0001
,
0100
0000
0100
0010
,
1000
0010
0100
0000
,
0001
0000
1000
0000
,
0010
0000
0001
0000
,
0100
0000
1000
0100
,
0010
0001
1000
0100
,
0010
0001
0010
0100
,
1000
0010
0001
0100
,
0010
0000
0001
1000
,
0001
0000
0010
0100
,
0010
0000
1001
0000
,
0110
0000
0010
1000
,
0010
0000
1000
0100
,
1000
0100
1000
0100
,
2000
0000
3010
0001
,
0010
0001
0010
0001
,
0020
0000
0130
0100
,
0100
0000
0010
0010
,
0010
0000
1001
0000
,
0110
0000
0010
1000
,
0001
0100
2002
0000
,
0000
3003
0010
0100
,
0010
0100
0010
0100
,
0010
0100
0010
0100
,
0010
0200
0020
0000
,
0000
0330
1000
0000
,
0100
0000
0010
0000
,
0100
1000
0000
0000
,
0010
0000
0100
0000
,
0000
0100
0000
0000
,
0000
0000
0001
0100
,
1000
0100
0010
0001
,
0010
0100
0010
1000
,
0001
0100
0220
0000
,
0000
0000
0330
1000
,
0001
1000
0001
1000
,
0000
0001
0000
1000
,
0000
0000
0000
1001
;

//---------------dance-single - ----------------
#NOTES:
     dance-single:
     :
     Challenge:
     11:
     0.943,1.000,0.496,0.248,0.000: // measure 1
0000
0000
0000
0000
,  // measure 2
0000
0000
0000
0000
,  // measure 3
0000
0000
0000
0000
,  // measure 4
0000
0000
0000
0000
,  // measure 5
0000
0000
0002
0000
,  // measure 6
1003
0001
0000
0010
0000
0011
0000
0100
,  // measure 7
0000
1000
0000
0010
0000
0100
0000
0001
,  // measure 8
1000
0000
1000
0010
1000
0000
0010
0001
,  // measure 9
0010
0000
0000
0001
0100
0000
0010
1000
,  // measure 10
0010
1000
0000
0001
0000
0100
0000
0010
,  // measure 11
0000
0100
0000
0001
0000
1000
0000
0000
,  // measure 12
0011
1010
0022
0000
,  // measure 13
0033
0000
1001
0000
,  // measure 14
0001
1000
0000
0001
0000
0100
0000
0001
,  // measure 15
0000
1000
0000
0010
0000
1000
0000
0010
,  // measure 16
0000
0100
0000
0010
0000
0100
0000
0001
,  // measure 17
0010
0000
0000
1010
0000
0000
1100
0000
,  // measure 18
1000
0001
0000
0100
0000
0001
0000
0010
,  // measure 19
0000
0001
0000
0010
0000
0100
0000
0010
,  // measure 20
0100
0010
0000
0100
1000
0000
0001
0100
,  // measure 21
0001
0000
0000
1000
0010
0000
0100
0010
,  // measure 22
0100
0001
0000
0100
0000
0001
0000
0010
,  // measure 23
0000
0100
0000
0010
0000
0001
0000
0100
,  // measure 24
0010
0100
0010
0000
1000
0000
0001
1000
,  // measure 25
0000
0000
0000
1000
0001
0000
0010
1000
,  // measure 26
0010
1000
0000
0110
0000
0101
0000
1001
,  // measure 27
0000
0011
0000
0110
0000
1100
0000
1001
,  // measure 28
0000
1000
0000
1000
0000
1000
0000
1000
,  // measure 29
0000
0001
0000
0001
0000
0001
0000
0001
,  // measure 30
1000
1001
0110
0110
,  // measure 31
1001
0000
0001
1000
0001
1000
0001
1000
,  // measure 32
0100
0000
0010
0000
0001
0000
0020
0030
1000
0000
0100
0000
0010
0000
0200
0300
,  // measure 33
0010
0000
0001
0000
0010
0000
2000
3000
1000
0000
0100
0000
0001
0000
0020
0030
,  // measure 34
1000
0000
0010
0000
0001
0000
0200
0300
0010
0000
0100
0000
1000
0000
0002
0003
,  // measure 35
1000
0100
0010
0100
,  // measure 36
0010
0000
0100
0000
0010
0000
0010
1000
,  // measure 37
0001
0100
0010
0100
,  // measure 38
0010
0100
0010
0100
0010
0000
0100
0000
,  // measure 39
1001
0000
0010
0000
0010
0000
0010
1000
,  // measure 40
0010
0101
1000
0010
,  // measure 41
0001
0010
0100
0000
0010
0000
0100
0000
,  // measure 42
0002
0103
0020
0030
1000
0000
0100
0000
,  // measure 43
0010
0000
0010
0100
0010
0000
1000
0000
,  // measure 44
1001
0000
0010
0000
0010
1000
0010
0000
,  // measure 45
0100
0000
0001
0100
0001
0000
0100
0000
,  // measure 46
1100
0000
0010
0000
0010
0100
0010
0000
,  // measure 47
0010
0000
0010
1000
0001
0000
0100
0000
,  // measure 48
0010
0000
0010
0000
1000
0001
0010
0000
,  // measure 49
0110
0010
0020
1000
,  // measure 50
0001
0000
1030
0000
0100
0010
0100
0000
,  // measure 51
0010
0000
0010
1000
0001
0000
0100
0000
,  // measure 52
0101
0000
0110
0000
0010
1000
0010
0000
,  // measure 53
0100
0000
1000
0100
0010
0000
0001
0000
,  // measure 54
0011
0000
1100
0000
0010
0100
0010
0000
,  // measure 55
1001
0000
0001
0100
0010
0000
0100
0000
,  // measure 56
1010
0000
0001
0000
0100
0010
0100
0000
,  // measure 57
1010
0000
0010
0100
0010
0100
0010
0100
,  // measure 58
0010
0000
0001
0000
0010
1000
0010
0000
,  // measure 59
0100
0000
0001
0100
0001
0000
0010
0000
,  // measure 60
0110
0000
0001
0000
1000
0010
0100
0000
,  // measure 61
0100
0000
0001
0100
0001
0000
0010
0000
,  // measure 62
0110
0000
0001
0010
1000
0010
1000
0000
,  // measure 63
0010
0000
0001
0100
0001
0000
0010
0000
,  // measure 64
0100
0000
1000
0000
1000
0100
1000
0000
,  // measure 65
0010
0100
0001
0000
0010
0100
0010
0100
,  // measure 66
0010
0000
0000
0000
0100
0000
0000
0000
0010
0000
0000
0000
0000
0000
0000
0000
1000
0000
0000
0000
0100
0000
0000
0000
0010
0000
0000
0000
0002
0003
0000
0000
,  // measure 67
0001
0000
0000
0000
0010
0000
0000
0000
0100
0000
0000
0000
2000
3000
0000
0000
0100
0000
0000
0000
0010
0000
0000
0000
1000
0000
0000
0000
0002
0003
0000
0000
,  // measure 68
0010
0000
0000
0000
0001
0000
0000
0000
0010
0000
0000
0000
0200
0300
0000
0000
1000
0000
0000
0000
0100
0000
0000
0000
0001
0000
0000
0000
0020
0030
0000
0000
,  // measure 69
0001
0000
0000
0000
0100
0000
0000
0000
0010
0000
0000
0000
2000
3000
0000
0000
0010
0000
0000
0000
0100
0000
0000
0000
1000
0000
0000
0000
0001
0000
0000
0000
,  // measure 70
0100
1000
0100
0010
0001
0000
1000
0000
,  // measure 71
0100
0010
0100
0000
,  // measure 72
0110
0000
0000
0000
0010
1000
0010
0000
,  // measure 73
0001
0100
0001
0000
0010
0100
0010
0000
,  // measure 74
0010
0100
0010
0000
0010
1000
0010
0000
,  // measure 75
0001
0100
0010
0000
0010
0000
1100
0000
,  // measure 76
0100
0011
1001
0100
,  // measure 77
1010
0100
0011
0100
,  // measure 78
1010
0000
0100
0000
0010
0100
0010
0000
,  // measure 79
0010
0000
1000
0000
0001
1000
0001
0000
,  // measure 80
0010
0000
1000
0000
0010
1000
0010
0000
,  // measure 81
0100
0000
0001
0000
0010
0100
0010
0000
,  // measure 82
1000
0000
0100
0000
0010
0001
0010
0000
,  // measure 83
0100
0000
1000
0000
0100
0010
0100
0000
,  // measure 84
0010
0000
0100
0000
0010
1000
0010
0000
,  // measure 85
0001
0100
0010
1000
,  // measure 86
0001
0000
0100
0000
0010
0100
0010
0100
,  // measure 87
0010
0100
0010
0100
0001
1000
0010
0100
,  // measure 88
0010
1000
0001
0100
0010
0100
0010
1000
,  // measure 89
0001
0100
0010
0100
1000
0100
0010
0001
,  // measure 90
0010
0100
0010
0000
0010
0100
0010
0100
,  // measure 91
0001
1000
0010
0100
0010
0100
0001
0100
,  // measure 92
0010
0100
0001
1000
0010
0100
0010
1000
,  // measure 93
0001
0100
0010
0100
0001
0100
0010
0100
,  // measure 94
0010
0100
0010
0000
1000
0100
1000
0100
,  // measure 95
1000
0100
1000
0100
1000
0100
1000
0100
,  // measure 96
1000
0100
1000
0000
0010
0001
0010
0001
,  // measure 97
0010
0001
0010
0001
0010
0001
0010
0001
,  // measure 98
0010
0000
0001
0100
0001
0100
0001
0100
,  // measure 99
0001
0100
0001
0100
0010
0100
0010
1000
,  // measure 100
0010
0100
0001
0100
0010
0100
0010
1000
,  // measure 101
0001
0100
0010
1000
0010
0100
0001
1000
,  // measure 102
0010
0100
0010
1000
0002
0000
0000
0000
,  // measure 103
2000
0000
0000
3000
1003
0100
0010
0001
,  // measure 104
0100
0010
1000
0010
0100
0001
0010
0100
,  // measure 105
1000
0100
0010
0001
0010
0100
1000
0001
,  // measure 106
0100
0010
1000
0000
2002
0000
0000
0000
,  // measure 107
0000
0000
0000
3000
1003
0001
0100
0010
,  // measure 108
0100
0001
1000
0010
0100
0001
1000
0100
,  // measure 109
0010
0001
0010
0100
1000
0000
0000
0000
,  // measure 110
0110
0000
0011
0000
,  // measure 111
0000
0110
0000
0000
0000
1000
0000
0001
,  // measure 112
0000
0110
0000
0001
0100
0010
1000
0100
,  // measure 113
0010
0001
0010
0100
1000
0001
0100
0010
,  // measure 114
0100
1000
0001
0100
0010
1000
0001
1000
,  // measure 115
0001
0100
0010
2000
0002
0000
0000
0000
,  // measure 116
0000
0000
0000
0000
0000
0000
0000
0000
0000
0000
0000
0000
0000
0000
0000
0000
0000
0000
0000
0000
0000
0000
0000
0000
0000
0000
0000
0000
0000
0000
0000
0000
0000
3003
0000
0000
0000
0000
0000
0000
0000
0000
0000
0000
0000
0000
0000
0000
1100
0000
0000
0000
0000
0000
0000
0000
0000
0000
0000
0000
0000
0000
0000
0000
,  // measure 117
0011
0110
1100
0011
,  // measure 118
0000
1001
0000
1001
,  // measure 119
0000
0000
0000
2002
,  // measure 120
0000
0000
0000
3003
;
