#TITLE:The Detonator;
#SUBTITLE:;
#ARTIST:Teranoid Vs L.E.D.-G;
#TITLETRANSLIT:;
#SUBTITLETRANSLIT:;
#ARTISTTRANSLIT:;
#CREDIT:;
#BANNER:bn.PNG;
#BACKGROUND:bg.PNG;
#LYRICSPATH:;
#CDTITLE:IIDX GOLD.png;
#MUSIC:THE DETONATOR.mp3;
#OFFSET:0.100;
#SAMPLESTART:24.040;
#SAMPLELENGTH:12.000;
#SELECTABLE:YES;
#BPMS:0.000=173.000;
#STOPS:169.000=1.040
;
#BGCHANGES:;

//---------------dance-single - ----------------
#NOTES:
     dance-single:
     :
     Hard:
     9:
     0.564,0.743,0.182,0.154,0.087:
0000
0000
0000
0000
,
0000
0000
0000
0000
,
0000
1000
0100
0010
,
0010
0001
0100
1000
,
0001
1000
0100
0010
,
0001
0100
1000
0100
,
0010
0110
0110
0110
,
0110
1001
1001
1001
,
0000
1010
0101
1100
,
0011
0000
0000
0101
,
0000
0000
1000
0100
1000
0100
1000
0100
,
1000
0100
1000
0100
0001
0100
0001
0100
,
0001
0100
0010
0001
0010
0001
0010
0001
,
0010
0000
0010
0000
0100
0000
1000
0001
,
0100
0000
0010
1000
0010
1000
0010
0100
,
0010
0100
0001
0010
0100
1000
0100
1000
,
0010
0100
0010
1000
0100
0010
0001
0010
,
0100
0000
0000
0000
0000
0000
0001
0000
0000
0002
0000
0000
1000
0000
0000
2000
,
0000
3003
1000
0100
0010
0100
0001
1000
,
0010
1000
0001
1000
0010
1000
0001
1000
,
0010
1000
0001
0100
0010
0001
0010
0100
,
1000
0000
0100
0000
0010
0000
0001
0000
0010
0000
0100
0000
0001
0100
0001
0100
,
0001
0100
0001
0100
0001
0000
0100
0000
0001
0000
0100
0000
0010
0000
1000
0000
,
0010
1000
0100
1000
0100
0010
0001
0010
,
0100
1000
0100
1000
0010
0100
0010
0000
,
0000
0000
0012
0000
0000
2000
0000
0000
,
3003
0000
0010
0100
0010
0100
0001
1000
,
0010
1000
0001
0100
0010
0001
0010
0100
,
1000
0100
0010
0001
0010
0100
0001
1000
,
0010
0000
1000
0000
0100
0000
1000
0000
0100
0000
0010
0000
0001
0100
0001
0100
,
0001
0100
0001
0100
0001
0000
0100
0000
0010
0000
1000
0000
0010
0000
0100
0000
,
1000
0100
0010
0001
0010
0100
0001
0100
,
0010
1000
0100
1000
0100
1000
0010
0001
,
0010
0100
0002
0000
0000
0000
0000
0000
,
0003
0000
0000
1000
0100
1000
0000
0010
,
0001
0010
0000
0001
0100
0001
1000
0010
,
1000
0010
0000
1000
0100
1000
0000
0010
,
0001
0010
0001
0010
0200
0000
1000
0000
,
1300
0000
0000
1000
0100
0010
0000
0001
,
1000
0010
0000
1000
0100
0010
0001
0010
,
0001
0010
0000
0001
0100
0001
0000
0010
,
1000
0000
0000
0010
0000
0000
0002
0000
0000
0000
0000
0000
0000
0000
0000
0000
0000
0000
1003
0000
0100
0000
1000
0000
,
0100
0000
1000
0000
0100
0000
1000
0000
0000
0000
0000
0000
0000
0000
0000
0001
0000
0000
1000
0000
0000
0001
0000
0000
,
0010
0100
1000
0100
0010
0100
0010
0100
,
0001
0010
0001
0010
0000
0001
0100
0001
,
1000
0010
0100
0010
0000
1000
0100
0010
,
0000
0001
0100
0010
0000
1000
0100
0010
,
0001
0010
0100
1000
0000
0010
1000
0001
,
0000
0001
0010
0001
1000
0000
0100
0000
,
0010
0000
0001
0000
1000
0001
1000
0001
,
1000
0001
1000
0001
0010
1000
0010
1000
,
0010
1000
0010
0100
0010
1000
0001
0010
,
0100
1000
0100
0010
0001
0010
0100
0001
,
1000
0100
0010
0001
1000
0100
1000
0100
,
0010
0001
0100
0000
0101
0000
0000
1010
,
0000
0000
0011
0000
1000
0100
0010
0000
,
0001
0100
0010
0000
1000
0000
0010
0000
,
0010
0010
0011
0000
1000
0000
0100
0000
,
0010
0001
0100
1000
,
0010
0100
1000
0010
,
0001
0000
0000
0000
0100
0000
0000
0000
1000
0100
0010
0001
0010
0100
1000
0100
,
0010
0001
0010
1000
0001
0100
0010
0001
1000
0000
0000
0000
1000
0000
0000
0000
,
1000
1000
0001
0001
,
0001
0001
0010
0010
,
0010
0010
0100
0100
,
0100
0100
2002
0000
,
0000
0000
0000
0000
,
0000
0000
0000
0000
,
0000
0000
0000
0000
,
0000
0000
0000
0000
,
0000
0000
0000
0000
,
0000
0000
0000
0000
,
0000
0000
0000
0000
,
3003
0000
0110
0000
,
0000
0000
0000
1000
1100
0000
0000
0000
,
0000
0000
0000
0000
0001
0010
0001
0010
0001
0000
0000
0000
0000
0000
0000
0000
,
0000
0000
0000
0011
0000
1100
0000
0001
,
1000
0000
0000
0000
0000
0000
0000
0100
1000
0000
0100
0000
1000
0000
0100
0000
,
0010
0100
0001
0010
0100
1000
0100
0010
,
1000
0001
0100
1000
0100
0000
0002
2000
,
0000
0000
0000
3000
0000
2000
3000
2000
,
3000
2000
3003
2000
3001
0010
0100
0000
,
1000
0100
0000
0010
0000
0100
1000
0000
,
1000
0100
0000
0010
0000
0001
0100
0000
,
0010
0001
0000
1000
0001
1000
0001
1000
,
0001
0100
0001
0010
0000
0010
1000
0000
,
0100
0001
0000
0011
0000
0001
0010
0000
,
1000
0001
0000
0010
0000
1000
0100
0000
,
0010
0001
0000
0010
2000
0000
0002
0000
,
0000
0000
0000
3003
1000
0001
0000
0110
,
0000
1100
0000
0010
0001
0010
0000
0100
,
0000
1000
0000
0000
0010
0100
0000
1000
,
0000
0100
0000
0000
0010
0001
0000
0010
,
0000
0100
0000
1000
0010
1000
0010
1000
,
0010
0100
0010
0100
0001
0010
0100
1000
,
0100
1000
0010
0001
0020
0000
0000
0000
,
2030
0000
3200
0000
0301
0000
1000
0010
,
0000
0000
0000
0000
1100
0000
0002
0020
,
0000
0000
0000
0000
,
0000
0000
0000
0000
,
0000
0000
0000
0000
,
0000
0033
0000
0000
;

//---------------dance-single - ----------------
#NOTES:
     dance-single:
     :
     Medium:
     7:
     0.449,0.566,0.147,0.126,0.000:
0000
0000
0000
0000
,
0000
0000
0000
0000
,
0000
1000
1000
0001
,
0001
0010
0010
0100
,
0100
1000
1000
0001
,
0001
0010
0010
0100
,
0100
0110
0010
0100
,
0010
0110
0001
0101
,
0000
1100
0010
1000
,
1010
0000
0000
0101
,
0000
0000
1000
0100
1000
0100
0000
0000
,
0000
0010
0100
0010
0100
0000
0000
0000
,
0000
0000
0001
0010
0100
1000
0100
0010
,
0001
0100
1000
0100
,
0010
0000
0001
0010
0001
0010
0100
0000
,
0000
1000
0100
0000
0010
0002
0000
0000
,
0000
0103
1000
0100
0010
0001
0000
0020
,
0200
0000
0000
0000
,
0330
0000
1000
0100
1000
0000
0100
0000
,
1000
0000
0100
1000
0100
0000
0010
0000
,
0010
0000
0001
0010
0001
0000
0100
0000
,
0001
0000
0100
1000
0100
0000
1000
0100
,
0010
0001
0010
0000
0010
0000
0010
0100
,
0010
0000
1000
0000
0100
0000
0001
0010
,
0100
0000
1000
0100
0010
0001
0010
0000
,
0000
0000
0120
0000
0000
2000
0000
0000
,
3030
0000
1000
0000
0100
0000
0010
0001
,
0010
0000
0001
0000
0100
0000
0010
1000
,
0010
0000
0100
0000
1000
0000
0001
0100
,
1000
0000
0100
0000
0010
0000
0001
0100
,
0001
0100
0001
0000
1000
0000
0100
1000
,
0010
0000
0100
0000
0001
0000
1000
0100
,
0010
0100
0001
1000
,
0100
2000
0020
0000
0000
0000
0000
0000
,
3030
0000
0000
0001
0100
0001
0000
0001
,
0100
0001
0000
0001
0100
0001
0010
0001
,
0010
0001
0000
1000
0100
1000
0000
0010
,
1000
0010
1010
0000
0110
0000
0010
0100
,
0110
0000
0000
1000
0100
1000
0000
0010
,
1000
0010
0000
0010
0100
0010
0001
0010
,
0001
0010
0000
0001
0100
0001
0000
0010
,
1000
0010
2000
0000
3100
0000
0010
0100
,
0002
0000
0003
0000
0000
0010
0001
0010
,
0100
1000
0100
1000
0000
0010
0100
0010
,
0000
0010
0100
0010
0100
0001
0010
0000
,
0100
1000
0100
1000
0000
0010
1000
0010
,
0000
0001
0100
0001
0000
0010
0001
0010
,
0001
0010
0100
1000
0000
0010
1000
0010
,
0000
0010
0100
0010
0100
0000
1000
0000
,
0001
0010
0011
1100
,
0010
0100
1000
0100
,
0010
1000
0010
1000
0010
0000
0100
0000
,
0001
0010
0001
0010
,
0001
0010
0100
1000
0100
0000
0010
0000
,
1000
0100
0010
0000
0011
0000
0000
1100
,
0000
0010
0100
1000
,
0100
0010
0001
0000
,
1000
1000
1000
0000
0010
0000
0100
0000
,
1000
0100
0010
0001
,
0100
1000
0010
0100
,
0001
0000
0010
0000
0100
0010
1000
0100
,
0001
0010
0100
1000
0001
0000
0001
0000
,
0001
0001
1000
1000
,
1000
1000
0010
0010
,
0010
0010
0100
0100
,
0100
0100
2002
0000
,
0000
0000
0000
0000
,
0000
0000
0000
0000
,
0000
0000
0000
0000
,
0000
0000
0000
0000
,
0000
0000
0000
0000
,
0000
0000
0000
0000
,
0000
0000
0000
0000
,
0000
3003
0110
0000
,
0000
0000
0000
0010
0110
0000
0000
0000
,
0000
0000
0010
0010
0010
0000
0000
0000
,
0000
0000
0000
0110
0000
0110
0000
0110
,
0000
0000
0000
1000
0100
0010
0001
0010
,
1000
0100
0010
0001
0010
0100
1000
0100
,
0010
0100
0010
0000
2000
0000
0100
0200
,
0000
0000
0000
3300
0000
0010
0000
0010
,
0000
0010
0000
0010
0000
0001
1000
0000
,
1000
0100
0000
0010
0000
0001
0100
0000
,
1000
0100
0000
0001
0000
0001
0010
0000
,
1000
0100
0000
0010
0000
0001
0100
0000
,
1000
0100
0000
0010
0000
0001
1000
0000
,
0100
1000
0000
0010
0000
0100
1000
0000
,
0010
0001
0000
0001
0000
0001
0010
0000
,
0100
1000
0000
0010
1000
0000
0020
2000
,
0000
0000
0000
3030
0100
1000
0000
0100
,
0000
0100
0000
0000
0010
0100
0000
0001
,
0000
1000
0000
0100
1000
0100
0000
0010
,
0000
0010
0000
0000
0001
0010
0000
0100
,
0000
1000
0000
0100
1000
0100
0010
0000
,
0001
0100
0000
1000
0000
0010
0100
0000
,
1000
0100
0000
0010
0000
0001
0110
0000
,
0010
0100
2000
0100
,
0000
0000
0000
0000
3010
0000
0002
2000
,
0000
0000
0000
0000
,
0000
0000
0000
0000
,
0000
0000
0000
0000
,
0000
3003
0000
0000
;

//---------------dance-single - ----------------
#NOTES:
     dance-single:
     :
     Easy:
     6:
     0.348,0.531,0.112,0.098,0.000:
0000
0000
0000
0000
,
0000
0000
0000
0000
,
0000
1000
1000
1000
,
1000
1000
1000
1000
,
1000
1000
1000
1000
,
1000
1000
1000
1000
,
1000
1001
1001
1001
,
1001
1001
1001
1001
,
0000
0110
0110
0110
,
0110
0000
0000
1000
,
0000
0100
1000
0010
,
0001
0010
0100
1000
,
0010
1000
0010
0001
,
0010
0100
1000
0100
,
0010
0001
1000
0100
,
0010
0001
0010
0100
,
1000
0100
0010
0100
,
0001
0000
2002
0000
,
3003
0010
0010
0010
,
0010
0100
0100
0100
,
0100
1000
1000
1000
,
1000
0000
0001
0000
0001
0000
0100
0001
,
0100
0001
0100
0000
0100
0000
0100
0000
,
0100
0001
1000
0010
,
0100
1000
0100
0010
,
0000
0000
0012
0000
0000
2000
0000
0000
,
3003
0010
0100
1000
,
0100
0010
0001
0100
,
1000
0010
1000
0100
,
1000
0000
0100
0000
0010
0000
0010
0100
,
0001
1000
0010
0000
0100
0000
1000
0000
,
0100
0010
0001
0100
,
1000
0010
0100
1000
,
0010
2002
0000
0000
,
3003
0000
0010
0000
,
0010
0000
0100
1000
,
0010
0000
0001
0000
,
0100
1000
1010
0010
,
0100
0000
1000
0000
,
0001
0000
0100
0010
,
1000
0000
0001
0000
,
0100
0001
1000
0010
,
0100
0001
1000
0100
,
0010
0001
0000
0100
,
0000
0010
1000
0001
,
0100
1000
0000
0010
,
0000
0001
0000
0100
,
1000
0100
0000
0010
,
0000
0001
0100
1000
,
0100
0010
0001
0001
,
0001
0001
1000
1000
,
1000
1000
0010
0010
,
0010
0010
0100
0100
,
0100
0010
0100
0010
0100
0000
0100
0000
,
1000
0000
0100
0000
0010
0000
0000
0001
,
0000
0010
0100
1000
,
0100
0010
0001
0000
,
1000
0100
1000
0000
0010
0000
1000
0000
,
0100
0010
0001
0010
,
0100
1000
0001
1000
,
0010
0000
1000
0000
0010
0100
0001
1000
,
0010
0100
0001
1000
0010
0000
0010
0000
,
0010
0010
0010
0010
,
0010
0010
0100
0100
,
0100
0100
0100
0100
,
0100
0000
2020
0000
,
0000
0000
0000
0000
,
0000
0000
0000
0000
,
0000
0000
0000
0000
,
0000
0000
3030
0000
,
0000
0000
0000
0000
,
0000
0000
0000
0000
,
0000
0000
0000
0000
,
0000
0000
0001
0000
,
0000
0000
0000
0001
1000
0000
0000
0000
,
0000
0000
0100
0010
0100
0000
0000
0000
,
0000
0000
0000
1000
0000
1000
0000
1000
,
0000
0000
0001
1000
,
0100
0010
0001
0100
,
0010
0000
1000
0000
1000
0000
0020
2000
,
0000
0000
3030
0000
,
0000
0000
0001
0100
,
1000
0010
0001
0100
,
1000
0010
1000
0100
,
0010
0001
0100
0001
,
0010
0100
1000
0001
,
0100
0010
0100
1000
,
0100
0010
0001
0010
,
0100
0000
1000
0010
0100
0000
2000
0200
,
0000
0000
0000
3300
0001
0000
0010
0000
,
0100
1000
0010
1000
,
0100
0010
0001
0100
,
0001
0100
0010
0001
,
0010
0100
1000
0100
,
0010
0001
0100
1000
,
0100
0010
0001
0100
,
1000
0000
0010
0000
0001
0000
0010
0100
,
0000
0000
0000
0000
0001
0000
2000
0002
,
0000
0000
0000
0000
,
0000
0000
0000
0000
,
0000
0000
0000
0000
,
0000
3003
0000
0000
;

//---------------dance-single - ----------------
#NOTES:
     dance-single:
     :
     Edit:
     11:
     0.678,0.814,0.238,0.294,0.245:
0000
0000
0000
0000
,
0000
0000
0000
0000
,
0000
0000
2000
3000
2000
3000
0200
0300
,
0200
0300
0020
0030
0020
0030
0002
0003
,
0002
0003
2000
3000
2000
3000
0200
0300
,
0200
0300
0020
0030
0020
0030
0020
0030
,
0002
0003
1001
0000
1010
0000
0110
0000
,
0011
1100
0110
0011
,
0110
1001
1010
0110
,
0011
1100
0110
2002
,
3003
0000
1000
0100
0010
0001
0010
0100
,
0001
0100
0010
1000
0010
0100
1000
0100
,
0010
0001
0010
0100
0010
1000
0010
0100
,
0001
1000
0001
0010
0001
0010
0001
0000
,
0010
0000
0100
0000
0010
0000
0100
0000
0000
1000
0000
0000
0100
0000
0000
0010
0000
0000
0001
0000
0000
0010
0000
0000
,
0001
0100
0010
1000
0010
0100
0010
1000
,
0010
0000
0100
0000
0001
0010
1000
0100
1000
0100
0010
0001
0100
0010
1000
0001
,
1000
0000
0000
0000
0000
0000
2000
0000
0000
0020
0000
0000
0130
0000
0000
0002
,
3003
0000
0001
0010
0001
0010
0001
0100
,
1000
0100
0010
0100
0010
1000
0001
0100
,
0010
0001
0010
0100
1000
0100
0010
1000
,
0010
0000
0100
0000
0001
0000
0010
0000
0100
0000
1000
0000
0010
0001
0010
0100
,
1000
0100
0010
0001
0100
0000
1000
0000
0100
0000
0010
0000
0001
0000
0010
0000
,
0100
0001
0010
0100
0010
1000
0010
0100
,
1000
0100
0010
0001
0010
0100
0001
0000
,
0000
0000
2200
0000
0000
0002
0000
0000
,
3303
0000
1000
0100
0010
0001
0010
0100
,
0001
0100
0010
1000
0010
0100
0010
0100
,
1000
0100
0010
0001
0010
0100
0001
0100
,
0010
0000
1000
0000
0001
0000
0100
0000
0010
0000
0001
0000
0010
0001
0010
0100
,
1000
0100
0010
0001
0010
0000
0010
0000
0100
0000
0010
0000
0100
0000
1000
0000
,
0100
0010
0001
0010
0100
1000
0010
1000
,
0010
0100
0010
0001
0010
0100
0010
1000
,
0010
0100
2002
0000
0000
0000
0000
0000
,
0000
0000
3003
0000
0000
0000
0010
0000
0100
0010
0100
0000
0000
0000
0100
0000
,
0001
0100
0001
0000
0000
0000
0010
0000
0010
1000
0010
0000
1000
0000
0100
1000
,
0100
0000
0010
0000
0000
0000
0010
0000
0010
0001
0010
0000
0000
0000
0001
0000
,
0001
0100
0001
0000
0010
0000
0010
1000
0010
0000
0000
0000
1000
0000
0100
1000
,
0100
0000
0010
0000
0000
0000
0100
0000
1000
0100
1000
0000
0000
0000
0010
0000
,
0010
0001
0010
0000
0000
0000
0010
0000
0010
0100
0010
0000
0001
0000
0010
0100
,
0010
0000
1000
0000
0000
0000
0001
0000
0001
0100
0001
0000
0000
0000
0010
0000
,
0010
1000
0010
0000
1000
0100
1000
0000
0100
0000
0010
0100
0010
0100
0000
0100
,
0010
1000
0001
0010
0100
0000
0000
0000
1000
0000
0010
0000
0010
1000
0010
0000
,
0010
0000
0010
0001
0010
0001
0010
0000
0000
0000
1000
0000
0010
0000
0100
0001
,
0100
0000
0010
0000
0010
0100
0010
0000
0010
0000
0010
1000
0010
0000
0000
0000
,
0010
0000
0001
0010
0100
0000
1000
0000
0000
0000
0010
0000
0100
0010
0100
0000
,
0000
0000
0100
0000
0001
0100
0001
0000
0000
0000
0010
0000
0010
1000
0010
0000
,
1000
0000
0100
1000
0100
0000
0010
0000
0000
0000
0010
0000
0010
0001
0010
0000
,
0000
0000
0001
0000
0001
0100
0001
0000
11MM
0000
0000
0000
M11M
0000
0000
0000
,
11MM
0000
M11M
0000
0001
1000
0010
1000
,
0010
0100
0010
0001
0010
0100
1000
0100
,
0010
1000
0010
0100
0010
0001
0010
0100
,
0001
0100
0010
1000
0001
0100
0010
0001
,
0001
0010
0011
0010
0010
0100
0010
0000
,
1000
0100
0010
0100
0012
0000
0000
1000
,
0000
0000
0010
0000
0013
1000
0010
0100
,
0010
1000
0001
0100
0010
0000
0000
0000
,
1MM1
M11M
1MM1
0000
1000
0100
1000
0100
,
0010
0100
0010
0100
0010
0001
0010
0100
,
0001
0100
0001
0100
0010
1000
0010
1000
,
0010
0000
0100
0000
0010
0000
0100
0000
0001
0010
0001
0010
0100
0010
1000
0100
,
1000
0100
0010
0100
0010
0001
0010
0100
1000
0000
0000
0000
0100
0000
0000
0000
,
0010
0001
0100
1000
,
0010
0100
1000
0100
,
0010
0001
0100
1000
,
0010
2000
0220
0000
,
0000
0000
0000
0000
,
0000
0000
000M
0000
,
0000
0000
000M
0000
,
0000
0000
000M
0000
,
0000
0000
000M
0000
,
0000
0000
000M
0000
,
000M
0000
030M
0000
,
0M30
3000
0000
0000
1100
0000
0000
0000
,
0000
0000
0000
0010
0110
0000
0000
0000
,
0000
0000
0000
0000
0100
0010
0001
0100
1000
0000
0000
0000
0000
0000
0000
0000
,
0000
0000
0000
1100
0000
0011
0000
1001
,
1100
0000
0000
0000
0000
0000
0001
1000
0001
0000
0010
0000
0100
0000
1000
0000
,
0010
1000
0010
0100
0010
0001
0010
0100
,
0001
0100
0010
1000
0010
0000
2000
0002
,
0000
0000
0000
0000
0000
0020
0030
0020
,
0030
0020
0030
3023
0031
1000
0010
1000
,
0010
0100
0010
0001
0010
0100
0001
0100
,
0010
1000
0010
0100
1000
0100
0010
0001
,
0010
0100
0010
1000
0001
0001
0010
0010
,
0100
0100
1000
1000
0000
0010
1000
0000
,
0010
0100
0010
0100
0000
0001
1000
0000
,
0100
1000
0100
0010
0000
0001
0100
0000
,
1000
0100
0010
0001
0010
0000
0002
0200
,
0000
0000
0000
0000
0000
0010
0000
1000
,
0000
0010
0000
0000
1000
1000
0000
0010
,
0000
1000
0000
0010
1000
0010
0000
1000
,
0000
1000
0000
0000
0010
0000
1000
0000
,
0010
1000
0000
0313
1000
0100
0010
0001
,
0010
0100
1000
0100
0010
1000
0010
0100
,
0010
0000
0001
0000
0010
0000
0100
0000
0010
0001
0010
0100
1000
0100
0010
0001
,
0010
0001
0100
0010
1000
0100
0010
0001
1000
0000
0000
0000
0200
0000
2000
0000
,
0000
0000
0000
0000
0011
0000
0020
0002
,
0000
0000
0000
0000
,
0000
0000
0000
0000
,
0000
0000
0000
0000
,
0000
3333
0000
0000
;
