#TITLE:Tentei;
#SUBTITLE:;
#ARTIST:Kakka;
#TITLETRANSLIT:;
#SUBTITLETRANSLIT:;
#ARTISTTRANSLIT:;
#CREDIT:;
#BANNER:bn.png;
#BACKGROUND:bg.png;
#LYRICSPATH:;
#CDTITLE:;
#MUSIC:Tentei.mp3;
#OFFSET:-0.980;
#SAMPLESTART:63.760;
#SAMPLELENGTH:12.000;
#SELECTABLE:YES;
#BPMS:0.000=100.000,60.000=113.000,166.500=110.000,168.000=102.000,170.000=101.000,172.000=100.000,178.750=95.000;
#STOPS:178.750=0.020
;
#BGCHANGES:;

//---------------dance-single - ----------------
#NOTES:
     dance-single:
     :
     Hard:
     9:
     0.552,0.701,0.327,0.017,0.718:
0000
0000
0000
0000
,
0000
0000
0000
0000
,
0000
0000
1100
1010
,
0000
0000
0000
0000
0001
0100
0010
0100
0001
0000
0000
0000
0000
0000
0000
0000
,
0000
0000
0000
0000
0000
0000
0000
0000
0000
0000
0000
0000
0000
0000
0000
0000
0000
0000
1000
0000
0000
0000
0000
0000
0000
0000
0000
0000
0000
0000
0000
0000
0000
0000
0000
0000
0000
0000
0000
0000
0000
0000
0000
0000
0000
0000
0000
0000
0000
0000
0000
0000
0000
0000
0000
0000
0000
0000
0000
0000
0000
0000
0000
0000
0000
0000
0000
0000
0000
0000
0000
0000
0000
0000
0000
0000
0000
0000
0000
0000
0000
0000
0000
0000
0000
0000
0000
0000
0000
0000
0000
0000
0000
0000
0000
0000
0000
0000
0000
0000
0000
0000
0000
0000
0000
0000
0000
0000
0000
0000
0000
0000
0000
0000
0000
0000
0000
0000
0000
0000
0000
0000
0000
0000
0000
0000
0000
0000
0000
0000
0000
0000
0000
0000
0000
0000
0000
0000
0000
0000
0000
0000
0000
0000
0010
0000
0000
0000
0000
0000
0000
0000
0010
0000
0000
0000
0000
0000
0000
0000
0000
0000
0000
0000
0000
0000
0000
0000
0000
0000
0000
0000
0000
0000
0000
0000
0000
0000
0000
0000
0000
0000
0000
0000
0000
0000
0000
0000
0000
0000
0000
0000
,
0000
0000
0000
0000
0000
0000
0000
0000
0000
0000
0000
0000
0000
0000
0000
0000
0000
1000
0000
0000
0000
0000
0000
0000
0000
0000
0000
0000
0000
0000
1000
0000
0000
0100
0000
0000
0010
0000
0000
0100
0000
0000
1000
0000
0000
0000
0000
0000
,
0000
0000
0000
0000
0000
0000
0000
0000
1000
1000
0001
0001
0100
0000
0000
0000
,
0100
0000
0100
0000
0000
0000
0010
0010
1000
0001
1000
0000
0000
0000
1000
0000
,
0001
0000
0000
0000
0000
0000
0100
0010
1000
0000
0000
0000
0000
0000
0001
0001
,
1000
1000
0100
0000
0001
0010
0001
0100
0010
0000
0000
0000
0110
0000
0000
0000
,
1000
0100
0110
0100
0010
0001
1000
0100
,
0011
0000
1100
0000
0001
1000
0001
0010
,
0100
0000
1001
0000
,
1000
0001
0011
0001
0011
1000
0101
0010
,
1000
0001
0100
0000
0110
0000
0000
0000
0000
0000
0000
0000
0000
0000
0000
0000
,
0000
0000
1000
0001
0010
0001
0100
0010
,
1000
0100
0010
0001
0001
0100
0010
1000
,
0001
0000
1000
0000
0001
0000
0010
0001
0100
0000
0010
0000
1000
0000
0001
0000
,
0010
0100
1000
1000
0001
0100
0010
1000
,
0001
1000
0001
0010
0001
0010
0100
1000
0001
0100
0010
0100
1000
0100
0010
0001
,
0010
0000
1100
0000
0000
1000
0000
0001
0010
0000
0001
0000
1000
0001
0100
0000
,
0010
1000
0010
0000
1000
0000
0100
0000
0010
0000
0011
0000
1000
0000
0001
0000
,
0100
0000
0010
1000
0000
0001
0010
1000
0100
0001
0100
0010
1000
0001
0010
0100
,
1000
0001
0100
0010
1000
0100
1000
0000
0100
0000
1000
0000
0001
0000
0100
0000
,
0010
1000
0001
0010
0001
0100
0010
1000
,
0001
0000
0010
0000
0001
0010
0100
1000
0100
1000
0000
0100
0000
0010
0000
0001
,
0000
0001
0000
0100
0000
0010
0000
1000
0000
0001
0000
0010
0000
0001
0000
1000
,
0000
0001
0000
0100
0000
0001
0000
0000
0000
0000
1001
0000
1000
0000
0001
0010
,
0000
0011
0000
1100
0000
1000
0001
0100
0010
1000
0000
0101
0000
1000
0001
0000
,
0101
0000
0010
1000
0010
1000
0010
0000
1000
0000
0001
1000
0001
0010
0000
0000
,
0000
0000
0000
0000
0000
1000
0001
0100
0000
0010
0100
0010
0000
0100
0000
0100
,
0000
0100
0010
0100
1000
0100
0001
0000
0001
0000
0011
0000
0000
0000
0001
0000
,
0100
0010
1000
0001
0010
0001
0100
0010
,
1000
0000
0001
1000
0001
0010
0000
0001
0000
0100
0000
0010
0000
1000
0000
0001
,
0000
0010
0000
0001
0000
0100
0000
0010
0000
1000
0000
0001
0000
1000
0000
0100
,
0000
1000
0000
0100
0000
0100
0000
0100
0000
0100
1000
0001
0010
0000
0100
0010
,
0100
0000
0010
0001
1000
0000
1000
0100
1000
0000
1000
0001
0100
0000
0001
0010
,
0100
1000
0001
0100
0010
1000
0001
0010
0001
0100
0010
1000
0100
1000
0001
0100
,
0010
0000
0010
0100
0010
0110
0000
1001
0000
0100
0000
0010
0000
1000
0000
0010
,
0000
0100
0000
0010
0000
1000
0000
0001
0000
1000
0000
0001
0000
0100
0000
0010
,
0000
0100
0000
0010
0000
1000
0000
0001
0000
1000
0000
0001
0000
0100
0000
0010
,
0000
1000
0000
0001
0000
1000
0000
0001
0000
1000
0010
1000
0100
1000
0100
0010
,
0001
0100
0010
1000
0001
0010
0001
0100
0010
1000
0100
0001
0010
0001
0100
0010
,
0100
0001
0001
0100
0001
0100
0010
1000
0001
0010
0001
1000
0001
0100
0010
1000
,
0100
0010
0100
1000
0001
1000
0010
1000
0100
0010
0100
1000
0000
0000
0000
0000
,
0000
0000
0000
0000
,
1000
0001
0010
0001
0100
0010
1000
1100
,
0101
0110
1001
1100
0011
0101
1010
1001
,
0011
0000
1100
0000
1001
0000
0110
0000
1010
0000
1000
0100
0001
0000
0011
0000
,
0101
0000
0000
0000
0000
0000
1000
0000
0000
0010
0000
0000
0100
0000
0000
0000
0000
0000
0022
0000
0033
0000
0000
0000
0000
0000
0000
0000
0000
0000
0000
0000
0000
0000
0000
0000
0000
0000
0000
0000
0000
0000
0000
0000
0000
0000
0000
0000
;

//---------------dance-single - ----------------
#NOTES:
     dance-single:
     :
     Medium:
     7:
     0.337,0.553,0.112,0.009,0.292:
0000
0000
0000
0000
,
0000
0000
0000
0000
,
0000
0000
0101
0110
,
0000
0000
0000
0000
,
0001
0001
0000
0000
0000
0000
1000
0000
,
0000
0000
0000
0001
0000
0000
0000
0000
,
0000
0000
0000
0000
0100
0010
1000
0000
,
0001
1000
0000
1000
0001
0100
0000
0100
,
0010
0000
0000
1000
0001
0000
0000
0001
,
1000
0100
0000
0010
1001
0000
1001
0000
,
0000
0000
0000
0000
0100
0001
0010
0001
,
0011
1100
0000
0000
,
1000
0001
0100
0010
1000
0000
0000
0000
,
0000
0001
1000
0100
,
1000
0001
0101
0000
0000
0000
0000
0000
,
0000
0000
1000
0001
,
1000
0001
0100
0000
0001
0000
1000
0000
,
0010
1000
0100
1000
0010
0000
1000
0000
,
0001
1000
0001
0100
0001
0010
0001
0100
,
0010
1000
0100
1000
0010
1000
0001
1000
,
0000
0000
0001
0000
0000
1000
0000
0000
0000
0000
0001
0000
0100
0000
0010
0000
,
1000
0100
0000
1000
0100
0010
0000
0100
,
0000
0010
0001
0100
0000
0001
0000
1000
,
0000
1000
0001
0100
0001
0100
0000
0001
,
0000
0100
0000
0010
0000
1000
0000
0001
,
0000
0000
1000
0000
0100
0000
1000
0100
0010
0001
0000
0000
0000
0010
0000
0000
,
0000
0001
0000
0000
0000
0010
0000
0000
0000
0001
0000
0100
0000
0010
0000
1000
,
0000
0001
0000
1000
0000
0000
0000
0000
0000
0000
1001
0000
0000
0000
0000
0000
,
0000
0000
0000
0000
0000
0000
0000
0000
0000
1000
0100
0000
0000
0000
0000
0000
,
0000
0001
0010
0000
0000
0000
0010
0000
0000
0001
1000
0001
0100
0001
0000
0000
,
0000
0000
0000
0000
0000
1000
0001
0100
0000
0001
0100
0001
0000
0100
0000
0010
,
0000
0010
1000
0000
0001
0000
0001
0000
0010
0000
0001
0000
0100
0000
0010
0000
,
1000
0100
1000
0001
0100
0010
1000
0001
,
0010
0001
1000
0001
0100
0010
1000
0001
,
0010
0100
1000
0100
0010
0001
0010
0100
,
1000
0100
0000
1000
0000
0001
0000
1000
0000
0010
0000
0100
0000
0001
0000
0010
,
0000
1000
0000
0010
0000
0010
0000
1000
0000
0100
0000
1100
0000
0011
0000
1001
,
0000
0001
0000
1000
0000
0001
0000
0100
0000
0010
0000
1000
0000
0001
0000
0010
,
0000
0001
0000
1000
0000
0100
0000
0011
0000
1001
0000
0000
0000
0000
0000
0000
,
0000
0000
0000
0000
,
0000
0000
0000
0000
,
0000
0000
0000
0000
0000
1000
0001
0010
,
0001
0000
0100
0000
0010
0000
1000
0000
0100
0000
0010
0000
0100
0000
1000
0001
,
1000
0001
0010
0001
0100
0010
1000
0100
0010
0100
1000
0001
0100
0010
1000
0100
,
1000
0001
0100
0010
1000
0001
0010
0001
0100
0010
1000
0001
0000
0000
0000
0000
,
0000
0000
0000
0000
,
1000
0001
1000
0001
0100
0001
0010
0001
,
0100
0010
1000
0100
1000
0010
0100
0010
,
1000
0001
1000
0001
0100
0001
0100
0010
,
1000
0000
0001
0000
0100
0000
0002
0003
0000
0000
0000
0000
0000
0000
0000
0000
;

//---------------dance-single - ----------------
#NOTES:
     dance-single:
     :
     Easy:
     4:
     0.204,0.361,0.103,0.026,0.228:
0000
0000
0000
0000
,
0000
0000
0000
0000
,
0000
0000
1000
0001
,
0000
1000
0000
0001
,
0000
0000
0000
0000
,
0000
0000
0000
0010
0000
0000
0000
0000
,
0000
0000
1000
0000
,
0000
0010
0000
0000
1000
0000
0000
0000
,
0000
0000
0000
0000
,
0000
0000
1001
0101
,
0000
0000
0000
0000
0100
0001
0100
0000
,
1010
1001
0000
0000
,
1000
0001
0100
0001
0011
0000
0000
0000
,
0001
1000
0001
0000
0000
0000
0000
0000
,
1001
1000
0000
0000
,
0000
0000
0001
0000
,
0001
0000
1000
0000
,
0010
0100
0010
0000
,
1000
0010
1000
0001
,
1000
0001
1000
0001
0100
0001
0100
0001
,
0000
0001
0000
0001
0000
0000
0000
1000
,
0000
1000
0000
1000
0000
1001
0000
0000
,
0000
0001
0000
0000
0000
0001
0000
1000
,
0000
0001
0000
2000
0000
0000
0000
0000
,
0000
0000
0000
0000
,
0000
0000
0000
0001
0001
0002
0000
0000
,
0000
0000
0000
0000
,
0000
0000
3003
0000
0000
1001
0000
0000
,
0000
0000
0000
0000
0000
1001
0000
0000
,
0000
0000
0001
0000
0000
0000
1000
0000
0000
0000
0001
1000
0001
1000
0000
0000
,
0000
0000
0000
0000
0000
0000
1000
0000
0000
0000
1000
0000
0000
0001
0000
1000
,
0000
0001
0000
0000
0000
0000
1000
0000
0000
0000
1000
0000
0000
0000
0001
0000
,
0000
1000
0000
0001
0000
0100
0000
0001
,
0100
0000
0001
0000
0001
0010
0000
0000
0000
0001
0000
0000
0000
1000
0000
0000
,
0000
0001
0000
0000
0000
0100
0000
0000
0000
0001
0000
0000
0000
0010
0000
0000
,
0000
1001
0000
0000
0000
0000
0000
0000
0000
1000
0000
0001
0000
1000
0000
0001
,
0000
1000
0000
0001
0000
0100
0000
0001
0000
0010
0000
0001
0000
0010
0000
0001
,
0000
0100
0000
0010
0000
1000
0000
0001
0000
0010
0000
0001
0000
0010
0000
1000
,
0000
0010
0000
0001
0000
1000
0000
1001
0000
0110
0000
0000
0000
0000
0000
0000
,
0000
0000
0000
0000
,
0000
0000
0000
0000
,
0000
0000
0000
0000
0000
1000
0001
1000
,
0001
0000
0100
0000
0001
0000
0010
0000
0001
0000
0100
0000
0001
0000
0100
0010
,
0000
1000
0000
0001
0000
1000
0000
0001
0000
0100
0000
0001
0000
0010
0000
0001
,
0000
0100
0000
0010
0000
1000
0000
0001
1000
0001
0100
0001
0000
0000
0000
0000
,
0000
0000
0000
0000
,
0000
0000
0000
0000
,
1000
0001
0100
0001
,
0010
0001
0100
0010
,
1000
0000
0000
0020
0000
0030
0000
0000
0000
0000
0000
0000
;

//---------------dance-single - ----------------
#NOTES:
     dance-single:
     :
     Beginner:
     2:
     0.069,0.106,0.017,0.000,0.039: // measure 1
0000
0000
0000
0000
,  // measure 2
0000
0000
0000
0000
,  // measure 3
0000
0000
0001
0001
,  // measure 4
0000
1000
0000
0000
,  // measure 5
1000
0000
0000
0010
,  // measure 6
0000
0000
0000
0000
,  // measure 7
0000
0000
0100
0000
,  // measure 8
0000
0000
0000
0000
,  // measure 9
0000
0000
0000
0000
,  // measure 10
0000
0000
0010
0010
,  // measure 11
0000
0000
0000
0000
,  // measure 12
0001
0001
0000
0000
,  // measure 13
0000
0000
1001
0000
,  // measure 14
0000
0000
0000
1000
,  // measure 15
1000
1000
0000
0000
,  // measure 16
0000
0000
0010
0000
,  // measure 17
0000
0000
1000
0000
,  // measure 18
0000
0000
0001
0000
,  // measure 19
0001
0000
1000
0000
,  // measure 20
0000
0000
0000
0000
0000
0000
0000
1000
,  // measure 21
0000
0000
0000
0000
0000
0000
0000
1000
,  // measure 22
0000
0000
0000
0000
0000
0100
0000
0000
,  // measure 23
0000
0000
0000
0000
0000
0010
0000
0000
,  // measure 24
0000
1000
0000
0001
0000
0000
0000
0000
,  // measure 25
0000
0000
0000
0000
,  // measure 26
0000
0000
0000
1000
0000
1000
0000
0000
,  // measure 27
0000
0000
0000
0000
,  // measure 28
0000
0000
0000
0010
0000
0010
0000
0000
,  // measure 29
0000
0000
0000
0000
0000
1000
0000
0000
,  // measure 30
0000
0000
0000
0001
0000
1000
1000
0000
,  // measure 31
0000
0000
0000
0001
0000
0000
0000
0000
,  // measure 32
0000
0100
0000
0000
0000
0000
0000
0010
,  // measure 33
0000
0000
0000
0000
0000
1000
0000
0000
,  // measure 34
0000
0000
0000
0000
0000
0001
0000
0000
0000
0000
0000
0000
0000
0000
0000
0000
,  // measure 35
0000
0000
0000
0000
,  // measure 36
0000
1000
0000
0000
0000
0000
0000
0000
0000
0010
0000
0000
0000
0000
0000
0000
,  // measure 37
0000
0000
0000
0000
0000
0000
0000
0000
0000
0000
0000
0000
0000
1000
0000
0000
,  // measure 38
0000
0000
0000
0000
,  // measure 39
0000
0000
0000
0000
0000
0001
0000
0100
0000
0001
0000
0000
0000
0000
0000
0000
,  // measure 40
0000
0000
0000
0000
,  // measure 41
0000
0000
0000
0000
,  // measure 42
0000
0000
0000
0000
0000
1000
0000
0000
,  // measure 43
0000
0000
0000
0000
,  // measure 44
0001
0000
0000
0000
,  // measure 45
0000
0000
0000
0000
0000
0000
0000
0000
0000
0000
0000
1000
0000
0000
0000
0000
,  // measure 46
0000
0000
0000
0000
,  // measure 47
0010
0000
0000
0000
,  // measure 48
1000
0000
0001
0000
,  // measure 49
0001
0000
0100
0000
,  // measure 50
0010
0000
0000
0000
0000
1001
0000
0000
0000
0000
0000
0000
;
