#TITLE:TYPE MARS;
#SUBTITLE:(G-Style Mix);
#ARTIST:L.E.D.;
#TITLETRANSLIT:;
#SUBTITLETRANSLIT:;
#ARTISTTRANSLIT:;
#CREDIT:;
#BANNER:bn.bmp;
#BACKGROUND:bg.bmp;
#LYRICSPATH:;
#CDTITLE:13 dd.png;
#MUSIC:TYPE MARS(G-Style Mix).mp3;
#OFFSET:-0.800;
#SAMPLESTART:84.940;
#SAMPLELENGTH:11.900;
#SELECTABLE:YES;
#BPMS:0.000=159.000;
#STOPS:27.000=1.132
;
#BGCHANGES:;

//---------------dance-single - ----------------
#NOTES:
     dance-single:
     :
     Hard:
     7:
     0.395,0.436,0.050,0.133,0.017:
0000
0000
0000
0000
,
0000
0000
0000
0000
,
0000
0000
0000
0000
,
0000
0000
0000
0000
,
0000
0000
0000
0000
,
0000
0000
0000
0000
,
0000
0000
0000
0000
,
0101
0000
0001
0000
0100
0001
0000
0001
,
0200
0000
0000
0301
0000
0000
0010
0000
,
0100
0000
0010
0000
1000
0100
0000
1000
,
0200
0000
0000
1300
0000
0000
0010
1000
,
0020
0000
0130
0000
0001
1000
0000
0001
,
2000
0000
0000
3001
0000
0000
0001
0100
,
0002
0000
0103
0000
0010
0100
0000
0010
,
1000
1000
0000
0000
0000
0001
0000
1000
,
0100
1000
0000
1000
0100
0010
0001
0010
,
0001
0000
0000
0000
,
0001
0001
0000
0001
0000
0010
0100
1000
,
0100
0000
1100
0011
,
0010
0200
0000
0310
0000
0010
1000
0010
,
1000
0000
0000
0000
,
0001
1000
0000
0001
0000
0001
1000
0001
,
1000
0000
0001
0011
,
0001
0000
0010
0000
0010
0100
0000
0010
,
0100
0000
0010
1000
0000
0000
1000
0100
,
0010
0000
0001
0000
1000
0001
0000
0001
,
1000
0000
1000
0001
0000
0000
0001
0100
,
0001
0000
0010
0000
0100
0010
0000
0010
,
1000
0000
1000
0100
0000
0000
0010
1000
,
0001
0000
0100
0000
0010
1000
0000
0010
,
0100
0000
0001
1000
0000
0000
0100
0000
,
1000
0100
1000
0100
1000
0100
1000
0000
,
0100
0010
0001
0100
,
0010
0100
0001
1000
0010
0100
0001
1000
,
0001
0100
0001
0100
,
0010
1000
0001
0100
0010
1000
0001
0100
,
0010
1000
0100
0010
,
0001
0010
0100
1000
0100
0010
0100
0010
,
1000
0001
0100
0010
,
0001
1000
0010
1000
0010
0100
0010
0100
,
0001
1000
0001
1000
,
1000
0001
0100
0010
0001
0010
0100
1000
,
0001
1000
0001
0100
,
0001
0100
0001
0010
0001
1000
0100
0010
,
0001
0000
1000
0000
0100
0000
0010
0001
,
2000
0000
3001
0000
0100
0010
0200
0000
,
0310
0000
1000
0000
0100
0010
0001
0010
,
0002
0000
0000
0000
,
0000
0000
0000
0000
,
0000
0000
0000
0000
,
0000
0000
1000
1000
,
2000
0000
0000
0003
,
0020
0000
0000
3000
,
0100
0000
0000
0100
0100
0000
0000
0100
,
0130
0000
0001
1000
,
1001
0000
0001
0000
1000
0100
0000
0010
,
0002
0000
0000
0013
0000
0000
0001
0000
,
0001
0000
0000
0001
0010
0100
1000
0200
,
0000
0000
1000
0010
,
0301
0000
1000
0000
0100
0010
0000
0001
,
0000
0000
1000
0100
0000
0010
0001
0000
,
0001
0000
0100
0000
0001
1000
0001
2000
,
0000
0000
0010
0001
,
3001
0000
1000
0000
0001
0000
0000
0010
0000
0000
0100
0000
0000
0000
1000
0000
,
0100
0000
1000
0000
0100
0000
0000
1000
0000
0000
1000
0000
0100
0000
0010
0000
,
0001
0000
0000
0001
0000
0000
1000
0000
0100
0000
0000
0010
0000
0000
0200
0000
,
0000
0000
0000
0320
,
1030
0000
0001
1000
0000
1000
0100
0000
,
0010
0001
0000
0000
0001
0000
0100
0000
,
0010
0100
0010
1000
0010
1000
0001
1000
,
0001
0010
0100
1000
0010
0100
0010
0001
,
1000
0000
0001
0000
0100
0000
0010
1000
,
0001
0000
0100
0000
1000
0000
0010
0001
,
0010
0100
1000
0010
,
0001
1000
0100
1000
,
1001
0000
0000
0000
;

//---------------dance-single - ----------------
#NOTES:
     dance-single:
     :
     Medium:
     5:
     0.331,0.405,0.066,0.258,0.000:
0000
0000
0000
0000
,
0000
0000
0000
0000
,
0000
0000
0000
0000
,
0000
0000
0000
0000
,
0000
0000
0000
0000
,
0000
0000
0000
0000
,
0000
0000
0000
0000
,
0102
0100
0103
0001
,
0100
0001
0100
0001
,
0010
1000
0100
0001
,
0100
1000
0100
0001
,
0010
1000
0010
1000
,
0001
1000
0001
0100
,
0001
0010
0001
0010
,
1000
0001
0000
0000
0000
0001
0000
0001
,
1000
0000
0100
0000
0010
0000
0001
0010
,
0001
0000
0000
0000
,
0001
0000
0100
0000
0010
0000
1000
0100
,
1000
0000
1100
0110
,
0001
0010
0000
0001
0000
0010
0001
0000
,
0011
0000
0000
0000
,
0001
0000
0100
0000
1000
0000
0001
1000
,
0001
0000
2000
0100
,
0010
3000
0001
0000
1000
0000
0001
0000
,
0100
0000
0010
0000
1000
0000
0100
1000
,
0100
1000
0100
0010
,
0001
0000
0100
0000
0001
0000
0100
0001
,
0100
0001
0010
0100
,
1000
0000
0010
0000
1000
0000
0001
1000
,
0001
1000
0100
0010
,
0001
1000
0001
0100
,
0002
0000
0000
0000
,
1003
0100
0010
0002
,
0200
0000
0000
0303
,
0020
1030
0200
1300
,
2000
0000
0000
0000
,
3200
1300
0020
1030
,
2002
0000
0000
3000
,
1000
1000
1000
1003
,
2000
0100
0100
3100
,
0020
0001
0001
0031
,
0002
0100
0100
0103
,
0200
0010
0010
0310
,
2000
0001
0001
3001
,
0200
0010
0010
0310
,
0002
0103
2000
3100
,
0002
1003
0020
0031
,
2002
0000
0000
0000
,
0000
0000
0000
0000
,
0000
0000
0000
0000
,
0000
0000
3000
0000
,
0003
0000
0000
0000
,
1000
0000
0000
0000
0000
0000
0000
0001
,
1000
0000
0000
0001
1000
0000
0000
0001
,
1000
0000
0100
0010
,
0001
1000
0100
0010
,
0001
0000
0100
0000
0001
0000
0100
0001
,
0100
0000
0001
0000
0001
0010
0100
2000
,
0000
0000
0100
3100
,
1000
0100
0010
0001
,
1000
0001
0100
0010
,
1000
0000
0010
0000
1000
0100
0010
0002
,
0000
0000
1000
1003
,
1000
0001
1000
0000
0001
0000
1000
0000
,
0001
0100
0001
0000
0100
0000
0001
0000
,
0020
0000
0032
0000
,
0200
0000
0303
0000
,
1010
1000
0010
1000
,
0001
1000
0100
0010
,
0001
0100
0001
0010
,
1000
0100
0010
0000
0001
1000
0001
0000
,
0002
0000
0103
0000
1000
0100
1000
0000
,
0020
0000
1030
0000
1000
0100
1000
0000
,
0010
0001
0100
1000
,
0010
1000
0001
0100
,
1001
0000
0000
0000
;

//---------------dance-single - ----------------
#NOTES:
     dance-single:
     :
     Easy:
     3:
     0.226,0.312,0.058,0.216,0.000:
0000
0000
0000
0000
,
0000
0000
0000
0000
,
0000
0000
0000
0000
,
0000
0000
0000
0000
,
0000
0000
0000
0000
,
0000
0000
0000
0000
,
0000
0000
0000
0000
,
2002
0000
0000
3003
,
1000
0001
0000
0001
,
1000
1000
0000
0001
,
0100
0100
0000
0010
,
1000
1000
0000
0001
,
0100
0100
0000
0010
,
1000
1000
0000
0001
,
1001
0000
0000
0000
,
1000
0100
0010
0001
,
1000
0000
0000
0000
,
0001
1000
0100
0010
,
0001
0000
0100
0100
,
0010
0100
1000
0001
,
1000
0000
0000
0000
,
1000
0100
0010
0001
,
0100
0000
0002
1003
,
1000
0001
1000
0001
,
1000
0001
0100
0001
,
0010
1000
0010
1000
,
0010
1000
0010
1000
,
0001
1000
0001
0100
,
0010
1000
0100
0010
,
0001
0100
0010
1000
,
1001
0000
0000
0000
,
0002
0000
0000
0000
,
1003
0000
0001
0000
,
0200
0000
0000
0000
,
0310
0000
0100
0000
,
2000
0000
0000
0000
,
3001
0000
0100
0000
,
0020
0000
0000
0000
,
1030
0000
0000
0000
,
0002
0000
1000
0000
,
1000
0000
1003
0000
,
2000
0000
0001
0000
,
0001
0000
3001
0000
,
0020
0000
0100
0000
,
0100
0000
0130
0000
,
0100
0001
2000
3001
,
0001
0100
0002
0103
,
2200
0000
0000
0000
,
0000
0000
0000
0000
,
0000
0000
0000
0000
,
0000
0000
0000
0000
,
0000
0000
0000
0000
,
0000
0000
0000
0000
,
0000
0000
0000
0000
,
0000
0000
0000
3300
,
0002
1003
0001
1000
,
0001
0100
0001
0010
,
1000
0100
0020
0002
,
0000
0033
0101
0101
,
0001
0100
0001
0010
,
1000
0100
1000
0010
,
0001
0100
1000
0002
,
0000
0000
1000
1003
,
2000
0000
0000
0000
,
3002
0000
0000
0000
,
0203
0000
0302
0000
,
0020
0000
0033
0000
,
2002
0000
3000
0000
,
2000
0000
3003
0000
,
1000
0100
0010
0001
,
0100
0001
0010
1000
,
0000
0001
0000
1000
,
0000
0001
0000
1000
,
0000
0100
0000
0010
,
0000
0001
0000
0001
,
1000
0000
0000
0000
;

//---------------dance-single - ----------------
#NOTES:
     dance-single:
     :
     Beginner:
     1:
     0.062,0.156,0.017,0.000,0.000: // measure 1
0000
0000
0000
0000
,  // measure 2
0000
0000
0000
0000
,  // measure 3
0000
0000
0000
0000
,  // measure 4
0000
0000
0000
0000
,  // measure 5
0000
0000
0000
0000
,  // measure 6
0000
0000
0000
0000
,  // measure 7
0000
0000
0000
0000
,  // measure 8
0010
0000
0000
0000
,  // measure 9
0000
0000
0000
0000
,  // measure 10
0010
0000
0000
0000
,  // measure 11
0000
0000
0000
0000
,  // measure 12
0100
0000
0000
0000
,  // measure 13
0000
0000
0000
0000
,  // measure 14
1000
0000
0000
0000
,  // measure 15
0001
0000
0000
0000
,  // measure 16
0001
0000
0000
0000
,  // measure 17
0000
0000
0000
0000
,  // measure 18
1000
0000
0000
0000
,  // measure 19
0000
0000
0010
0010
,  // measure 20
0010
0000
0000
0000
,  // measure 21
0000
0000
0000
0000
,  // measure 22
0100
0000
0000
0000
,  // measure 23
0000
0000
0000
0000
,  // measure 24
1000
0000
0000
0000
,  // measure 25
0000
0000
0000
0000
,  // measure 26
0001
0000
0000
0000
,  // measure 27
0000
0000
0000
0000
,  // measure 28
0010
0000
0000
0000
,  // measure 29
0000
0000
0000
0000
,  // measure 30
0100
0000
0000
0000
,  // measure 31
0000
0000
0000
0000
,  // measure 32
1000
0000
0000
0000
,  // measure 33
0000
0000
0000
0000
,  // measure 34
0001
0000
0000
0000
,  // measure 35
0000
0000
0000
0000
,  // measure 36
0100
0000
0000
0000
,  // measure 37
0000
0000
0000
0000
,  // measure 38
0010
0000
0000
0000
,  // measure 39
0000
0000
0000
0000
,  // measure 40
1001
0000
0000
0000
,  // measure 41
0000
0000
0000
0000
,  // measure 42
0010
0000
0000
0000
,  // measure 43
0000
0000
0000
0000
,  // measure 44
0100
0000
0000
0000
,  // measure 45
0000
0000
0000
0000
,  // measure 46
1000
0000
0000
0000
,  // measure 47
0001
0000
0000
0000
,  // measure 48
1001
0000
0000
0000
,  // measure 49
0000
0000
0000
0000
,  // measure 50
0000
0000
0000
0000
,  // measure 51
0000
0000
0000
0000
,  // measure 52
0010
0000
0000
0000
,  // measure 53
0010
0000
0000
0000
,  // measure 54
0010
0000
0010
0000
,  // measure 55
0010
0000
0100
0100
,  // measure 56
0100
0000
0000
0000
,  // measure 57
1000
0000
0000
0000
,  // measure 58
0001
0000
0000
0000
,  // measure 59
0000
0000
1000
1000
,  // measure 60
1000
0000
0000
0000
,  // measure 61
0001
0000
0000
0000
,  // measure 62
0100
0000
0000
0000
,  // measure 63
0010
0000
0000
0000
,  // measure 64
0100
0000
0000
0000
,  // measure 65
0100
0000
0000
0000
,  // measure 66
0001
0000
1000
0000
,  // measure 67
0000
0000
0000
0000
,  // measure 68
1000
0000
0000
0000
,  // measure 69
0000
0000
0000
0000
,  // measure 70
0100
0000
0000
0000
,  // measure 71
0000
0000
0000
0000
,  // measure 72
0001
0000
0000
0000
,  // measure 73
0000
0000
0000
0000
,  // measure 74
1000
0000
0000
0000
,  // measure 75
0000
0000
0000
0000
,  // measure 76
0010
0000
0000
0000
;
