#TITLE:TROOPERS;
#SUBTITLE:;
#ARTIST:Des-TRACT;
#TITLETRANSLIT:;
#SUBTITLETRANSLIT:;
#ARTISTTRANSLIT:;
#CREDIT:;
#BANNER:bn.PNG;
#BACKGROUND:bg.PNG;
#LYRICSPATH:;
#CDTITLE:15 trooper.png;
#MUSIC:TROOPERS.mp3;
#OFFSET:-0.073;
#SAMPLESTART:10.880;
#SAMPLELENGTH:12.000;
#SELECTABLE:YES;
#DISPLAYBPM:*;
#BPMS:0.000=177.000,156.000=354.000,188.000=88.500,203.000=177.000,267.000=354.000,395.000=1416.000,419.000=708.000;
#STOPS:28.500=0.339
,29.500=0.339
,90.500=0.339
,91.500=0.339
,202.250=0.339
,202.750=0.339
;
#BGCHANGES:;

//---------------dance-single - ----------------
#NOTES:
     dance-single:
     :
     Hard:
     10:
     0.838,1.000,0.553,0.104,0.229: // measure 1
0000
0000
0000
0000
,  // measure 2
0000
0000
0000
0000
,  // measure 3
0000
0000
0000
0000
,  // measure 4
0000
0000
0000
0000
,  // measure 5
0001
1000
1010
0000
0100
1000
0011
0000
,  // measure 6
0001
0100
0110
0000
0010
1000
0001
0100
,  // measure 7
0010
1000
1010
0000
0001
0010
0011
0000
,  // measure 8
1000
1010
0001
0011
1100
0000
0110
0000
,  // measure 9
0011
0110
1010
0011
,  // measure 10
1100
0120
0031
1100
,  // measure 11
0010
0011
0010
0110
,  // measure 12
1010
0000
0000
0002
0000
0000
1003
0001
0100
1000
0000
0000
,  // measure 13
0010
0100
0010
1000
0000
0000
0010
0100
0001
0100
0010
1000
,  // measure 14
0100
0010
0001
0010
0000
0000
0001
1000
0010
0100
0000
0000
,  // measure 15
1000
0000
0100
0000
0010
0000
0001
0000
0000
0000
0000
0000
1010
0000
0000
0100
0000
0000
0011
0000
0000
0000
0000
0000
,  // measure 16
0101
0010
1001
0000
0001
0100
0010
1000
,  // measure 17
0010
0100
1000
0100
0010
0001
0010
0100
,  // measure 18
0001
0010
0001
1000
0100
1000
0010
0100
,  // measure 19
0010
1000
0001
0100
0010
0001
0010
0100
,  // measure 20
1000
0100
0010
0100
0010
1000
0001
0100
,  // measure 21
0010
0001
0010
0100
1000
0100
0010
1000
,  // measure 22
0001
0100
1000
0100
0010
0001
0010
0100
,  // measure 23
0010
1000
0001
0100
0110
0011
0010
1100
,  // measure 24
0000
0001
1000
1000
0010
0100
0100
0000
,  // measure 25
0000
0010
0001
0001
0100
0100
1000
0000
,  // measure 26
0000
1000
0010
0010
0001
0100
0100
0001
,  // measure 27
0220
0000
0000
0030
,  // measure 28
0300
0001
1000
0010
0100
0010
1000
0011
,  // measure 29
0000
0001
0100
0010
1000
0001
0100
1010
,  // measure 30
0000
0000
0001
0010
0100
0000
0000
0000
0000
0000
1000
0100
0010
0000
0001
0000
,  // measure 31
1100
0011
0000
0000
0010
0011
0000
0000
,  // measure 32
1001
1000
0010
1000
0100
0010
1000
0100
,  // measure 33
0001
0100
1000
0100
0001
0100
0110
0000
,  // measure 34
1010
0000
1000
0010
0100
1000
0010
0100
,  // measure 35
0001
0100
1000
0100
0010
1000
0011
0000
,  // measure 36
0110
0000
1000
0100
0001
0010
0100
0010
,  // measure 37
1000
0100
0010
0100
0001
0100
1000
0100
,  // measure 38
0010
0100
1000
0100
0001
0100
0010
0000
,  // measure 39
1100
0011
0000
0000
0101
1010
0000
0000
,  // measure 40
1000
0100
0110
0010
,  // measure 41
0010
0011
0001
1000
,  // measure 42
1100
0010
0100
0110
,  // measure 43
1000
0100
0011
0001
,  // measure 44
0100
1010
1000
0001
,  // measure 45
0110
1000
0001
1100
,  // measure 46
0010
0001
0011
0001
,  // measure 47
0001
0101
0100
0100
,  // measure 48
0110
0000
0010
1000
0010
0000
0001
0100
0010
0000
1000
0100
0000
0010
0001
0100
,  // measure 49
0010
0000
0000
0000
1000
0000
1000
0000
0100
0000
0000
0000
0010
0000
0010
0000
0001
0000
0000
0000
0010
0000
0100
0000
0000
0000
1000
0001
0100
1000
0010
0100
,  // measure 50
0001
0000
0010
0100
0010
0000
0001
1000
0100
0000
1000
0100
0000
0010
1000
0001
,  // measure 51
0100
0000
0010
1000
0100
0000
0010
1000
0001
0001
0100
1100
0010
0000
0010
0100
,  // measure 52
0010
0000
0100
0000
0010
0000
0010
1000
0010
0000
0100
0000
0001
0000
0001
0100
,  // measure 53
0001
0000
0100
0000
0010
0000
0001
1000
0001
0000
1000
0000
0010
0000
0010
1000
,  // measure 54
0010
0000
0100
0000
0010
0000
0010
0100
0010
0000
0100
0000
0010
0000
0010
1000
,  // measure 55
0010
0000
0100
0000
0001
0000
1000
0000
0010
0000
0000
0000
1000
0000
0100
1000
,  // measure 56
0100
0000
0010
0000
0100
0000
0010
0100
0010
0000
1000
0000
0001
0000
0001
0100
,  // measure 57
0001
0000
0100
0000
0010
0000
0001
0010
0001
0000
0100
0000
0010
0000
0010
1000
,  // measure 58
0010
0000
0100
0000
0010
0000
1000
0001
1000
0000
0001
0000
0100
0000
1100
0000
,  // measure 59
0000
0000
0100
1010
0011
0000
1100
0001
,  // measure 60
0010
0100
1000
0100
0001
0010
0100
0010
,  // measure 61
1000
0100
0010
0001
0011
0000
0110
0100
,  // measure 62
1000
0100
0001
0010
0100
1000
0010
0100
,  // measure 63
1000
0010
0100
0010
0011
0000
0110
0010
,  // measure 64
1000
0100
0001
0010
0100
0010
1000
0100
,  // measure 65
0010
0100
0001
0100
0010
1000
0100
0010
,  // measure 66
0001
0100
1000
0010
0100
1000
0010
1100
,  // measure 67
0000
0000
1000
0011
0000
0000
1000
0100
,  // measure 68
1000
0100
1000
0000
0001
0100
0001
0100
,  // measure 69
0001
0000
0001
0010
0001
0010
0001
0000
,  // measure 70
1000
0100
1000
0100
1000
0000
1000
0001
,  // measure 71
1000
0001
2000
0000
3000
0000
1000
0100
,  // measure 72
0010
0001
0010
0000
0010
0100
1000
0100
,  // measure 73
0010
0000
0010
0001
0010
0100
1000
0000
,  // measure 74
0100
0010
0001
0010
0100
0000
1000
0100
,  // measure 75
0010
0001
0020
0000
0030
0000
0010
0100
,  // measure 76
1000
0001
1000
0000
0010
0100
1000
0001
,  // measure 77
1000
0000
0100
0010
1000
0001
1000
0000
,  // measure 78
1000
0001
1000
0100
0001
0000
0001
1000
,  // measure 79
0001
1000
0002
0000
0003
0000
1000
0100
,  // measure 80
1000
0100
1000
0000
0001
0100
0001
0100
,  // measure 81
0001
0000
0010
0100
0010
0100
0010
0000
,  // measure 82
1000
0001
1000
0002
2000
0000
0000
0000
,  // measure 83
0000
0000
3003
0010
,  // measure 84
1000
0010
0100
0010
,  // measure 85
0001
0010
0100
0010
,  // measure 86
1000
0010
0100
0001
,  // measure 87
1000
0010
0001
0010
,  // measure 88
0100
0010
1000
0010
,  // measure 89
0100
0010
1000
0001
,  // measure 90
0100
0010
1000
0010
,  // measure 91
0100
0002
0000
0103
,  // measure 92
1000
0100
0010
0001
,  // measure 93
0010
0100
1000
0010
,  // measure 94
1000
0010
0100
0010
,  // measure 95
0100
0001
0100
0010
,  // measure 96
0001
0010
0100
0010
,  // measure 97
1000
0010
0100
0001
,  // measure 98
1000
0100
0010
0001
,  // measure 99
0010
0000
0000
0100
0000
0001
0000
1000
0000
2002
0000
0000
,  // measure 100
0000
0000
0000
0000
,  // measure 101
0000
0000
0000
0000
,  // measure 102
0000
0000
0000
0000
,  // measure 103
0000
0000
0000
0000
,  // measure 104
0000
0000
0000
0000
,  // measure 105
0000
0000
0000
0000
,  // measure 106
0000
3003
0000
0000
;

//---------------dance-single - ----------------
#NOTES:
     dance-single:
     :
     Medium:
     7:
     0.563,1.000,0.735,0.086,0.000:
0000
0000
0000
0000
,
0000
0000
0000
0000
,
0000
0000
0000
0000
,
0000
0000
0000
0000
,
0001
1000
0100
0010
,
0001
0100
1000
0010
,
1000
0001
0100
1000
,
0100
1000
0010
0001
0010
0000
1010
0000
,
0010
0011
0110
1100
,
0010
1001
0010
0011
,
0001
0110
1100
0011
,
0110
1001
0010
0011
,
0100
1100
0010
0110
,
1100
0011
0010
1010
,
0001
0000
0011
0000
1000
0100
0010
0000
,
0001
0100
0010
0000
1000
0000
1001
0000
,
1010
0011
0110
1100
,
0110
0001
1000
0100
,
1000
0000
0100
0000
0010
0002
0000
0200
,
0000
0303
0000
1010
,
0110
0011
0101
1010
,
0010
0100
1000
0100
,
0010
0000
1000
0000
0001
0100
0010
1000
,
0000
1000
0100
0010
0001
0010
0100
0000
,
0000
0001
1000
0100
0010
0001
1000
0000
,
0000
0001
0010
0100
1000
0010
0100
0010
,
2002
0000
0000
3003
,
0000
0010
0001
0100
0010
1000
0010
0100
,
0000
1000
0100
0010
0001
0010
1000
0100
,
0000
0001
0101
0000
0000
0010
1000
0010
,
0100
0100
0000
0000
0010
0010
0000
0000
,
1001
0000
0000
0001
0010
1000
0010
0100
,
0000
0001
0100
1000
0000
0000
1010
0000
,
0011
0000
0000
0001
0100
0001
1000
0010
,
0100
1000
0000
0100
0000
0000
0010
0000
,
1010
0000
0000
1000
0100
0000
0000
0000
,
0010
0001
0010
0100
0000
0000
1000
0000
,
0100
0010
1000
0100
,
0011
2200
0000
3300
,
0010
0100
0000
1000
,
0100
0000
0010
0001
,
0000
0010
0100
0000
,
1000
0100
0010
0000
,
0001
0100
0000
1000
,
0100
0000
0010
0001
,
0000
0010
0100
0000
,
1000
0100
0000
0000
,
1100
1100
1100
1100
1100
1100
1100
1100
,
0101
0101
0101
0101
0101
0101
0101
0101
,
0011
0011
0011
0011
0011
0011
0011
0011
,
1010
1010
1010
1010
1010
0101
0000
0000
,
1100
0110
0011
0110
,
1010
0110
1100
0000
,
0001
0000
1000
0000
0100
0000
1000
0100
,
0000
0020
0000
0000
0000
0030
0000
0000
,
0100
1000
0100
0010
,
1000
0100
0010
0001
,
1000
0000
0100
0000
0010
0000
0001
1000
,
0000
0000
0010
0100
0000
0000
1010
0000
,
0000
0001
0010
0100
0010
1000
0000
0010
,
0100
0001
0000
0000
1100
0000
0110
0000
,
0000
0001
1000
0010
0100
1000
0100
0010
,
0000
0011
0000
0000
0001
0000
0110
0000
,
0000
1000
1000
0000
0000
0000
0010
0100
,
0000
1000
0000
0000
0100
0000
0010
0000
,
1000
0000
0001
0000
0100
0000
1000
0100
,
0000
0000
0010
0001
0000
0000
1000
0000
,
0100
1000
0000
0010
,
0100
0000
1000
0100
,
0000
0010
0001
0000
,
0000
0000
0000
0000
,
0001
0100
0000
1000
,
0100
0000
0010
0001
,
0000
0010
0100
0000
,
0000
1001
0000
0000
,
0000
0010
0000
0010
,
0100
0000
1000
0100
,
0000
0010
0001
0000
,
0000
1001
0000
0000
,
0000
0010
1000
0000
,
0100
1000
0000
0010
,
0001
0000
0010
0200
,
0000
0000
0000
0301
,
1000
0010
0100
1000
,
0100
0010
0001
0000
,
0010
0100
0010
1000
,
0010
0100
0010
1000
,
0001
0100
0000
1000
,
0100
0010
0001
0010
,
0000
0010
1000
0010
,
0100
0010
1000
0001
,
0100
1000
0100
0010
,
0001
0010
0100
0000
,
1000
0100
0000
0010
,
0100
0001
1000
0010
,
0100
1000
0100
0010
,
0001
0010
0100
0010
,
0000
1100
0000
0110
,
0000
0011
0000
2002
,
0000
0000
0000
0000
,
0000
0000
0000
0000
,
0000
0000
0000
0000
,
0000
0000
0000
0000
,
0000
0000
0000
0000
,
0000
0000
0000
0000
,
0000
0000
3003
0000
;

//---------------dance-single - ----------------
#NOTES:
     dance-single:
     :
     Easy:
     6:
     0.461,1.000,0.251,0.519,0.000:
0000
0000
0000
0000
,
0000
0000
0000
0000
,
0000
0000
0000
0000
,
0000
0000
0000
0000
,
0001
1000
0100
0010
,
0001
0100
1000
0010
,
0100
1000
0010
0001
,
1001
0110
0100
1000
,
0020
0130
2000
3200
,
0320
0031
0020
0130
,
2000
3001
0020
0032
,
0203
0310
2000
3100
,
0020
0031
0002
0203
,
0320
1030
0200
1300
,
0020
0000
0031
0000
0001
0100
0001
0000
,
0010
1000
0010
0000
1000
0000
0100
0000
,
0010
1000
0001
0100
,
2000
3000
0100
1000
,
0100
0000
0010
0000
0001
0100
0000
2000
,
0000
3000
0000
0100
,
1000
0010
0001
1000
,
0001
0100
1000
0100
,
0010
1000
1001
0110
,
0000
1000
0100
0011
,
0000
0001
0010
1100
,
0000
1000
0100
0010
,
2002
0000
0000
3003
,
0000
0010
0100
1000
,
0100
0010
0001
1000
,
0100
1000
0000
0010
,
0002
0000
0000
1003
,
0100
0000
0010
1000
,
0100
0010
0001
0011
,
2200
3300
0010
0100
,
1000
0010
0100
1001
,
0220
0300
0130
0000
,
1000
0100
0000
0010
0000
0000
0001
0000
,
1000
0100
0010
0001
,
0100
2000
0000
0000
,
3001
0000
0010
0000
,
0100
0000
1000
0000
,
0001
0000
0100
0000
,
1000
0000
0100
0000
,
0010
0000
0001
0000
,
0100
0000
1000
0000
,
0100
0000
0010
0000
,
1000
0000
0010
0000
,
2000
3002
2003
3002
2003
3002
2003
3002
,
0203
0320
0230
0320
0230
0320
0230
0320
,
2030
3200
0320
0032
0023
0230
1300
0020
,
0230
0302
2003
3020
0130
1000
0010
0000
,
0100
1000
0010
0001
,
0100
1000
0010
0000
,
0001
1000
0100
0010
,
0001
1000
0000
0000
,
0100
1000
0010
0001
,
0100
1000
0010
0100
,
0001
0000
1000
0000
0100
0000
1000
0100
,
0000
0000
0010
0001
0000
0000
1001
0000
,
0000
0010
0100
1000
,
0010
0001
0101
1010
,
0000
1000
0001
0100
,
1000
0010
0110
1010
,
0000
0000
0101
0000
0000
0000
1000
0100
,
0000
0010
0000
0000
0001
0000
1000
0000
,
0100
0010
1000
0020
,
0200
0000
0330
0000
,
0000
1100
0000
0000
,
0110
0000
0000
0011
,
0000
0000
1001
0000
,
0000
0020
0000
0000
,
0000
0130
0000
0000
,
1100
0000
0000
0011
,
0000
0000
0010
0000
,
0000
0200
0000
0000
,
0000
1300
0000
0000
,
0010
0000
0000
0001
,
0000
0000
1000
0000
,
0000
0200
0000
0000
,
0000
0310
0000
0000
,
1000
0000
0000
0001
,
0000
0000
2002
0000
,
0000
0000
3003
0010
,
0000
1000
0000
0100
,
0000
0010
0100
0010
,
0000
1000
0000
0010
,
0100
0001
0100
0010
,
0000
1000
0000
0100
,
1000
0100
0000
0010
,
0000
0100
0000
0001
,
1000
0001
1000
0001
,
0000
0100
0000
1000
,
0000
0100
1000
0010
,
0000
0100
0000
0010
,
0000
0001
0100
0010
,
0000
1000
0000
0100
,
0000
0010
0000
0011
,
0000
1100
0000
0110
,
0000
1010
0000
1001
;
