#TITLE:THE LAST STRIKER;
#SUBTITLE:;
#ARTIST:L.E.D.;
#TITLETRANSLIT:;
#SUBTITLETRANSLIT:;
#ARTISTTRANSLIT:;
#CREDIT:;
#BANNER:bn.PNG;
#BACKGROUND:bg.PNG;
#LYRICSPATH:;
#CDTITLE:;
#MUSIC:THE LAST STRIKER.mp3;
#OFFSET:0.460;
#SAMPLESTART:52.700;
#SAMPLELENGTH:12.000;
#SELECTABLE:YES;
#BPMS:0.000=185.000,164.000=185.480,228.000=46.250,236.000=92.140,248.000=185.000,320.000=92.500,328.000=46.250,331.000=92.500;
#STOPS:96.500=0.020
;
#BGCHANGES:;

//---------------dance-single - ----------------
#NOTES:
     dance-single:
     :
     Hard:
     8:
     0.491,0.733,0.039,0.054,0.104:
0000
0000
0000
0000
,
0000
0000
0000
0000
,
0000
0000
0000
0000
,
0000
0000
0000
0000
,
0000
0000
0000
0000
,
0000
0000
0000
0000
,
0000
0000
0000
0000
,
0000
0000
0000
0000
,
0000
0000
0000
0000
,
0001
0100
0000
0000
0010
0000
0000
0100
,
0000
0000
0010
0000
0000
1000
0000
0100
,
0000
1000
0000
0000
0100
0000
0000
0010
,
0000
0000
0001
0000
0000
0100
0000
0001
,
0000
0100
0000
0000
0010
0000
0000
0100
,
0000
0000
0010
0000
0000
0100
0000
0100
,
0000
0010
0000
0000
0100
0000
0000
0010
,
0000
0000
1000
0000
0000
0001
0000
1000
,
0100
1000
0100
1000
,
0100
0000
0010
0000
0001
0100
0001
0100
,
0001
0010
1000
0001
,
0100
0000
0010
0000
1000
0001
0100
0010
,
1000
0001
1000
0001
,
0100
0000
1000
0000
0010
0100
0000
0100
,
0000
0010
0000
0000
0100
0000
0000
1000
,
0000
0100
1000
0100
,
0001
0000
0100
0000
0010
0100
0010
1000
,
0001
0000
0010
0100
0000
0100
0010
0000
,
0001
0000
1001
0000
0001
1000
0100
0010
,
0001
0000
1000
0100
0000
0010
0001
0000
,
0101
0000
1001
0000
0001
0100
0001
0100
,
0001
0000
0001
0001
0000
0100
0010
0000
,
0001
0100
0000
0010
0100
0000
1000
0100
,
0000
0010
0001
0000
0001
0100
0001
0010
,
0001
0100
0000
0001
1000
0000
0010
1000
,
0000
0001
1000
0000
1000
0100
1000
0001
,
1000
0010
0000
1000
0100
0000
0010
0001
,
0000
0001
0100
0000
0010
0100
0001
1000
,
0010
1000
0000
0100
1000
0000
0100
1000
,
0000
0100
0010
0000
0010
1000
0001
1000
,
0010
0100
0000
0001
0100
0000
0010
0100
,
0000
0010
1000
0000
0010
0100
0000
0001
,
1000
0100
1000
0100
1000
0100
1000
0100
,
0010
0001
0010
0001
0010
0001
0010
0001
,
0010
0001
0010
0001
0010
0001
0010
0001
,
0100
0001
0100
0001
0100
0001
0100
0001
,
0010
0100
0010
0100
0010
0100
0010
0100
,
0001
1000
0001
1000
0001
1000
0001
1000
,
0010
1000
0010
1000
0010
1000
0010
1000
,
0100
1000
0100
1000
0100
1000
0100
0000
,
1000
0100
1000
0100
1000
0100
1000
0100
,
0010
1000
0010
1000
0010
1000
0010
1000
,
0010
0100
0010
1000
0001
0100
0010
1000
,
0001
0100
0001
0100
0010
0001
0010
0100
,
1000
0100
0010
0001
1000
0001
0100
0001
,
0010
1000
0100
0010
0001
0010
0100
0010
,
1000
0001
0100
0010
1000
0001
0010
0100
,
1000
0100
0010
0001
0010
1000
0001
0100
,
0002
0203
0320
2030
,
0200
0000
0000
0000
0000
0000
0000
0000
0000
0000
0000
0000
0000
0000
0000
3300
,
1001
0000
0000
0000
0001
0000
0000
0100
0000
0000
0010
0000
0000
1000
0000
0100
,
0000
1000
0000
0000
0100
0000
0000
0010
0000
0000
0001
0000
0000
0100
0000
0010
,
0000
0100
0000
0000
0010
0000
0000
1000
0000
0000
0100
0000
0000
0010
0000
1000
,
0001
0000
1000
0100
1000
0000
0001
0100
0001
0000
0010
0001
0010
0000
1000
0100
,
1000
0000
0100
0000
0010
0001
0000
0001
0010
0000
0010
0100
0000
0100
1000
0000
,
0001
0100
0010
0000
0010
1000
0000
0100
,
1000
0000
0100
1000
0000
1000
0100
0001
,
0000
0001
1000
0000
0001
0100
0000
0010
,
0100
0000
0001
1000
0000
1000
0100
0001
,
0100
0001
1000
0000
0010
0100
0000
1000
,
0100
0000
0010
0001
0000
0001
0100
0001
,
1000
0100
0000
0010
0001
0000
0010
0001
,
0000
0010
0001
0000
0010
0001
0100
0001
,
1000
0001
1000
0000
0010
0100
0000
0010
,
1000
0000
0001
0100
0000
1000
0100
0010
,
0000
0001
0100
0000
0001
1000
0000
0010
,
1000
0000
0100
1000
0000
1000
0100
1000
,
0000
1000
0100
0000
0010
0001
0000
0001
,
0100
0000
0010
1000
0000
0001
1000
0010
,
0000
0100
0001
1000
0100
0010
0001
0010
,
0100
0010
1000
0001
0100
0010
1000
0001
,
1000
0100
0000
0000
1000
0000
0000
0100
0000
0000
0010
0000
0000
0001
0000
0100
,
0000
0010
0000
0000
1000
0000
0000
0001
0000
0000
0100
0000
0000
1000
0000
1000
,
0220
0000
0000
0330
;

//---------------dance-single - ----------------
#NOTES:
     dance-single:
     :
     Medium:
     6:
     0.368,0.510,0.100,0.039,0.000:
0000
0000
0000
0000
,
0000
0000
0000
0000
,
0000
0000
0000
0000
,
0000
0000
0000
0000
,
0000
0000
0000
0000
,
0000
0000
0000
0000
,
0000
0000
0000
0000
,
0000
0000
0000
0000
,
0000
0000
0000
0000
,
0001
0000
0000
0000
1000
0000
0000
0100
,
0000
0000
1000
0000
0000
0100
0000
0100
,
0000
0010
0000
0000
0100
0000
0000
0010
,
0000
0000
0100
0000
0000
0010
0000
0010
,
0000
0100
0000
0000
0100
0000
0000
0100
,
0000
0000
0100
0000
0000
0010
0000
0100
,
0000
0010
0000
0000
1000
0000
0000
0001
,
0000
0000
1000
0000
0000
0001
0000
0100
,
0010
0100
0000
0000
0010
0000
0000
0100
,
0000
0000
1000
0000
0000
0100
1000
0100
,
0000
0010
0000
0000
0100
0000
0000
1000
,
0000
0000
0100
0000
0000
0001
0100
0001
,
0000
0010
0000
0000
0100
0000
0000
1000
,
0000
0000
0001
0000
0000
1000
0001
1000
,
0000
1000
0000
0000
0100
0000
0000
0010
,
0000
0000
0001
0000
0000
0100
0000
0000
,
0010
0000
0100
0000
0010
0000
0001
1000
,
0001
1000
0100
0010
,
0001
0000
0100
0000
0010
0100
0010
0100
,
0010
1000
0100
0010
,
0001
0000
1000
0000
0001
1000
0001
1000
,
0001
0100
0010
1000
,
0100
0000
1100
0000
1000
0100
1000
0000
,
0001
0000
0101
0000
0001
0100
0001
0000
,
0001
1000
0000
0001
1000
0000
0001
1000
,
0000
0001
1000
0000
0001
0000
1001
0000
,
1000
0100
0000
1000
0100
0000
1000
0100
,
0000
1000
0100
0000
1000
0100
0000
1100
,
0000
0010
0000
0000
0100
0000
0000
0010
,
0000
0000
0100
0000
0000
0010
1000
0001
,
0000
1000
0000
0100
1000
0000
0100
1000
,
0000
0010
0001
0000
0100
0001
0000
0000
,
1000
0001
1000
0000
0001
0000
0100
0000
,
0010
0100
0010
0000
1000
0000
0001
0000
,
0100
0001
0100
0000
0010
0000
1000
0000
,
0100
1000
0100
0000
0010
0000
0001
0000
,
0100
0001
0100
0000
0010
0000
1000
0000
,
0001
1000
0001
0000
1000
0000
0100
0000
,
0010
0001
0010
0000
0100
0000
0001
0000
,
0010
0100
0010
0000
0010
0000
1010
0000
,
0110
0000
0010
0000
0010
1000
0001
0000
,
0010
0000
0110
0000
1000
0100
0001
0000
,
0001
0000
1001
0000
0001
1000
0001
0000
,
0001
0000
0101
0000
0010
1000
0001
0000
,
1000
0000
1100
0000
1000
0100
1000
0000
,
0110
0000
0011
0000
0010
0100
0001
0000
,
0010
1000
0001
0000
1000
0100
0001
0000
,
1000
0100
0010
0001
0010
0100
0010
1000
,
0002
0000
0000
0000
,
2000
0000
0000
0000
0000
0000
0000
3003
,
0001
0000
0001
0000
0001
0000
0001
0100
,
1000
0000
1000
0000
1000
0000
1000
0010
,
0100
0100
0100
0010
,
0010
1000
0010
1000
0010
0100
0001
0100
,
0010
1000
0001
0100
0010
1000
0010
0000
,
0001
0100
0001
0000
1000
0100
0000
1000
,
0100
0000
1000
0100
0000
1000
0100
1000
,
0000
0010
0100
0000
0001
1000
0000
0010
,
0100
0000
0001
1000
0000
0001
0100
0001
,
0000
0010
0100
0000
0010
0100
0000
1000
,
0100
0000
0010
0001
0000
0001
0100
0001
,
0000
1000
0000
0000
0001
0000
0000
0100
,
0000
0000
0010
0000
0000
0010
0000
0000
,
0000
0000
0100
0000
0000
0010
0000
0000
,
1000
0000
0000
0001
0000
0001
0100
0010
,
0000
0000
0010
0000
0000
0100
0000
0000
,
0010
0000
0000
1000
0000
1000
0100
0001
,
0000
0000
0001
0000
0000
1000
0000
0000
,
0001
0000
0000
0100
0000
0010
0100
0010
,
1000
0100
0001
0010
0001
0000
0000
0100
,
1000
0000
0100
1000
0000
1000
0100
0010
,
0002
0000
0000
0000
,
0000
0000
0000
0003
,
2002
0000
0000
3003
;

//---------------dance-single - ----------------
#NOTES:
     dance-single:
     :
     Easy:
     4:
     0.289,0.414,0.039,0.108,0.000:
0000
0000
0000
0000
,
0000
0000
0000
0000
,
0000
0000
0000
0000
,
0000
0000
0000
0000
,
0000
0000
0000
0000
,
0000
0000
0000
0000
,
0000
0000
0000
0000
,
0000
0000
0000
0000
,
0000
0000
0000
0000
,
0120
0000
0000
0000
,
0000
0000
0000
0000
,
0000
0000
0000
0000
,
0000
0000
0000
0000
,
0200
0000
0000
0000
,
0000
0000
0000
0000
,
0030
0000
0000
0000
,
0000
0000
0000
0300
,
0010
0000
0010
0000
,
0100
0000
0010
1000
,
0001
0000
0001
0000
,
0001
0000
1000
0001
,
0100
0000
0010
0000
,
0100
0000
0010
0000
,
1000
0000
0001
0000
,
1000
0100
1000
0000
0010
0100
0010
0000
,
0001
0100
1000
0100
,
0010
0001
1000
0001
,
0100
0010
1000
0001
,
0100
0001
1000
0100
,
0010
0001
0100
0001
,
0100
0010
1000
0100
,
0010
0001
0100
0001
,
1000
0000
0001
0000
0100
0000
0010
1000
,
0001
0001
1000
1000
,
0001
0100
0001
0100
,
0001
0001
1000
1000
,
0010
1000
0010
1000
,
0100
0100
1000
1000
,
1000
0100
0010
0001
,
0100
0010
1000
0100
,
0010
0001
1000
0010
,
0001
0100
0001
0100
0001
1000
0001
1000
,
0001
0010
0100
1000
,
0001
0010
0100
1000
,
0100
0010
0001
1000
,
0010
0100
0001
1000
0010
0100
0001
1000
,
0001
0001
1000
0100
,
0010
0001
0010
0100
,
1000
0000
0000
0001
0000
0000
0100
0000
,
0010
0100
0001
1000
0010
0100
0001
1000
,
0001
0001
1000
1000
,
0100
0010
0001
0010
,
0100
1000
0100
0001
,
0001
0010
0100
1000
0100
0010
0001
0010
,
0100
0100
0100
0100
,
0010
1000
0100
0010
,
0001
0100
1100
0011
,
2002
0000
0000
0000
,
3003
0000
0000
0000
,
0002
0000
0000
0000
,
0203
0000
0320
0000
,
2030
0000
0000
0000
,
3200
0000
0000
0000
,
2300
0000
3020
0000
,
0130
0010
1000
0100
,
0010
0001
0100
0001
,
0100
0010
1000
0100
,
0010
0001
0010
0001
,
1000
0100
0010
0001
,
0010
0100
1000
0100
,
0010
0000
0000
0000
0100
0000
0000
0010
,
0000
0000
0100
0000
0000
0010
0000
0100
,
0010
1000
0100
0010
,
0001
0000
0010
0000
0100
0000
1000
0100
,
1000
0100
0010
0001
,
0100
0000
1000
0000
0001
0000
0100
0001
,
0100
0001
1000
0001
,
0010
0100
1000
0100
,
1000
0000
0100
0000
0000
1000
0000
0100
,
1000
0000
0100
0010
0000
0001
1000
0001
,
0200
0000
0000
0000
,
0000
0000
0000
0300
,
2002
0000
0000
3003
;

//---------------dance-single - ----------------
#NOTES:
     dance-single:
     :
     Beginner:
     2:
     0.097,0.221,0.085,0.000,0.000: // measure 1
0000
0000
0000
0000
,  // measure 2
0000
0000
0000
0000
,  // measure 3
0000
0000
0000
0000
,  // measure 4
0000
0000
0000
0000
,  // measure 5
0000
0000
0000
0000
,  // measure 6
0000
0000
0000
0000
,  // measure 7
0000
0000
0000
0000
,  // measure 8
0000
0000
0000
0000
,  // measure 9
0000
0000
0000
0000
,  // measure 10
0010
0000
0000
0000
,  // measure 11
0000
0000
0000
0000
,  // measure 12
0000
0000
0000
0000
,  // measure 13
0000
0000
0000
0000
,  // measure 14
0100
0000
0000
0000
,  // measure 15
0000
0000
0000
0000
,  // measure 16
0000
0000
0000
0000
,  // measure 17
0000
0000
0000
0000
,  // measure 18
1000
0000
0000
0000
,  // measure 19
0000
0000
0000
0000
,  // measure 20
0001
0000
0000
0000
,  // measure 21
0000
0000
0000
0000
,  // measure 22
0100
0000
0000
0000
,  // measure 23
0000
0000
0000
0000
,  // measure 24
0010
0000
0000
0000
,  // measure 25
0100
0000
0100
0000
,  // measure 26
0010
0000
0000
0000
,  // measure 27
0010
0000
0010
0000
,  // measure 28
0010
0000
0000
0000
,  // measure 29
0100
0000
0100
0000
,  // measure 30
0100
0000
0000
0000
,  // measure 31
1000
0000
1000
0000
,  // measure 32
1000
0000
0000
0000
,  // measure 33
0001
0000
0001
0000
,  // measure 34
1001
0000
0000
0000
,  // measure 35
0010
0000
0000
0000
,  // measure 36
0010
0000
0000
0000
,  // measure 37
0100
0000
0000
0000
,  // measure 38
1000
0000
0000
0000
,  // measure 39
0001
0000
0000
0000
,  // measure 40
0100
0000
0000
0000
,  // measure 41
0010
0000
0000
0000
,  // measure 42
1000
0000
0000
0000
,  // measure 43
1000
0000
0000
0000
,  // measure 44
0001
0000
0000
0000
,  // measure 45
0001
0000
0000
0000
,  // measure 46
0010
0000
0000
0000
,  // measure 47
0100
0000
0000
0000
,  // measure 48
0010
0000
0000
0000
,  // measure 49
1000
0000
0000
0000
,  // measure 50
1001
0000
0000
0000
,  // measure 51
0001
0000
0000
0000
,  // measure 52
0100
0000
0000
0000
,  // measure 53
0010
0000
0000
0000
,  // measure 54
1001
0000
0000
0000
,  // measure 55
1000
0000
0000
0000
,  // measure 56
0001
0000
0000
0000
,  // measure 57
0110
0000
0010
0000
,  // measure 58
1001
0000
0000
0000
,  // measure 59
0000
0000
0000
0000
,  // measure 60
0010
0000
0000
0000
,  // measure 61
0100
0000
0000
0000
,  // measure 62
1000
0000
0000
0000
,  // measure 63
0001
0000
0000
0000
,  // measure 64
1000
0000
0001
0000
,  // measure 65
0100
0000
0000
0000
,  // measure 66
0010
0000
0000
0010
,  // measure 67
0010
0000
0000
0000
,  // measure 68
0100
0000
0000
1000
,  // measure 69
1000
0000
0000
0000
,  // measure 70
0001
0000
0000
0000
,  // measure 71
0100
0000
0000
0000
,  // measure 72
0010
0000
0100
0000
,  // measure 73
0110
0000
0000
0000
,  // measure 74
0010
0000
0000
1000
,  // measure 75
1000
0000
0000
0000
,  // measure 76
1001
0000
1001
0000
,  // measure 77
1001
0000
0000
0000
,  // measure 78
0010
0000
0000
0000
,  // measure 79
0100
0000
0010
0000
,  // measure 80
1001
0000
0001
0000
,  // measure 81
1000
0000
0000
0000
,  // measure 82
0000
0000
0000
0000
,  // measure 83
0110
0000
0000
0000
;
