#TITLE:THE DEEP STRIKER;
#SUBTITLE:;
#ARTIST:L.E.D.-G;
#TITLETRANSLIT:;
#SUBTITLETRANSLIT:;
#ARTISTTRANSLIT:;
#CREDIT:;
#BANNER:bn.PNG;
#BACKGROUND:bg.PNG;
#LYRICSPATH:;
#CDTITLE:15 trooper.png;
#MUSIC:THE DEEP STRIKER.mp3;
#OFFSET:-0.060;
#SAMPLESTART:19.420;
#SAMPLELENGTH:12.000;
#SELECTABLE:YES;
#BPMS:0.000=173.000;
#STOPS:184.000=0.020
;
#BGCHANGES:;

//---------------dance-single - ----------------
#NOTES:
     dance-single:
     :
     Hard:
     9:
     0.632,0.871,0.164,0.123,0.971: // measure 1
0000
0000
0000
0000
,  // measure 2
0000
0000
0000
0000
,  // measure 3
0000
0000
0000
0000
,  // measure 4
0000
0000
0000
0000
,  // measure 5
1000
0100
0010
0001
,  // measure 6
0100
0000
0000
1000
0000
0000
0010
0000
0000
0100
0000
1000
,  // measure 7
0100
0100
0010
1000
,  // measure 8
0010
0010
1000
0100
,  // measure 9
1000
0010
0100
0001
0000
0010
0100
0000
0010
0100
0000
0000
,  // measure 10
0010
1000
0010
1000
0000
0000
0010
0000
0000
0001
0000
0000
,  // measure 11
0001
0000
0001
0100
0000
0010
0100
0000
1000
0100
0000
0010
,  // measure 12
0001
0000
0010
1000
0000
0001
0200
0000
0000
0320
0000
0000
,  // measure 13
0130
0010
0100
0010
0100
0010
0100
0010
0100
0010
0100
0010
,  // measure 14
0100
0000
0000
1000
0000
0000
0000
0010
0000
1010
0000
0000
,  // measure 15
1000
0100
0010
0001
0000
0001
0010
0000
0010
0100
0000
1000
,  // measure 16
0100
0010
0100
0010
0000
0010
0100
0000
0010
1000
0000
0001
,  // measure 17
0100
0001
0100
0001
0000
0010
1000
0000
0100
1000
0000
0010
,  // measure 18
1000
0010
1000
0010
0000
0010
0100
0000
0001
1000
0100
0001
,  // measure 19
0010
0100
0010
0100
0000
1000
0100
0000
0010
0001
0000
0001
,  // measure 20
0100
0001
0100
0001
0000
1000
0100
0000
0000
0022
0000
0033
,  // measure 21
1000
0000
0100
0010
0000
0001
0010
0000
0000
1100
0000
0000
,  // measure 22
1002
0000
0000
0103
0000
0000
0011
0000
0001
0010
0000
1000
,  // measure 23
0100
0010
0100
0010
0000
0001
0010
0000
0010
0100
0000
1000
,  // measure 24
0100
1000
0100
1000
0000
0001
0010
0000
0100
2000
0000
0000
,  // measure 25
3001
1000
0001
1000
0000
0001
0010
0000
0100
0010
0000
1000
,  // measure 26
0100
0010
0001
0010
0000
1000
0100
0000
0010
0002
0003
0001
,  // measure 27
1000
0001
1000
0100
0000
0001
0010
0000
0100
0010
0000
1000
,  // measure 28
0100
0010
0100
0010
0000
0001
1000
0000
0010
0002
0000
0000
,  // measure 29
1003
0100
0010
0001
0000
0001
0010
0000
0010
0100
0000
0100
,  // measure 30
1000
0000
0100
0010
0000
0001
0010
0000
0000
1100
0000
0000
,  // measure 31
1001
0000
0000
0001
0000
0001
1000
0000
1000
0001
0000
0000
,  // measure 32
0110
0000
0000
0010
0000
0000
0100
0000
0100
0010
0000
0000
,  // measure 33
0110
0000
0000
1100
0000
0000
1000
0000
1000
0100
0000
0000
,  // measure 34
1100
0000
0000
0110
0000
0000
0001
0000
0001
0010
0000
0010
,  // measure 35
0100
0000
0000
1100
0000
0000
1000
0000
1000
0100
0000
0000
,  // measure 36
0010
0000
0000
0100
0000
0000
0001
0000
0001
1000
0000
0000
,  // measure 37
0010
0000
0010
1000
0000
0000
0100
0000
1000
0100
0000
0000
,  // measure 38
1000
0000
0000
0010
0000
0000
0001
0000
0000
0001
0100
0001
,  // measure 39
0100
0000
0000
1000
0000
0000
0100
0000
1000
0100
0000
0100
,  // measure 40
0010
0000
0000
0010
0000
0000
0001
0000
0001
0010
0000
0010
,  // measure 41
0100
0000
0000
0100
0000
0000
1000
0000
0000
0100
1000
0100
,  // measure 42
1000
0000
0100
0000
0010
0000
0002
0000
0000
0003
0000
0000
,  // measure 43
1000
0100
1000
0100
0000
1000
0010
0000
0001
0010
0000
0100
,  // measure 44
0001
0100
0001
0100
0000
0010
0100
0000
1000
0001
0000
0010
,  // measure 45
0100
0010
0100
0010
0100
0010
0100
0010
0100
0010
0100
0010
,  // measure 46
0100
0010
1000
0001
0100
0001
0100
0010
0100
0001
1000
0002
,  // measure 47
2000
0000
0000
0000
,  // measure 48
0000
0000
0000
0000
,  // measure 49
0000
0000
0000
0000
,  // measure 50
0000
0000
0000
0000
,  // measure 51
0000
0000
0000
0000
,  // measure 52
0000
0000
0000
0000
,  // measure 53
0000
0000
0000
0000
,  // measure 54
0000
0000
0000
3003
,  // measure 55
1100
0100
0100
0100
,  // measure 56
0010
0010
0010
0010
,  // measure 57
0001
0001
0001
0001
,  // measure 58
1000
1000
1000
1000
,  // measure 59
0010
0000
0100
0000
0000
1000
0100
0000
0000
0000
0000
0010
,  // measure 60
0001
0000
0100
0000
0000
0001
0100
0000
1000
0000
0000
1000
,  // measure 61
0100
0000
0000
0000
0000
0001
0010
0000
0000
0000
0000
0001
,  // measure 62
0100
1000
0010
0001
0100
1000
0100
0010
0001
0100
0010
1000
,  // measure 63
0001
0000
0000
0000
,  // measure 64
0000
0000
0000
1100
,  // measure 65
0010
0000
0010
1000
0000
0010
0100
0000
0001
0100
0000
1000
,  // measure 66
0100
0000
0010
0001
0000
0010
0100
0000
0001
1000
0000
0010
,  // measure 67
1000
0000
0001
0100
0000
1000
0100
0000
0010
0001
0000
0010
,  // measure 68
0100
0000
0001
1000
0000
0010
0100
0000
1000
0100
0000
0010
,  // measure 69
0001
0000
0001
0100
0000
0010
1000
0000
0100
1000
0000
0010
,  // measure 70
0001
0000
0010
0100
0000
0001
1000
0000
0010
1000
0000
0100
,  // measure 71
1000
0000
0010
0001
0000
0010
0100
0000
0001
1000
0000
0000
,  // measure 72
1100
0000
0110
0000
0001
1000
0020
0000
0000
0000
0030
0000
,  // measure 73
0001
0000
0001
0010
0000
0010
0100
0000
0100
1000
0000
0100
,  // measure 74
1000
0000
0010
0100
0000
0001
1000
0000
1000
0100
0000
0010
,  // measure 75
0001
0000
0010
0100
0000
0001
1000
0000
0010
1000
0000
0100
,  // measure 76
1000
0000
0010
0001
0000
0010
0100
0000
0001
0100
0000
0010
,  // measure 77
1000
0000
0001
0100
0000
1000
0100
0000
0010
0001
0000
0010
,  // measure 78
1000
0000
0010
0100
0000
0001
1000
0000
0010
0100
0000
1000
,  // measure 79
0100
0000
0010
0001
0000
0010
0100
0000
0000
0000
0000
0000
,  // measure 80
1000
0100
0010
0001
0100
0010
1000
0000
1001
0000
1000
0001
,  // measure 81
0100
1000
0100
1000
0100
1000
0100
0000
0000
0000
0000
0000
,  // measure 82
0010
0100
0010
0100
0010
0100
0010
0000
0000
0000
0000
0000
,  // measure 83
1000
0100
1000
0100
1000
0100
0010
0100
0010
0100
0010
0100
,  // measure 84
0001
0010
0001
0020
0000
0000
0130
0000
1001
0000
0100
0001
,  // measure 85
2002
0000
0000
0000
,  // measure 86
3003
0000
0000
0000
;

//---------------dance-single - ----------------
#NOTES:
     dance-single:
     :
     Medium:
     7:
     0.473,0.627,0.270,0.123,0.438:
0000
0000
0000
0000
,
0000
0000
0000
0000
,
0000
0000
0000
0000
,
0000
0000
0000
0000
,
0001
0010
0100
1000
,
0100
0010
0001
0100
,
1000
1000
0100
0010
,
0001
0100
1000
0100
,
0110
0110
1010
0011
,
1100
0011
0110
0110
,
1000
0000
0100
1000
0000
0010
0100
0000
0001
1000
0000
1000
,
0100
0000
0001
0010
0000
1000
0020
0000
0000
2000
0000
0000
,
3030
0000
0000
0000
,
0000
0000
0000
1001
,
0010
0000
0010
0100
0000
0000
1000
0000
0000
1100
0000
0000
,
0010
0000
0001
0100
0000
0000
0010
0000
0001
1000
0000
0000
,
0010
0000
0100
1000
0000
0000
0010
0000
0000
1000
0000
0000
,
0001
0000
0001
0100
0000
0000
0010
0000
0000
0110
0000
0000
,
1000
0000
0100
1000
0000
0010
0100
0000
0000
0001
0000
0000
,
1000
0000
0010
1000
0000
0001
0100
0000
0000
0020
0000
0000
,
0130
0000
1000
0100
0000
0000
0010
0000
0000
0001
0000
0000
,
0010
0000
0000
0001
0000
0000
1000
0000
0100
1000
0000
0100
,
1000
0000
0000
0100
0000
0010
0100
0000
0001
1000
0000
0000
,
0010
0000
0000
0100
0000
1000
0100
0000
1000
0100
0000
0000
,
0010
0000
0000
1000
0000
0001
0100
0000
0001
0100
0000
0000
,
0010
0000
0000
0100
0000
0010
0100
0000
0010
0200
0000
0000
,
0301
0000
0000
0010
0000
0010
1000
0000
0010
1000
0000
0000
,
0010
0000
0000
0100
0000
0100
1000
0000
1000
0100
0000
0000
,
0001
0000
0010
0100
0000
0000
0001
0000
0001
1000
0000
0000
,
0010
0000
0010
0100
0000
0000
1000
0000
0000
0100
0000
0000
,
1000
0000
0000
0100
0000
0000
0010
0000
0000
0000
0000
0001
,
0000
0000
0100
0000
0000
1000
0100
0000
0000
0010
0000
0000
,
0100
0000
0000
1000
0000
0000
0001
0000
0000
0000
0000
0100
,
0000
0000
1000
0000
0000
0100
1000
0000
0000
0010
0000
0000
,
0100
0000
0000
1000
0000
0000
0001
0000
0100
0000
0000
0010
,
0000
0000
0100
0000
0000
1000
0100
0000
0000
0010
0000
0000
,
0001
0000
0000
0100
0000
0000
1000
0000
0100
0000
0000
0010
,
0000
0000
1000
0000
0000
0001
0100
0000
0000
1000
0000
0000
,
0010
0000
0000
0100
0000
0000
1000
0000
0100
0000
0000
0010
,
0000
0000
0001
0000
0000
0010
0100
0000
0000
1000
0000
0000
,
0100
0000
0000
0001
0000
0000
1000
0000
0100
0001
0000
0000
,
0010
0000
1000
0000
0100
0000
0002
0000
0000
0000
0000
0000
,
1003
0000
0000
0100
0000
0100
0010
0000
0000
0011
0000
0000
,
0110
0000
0000
0110
0000
0000
1010
0000
0001
0100
0000
0010
,
0100
0000
0000
1000
0000
0100
1000
0000
0010
0100
0000
0001
,
1000
0000
0000
0010
0000
0001
0100
0000
0010
1000
0000
0001
,
2000
0000
0000
0000
,
0000
0000
0000
0000
,
0000
0000
0000
0000
,
0000
0000
0000
0000
,
3000
0000
0000
0000
,
0000
0000
0000
0000
,
0000
0000
0000
0000
,
0000
0000
0000
0000
,
0001
0010
0100
1000
,
0001
0100
1000
0010
,
0100
1000
0010
0001
,
0100
0010
1000
0001
,
1100
0010
0100
1000
,
0101
0010
0100
1000
,
1001
0010
0110
1000
,
1100
0011
0110
1010
,
1001
0000
0000
0000
,
0000
0000
0000
0000
0000
0000
0000
1000
0000
1100
0000
0000
,
0010
0000
0010
1000
0000
0010
2000
0000
0000
0000
0000
0000
,
3100
0000
0010
1000
0000
0000
0010
0000
0001
0100
0000
0000
,
0010
0000
0001
1000
0000
0020
1000
0000
0000
0000
0000
0030
,
0100
0000
1000
0100
0000
0000
0010
0000
0001
0010
0000
0000
,
0001
0000
0001
1000
0000
0010
0200
0000
0000
0000
0000
0000
,
0310
1010
0001
0011
,
0001
0000
0001
0010
0000
0010
0200
0000
0000
0000
0000
0000
,
1300
1010
0011
1100
,
0001
0000
0001
1000
0000
0010
1000
0000
0000
0000
0000
0000
,
1000
0100
0010
0001
,
0010
0000
0010
1000
0000
0001
0200
0000
0000
0000
0000
0000
,
0301
1010
0001
0011
,
0001
0000
0001
0100
0000
0010
2000
0000
0000
0000
0000
3000
,
0100
0000
1000
0100
0000
0010
0001
0000
0001
0010
0000
0100
,
0010
0000
0010
0100
0000
0000
1100
0000
0000
0000
0000
0000
,
0001
0000
0001
1000
0000
1000
0100
0000
0010
0000
0001
0000
,
1000
0001
1000
0001
1000
0001
1000
0000
0000
0000
0000
0000
,
0001
1000
0001
1000
0001
1000
0001
0000
0000
0000
0000
0000
,
0010
0100
0010
0100
0000
0000
0010
0100
0010
0100
0000
0000
,
1000
0000
0000
0002
0000
0000
1003
0001
0010
1000
0100
0002
,
2000
0000
0000
0000
,
3003
0000
0000
0000
;

//---------------dance-single - ----------------
#NOTES:
     dance-single:
     :
     Easy:
     5:
     0.382,0.627,0.541,0.238,0.000:
0000
0000
0000
0000
,
0000
0000
0000
0000
,
0000
0000
0000
0000
,
0000
0000
0000
0000
,
1000
0001
1000
0001
,
1000
0001
1000
0002
,
0103
0001
0100
0001
,
0100
0001
0100
0001
,
1010
1000
1100
0000
,
0011
0000
1100
0000
,
1001
1001
1001
1001
,
1010
0101
2100
0100
,
0002
0000
0000
0000
,
3003
0000
0000
0000
,
0100
0001
0100
0001
,
0101
0100
1000
0100
,
1100
1000
0010
1000
,
1010
0100
0001
0100
,
0101
0100
1000
0100
,
1100
0000
0101
0000
,
1001
0001
1000
0001
,
1001
1000
0200
1000
,
1300
0100
0010
0011
,
0001
0100
0001
0102
,
0103
1000
0100
0001
,
0100
1000
0010
1010
,
1000
0100
0010
0001
,
0010
0001
0100
1001
,
0001
0100
1000
0010
,
1000
0100
0010
0011
,
1000
0100
0001
0100
,
1000
0100
0002
0103
,
0001
0100
1000
0100
,
0001
0100
2000
0100
,
3100
1000
0100
0001
,
0100
1000
0200
0301
,
1000
0100
0001
0100
,
2002
0000
0000
3003
,
0001
0010
1000
0010
,
0001
0010
1000
0010
,
0001
0010
1000
0001
,
2002
0000
0000
3003
,
1100
1100
0000
0000
,
0101
0101
0000
0000
,
0110
0000
1100
0000
,
0011
1010
0101
1100
,
2002
0000
0000
0000
,
0000
0000
0000
0000
,
0000
0000
0000
0000
,
0000
0000
0000
0000
,
0000
0000
0000
0000
,
0000
0000
0000
0000
,
0000
0000
0000
0000
,
3003
0000
0000
0000
,
1001
0000
1000
0000
,
1000
0000
1000
0000
,
0001
0000
0100
0000
,
0010
0000
0100
0000
,
1100
0000
0001
0000
,
1100
0000
0010
0000
,
0101
0000
1100
0000
,
0011
1010
0101
1100
,
1001
0000
0000
0000
,
0000
0000
0000
0000
,
1000
1000
2000
3000
,
0001
1000
0100
0010
,
0001
0001
0002
0003
,
0001
0010
0100
1000
,
0001
1000
0200
0300
,
0010
0100
0010
0100
,
1100
0000
0011
0000
,
0101
0000
1010
0000
,
0001
1000
0002
0003
,
1000
0100
0010
0001
,
0010
0001
0020
0000
,
0031
0100
0001
0100
,
0101
0100
1100
0000
,
1000
0100
0010
0001
,
0010
0100
2000
0000
,
3001
0200
0002
0303
,
1100
1100
2200
3300
,
0011
0011
0022
0033
,
1001
1001
1010
0101
,
1100
0012
1003
0001
,
2002
0000
0000
0000
,
3003
0000
0000
0000
;

//---------------dance-single - ----------------
#NOTES:
     dance-single:
     :
     Beginner:
     3:
     0.185,0.482,0.246,0.000,0.000:
0000
0000
0000
0000
,
0000
0000
0000
0000
,
0000
0000
0000
0000
,
0000
0000
0000
0000
,
0001
0000
0000
0000
,
0000
0000
0000
0000
,
1000
0000
0000
0000
,
0000
0000
0000
0000
,
0010
0000
0010
0000
,
0010
0000
0010
0000
,
0100
0000
0100
0000
,
0100
0000
0100
0000
,
1001
0000
0000
0000
,
0000
0000
0000
0000
,
1000
1000
1000
0000
,
0001
0001
0001
0000
,
0010
0010
0010
0000
,
0100
0100
0100
0000
,
1000
1000
1000
0000
,
0001
0001
0001
0000
,
0001
0000
1000
0000
,
0100
0000
0000
0000
,
0110
0010
0010
0000
,
0100
0100
0100
0000
,
1000
0000
0001
0000
,
1000
0000
0000
0000
,
0001
0000
0000
0000
,
1000
0000
0000
0000
,
0100
0000
0000
0000
,
0010
0000
0100
0000
,
1001
0000
0000
0000
,
1000
0000
0000
0000
,
0001
0000
0000
0000
,
0000
0000
0010
0010
,
0010
0000
0000
0000
,
0100
0000
0000
0000
,
0001
0000
0000
0000
,
0000
0000
0000
0000
,
1001
0000
0000
0000
,
1000
0000
0000
0000
,
0100
0000
0000
0000
,
0001
0000
0000
0000
,
1001
0000
0000
0000
,
1001
0000
0000
0000
,
1001
0000
1001
0000
,
1001
0110
1001
0110
,
1001
0000
0000
0000
,
0000
0000
0000
0000
,
0000
0000
0000
0000
,
0000
0000
0000
0000
,
0000
0000
0000
0000
,
0000
0000
0000
0000
,
0000
0000
0000
0000
,
0000
0000
0000
0000
,
1001
0000
0000
0000
,
0000
0000
0000
0000
,
0000
0000
0000
0000
,
0000
0000
0000
0000
,
0010
0000
0010
0000
,
0010
0000
0010
0000
,
0010
0000
0010
0000
,
0010
0010
0010
0010
,
1001
0000
0000
0000
,
0000
0000
0000
0000
,
1000
1000
1000
0000
,
0001
0000
1000
0000
,
0001
0001
0001
0000
,
0010
0000
0100
0000
,
0010
0010
0010
0000
,
0001
0000
1000
0000
,
0110
0000
0110
0000
,
0110
0000
1001
0000
,
1000
1000
1000
0000
,
0001
0000
0001
0000
,
0010
0010
0010
0000
,
0100
0000
0100
0000
,
0001
0000
1000
0000
,
0100
0100
0100
0000
,
0100
0000
0010
0000
,
0001
1000
1001
0000
,
1001
0000
1001
0000
,
1001
0000
1001
0000
,
0110
0000
0110
0000
,
1001
0000
0110
0110
,
1001
0000
0000
0000
;
