#TITLE:THANK YOU FOR PLAYING;
#SUBTITLE:;
#ARTIST:SUPER STAR 満-MITSURU-;
#TITLETRANSLIT:;
#SUBTITLETRANSLIT:;
#ARTISTTRANSLIT:SUPER STAR -MITSURU-;
#CREDIT:;
#BANNER:bn.png;
#BACKGROUND:bg.png;
#LYRICSPATH:THANK YOU FOR PLAYING.lrc;
#CDTITLE:beatmaniaIIDX.png;
#MUSIC:THANK YOU FOR PLAYING.mp3;
#OFFSET:0.059;
#SAMPLESTART:14.693;
#SAMPLELENGTH:12.000;
#SELECTABLE:YES;
#DISPLAYBPM:45.000:170.000;
#BPMS:0.000=170.010,34.000=42.502,36.000=170.005,260.000=160.000,262.000=145.000,263.000=140.000,264.000=128.000,265.000=117.000,266.000=99.000,267.000=45.000,268.000=145.000;
#STOPS:;
#BGCHANGES:;

//---------------dance-single - ----------------
#NOTES:
     dance-single:
     :
     Hard:
     9:
     0.603,0.791,0.373,0.067,0.268:
0000
0000
0000
0000
,
0000
0000
0000
0000
,
0000
0000
0000
0000
,
0000
0000
0000
0000
,
0000
0000
0000
0000
,
0000
0000
0000
0000
,
0000
0000
0000
0000
,
0000
0000
0000
0000
,
0000
0000
0000
0000
0000
0000
0000
0000
0000
0000
0000
0000
0000
0000
0000
0000
0000
0000
0000
0000
0000
0000
0000
0000
0000
0000
0000
0000
0000
0000
0000
0000
1000
0002
0200
0000
0000
0000
0000
0000
0000
0000
0000
0000
0000
0000
0000
0000
0000
0000
0000
0000
0000
0000
0000
0000
0000
0000
0000
0000
0303
0000
0000
0000
,
0101
0001
0010
0100
0000
1000
0100
0010
,
0100
1000
0001
0100
0101
0000
0010
0000
,
1001
1000
0001
0100
0000
0100
0010
1000
,
0001
0100
0001
0010
0011
0000
1100
0000
,
0001
1000
0001
0100
0000
0100
0001
0010
,
0001
0100
0010
1000
0100
0010
0100
1000
,
1001
0000
0000
1100
0000
0000
1001
0000
,
0101
0000
0000
0000
0000
0000
1000
0001
0100
0000
0000
0000
0000
0000
0000
0000
,
0110
0010
1000
0100
0000
0001
1000
0001
,
0000
0100
0010
1000
1010
0000
0100
0000
,
1001
0001
1000
0100
0000
1000
0001
0100
,
0000
0000
0010
0000
1000
0000
0001
0000
0101
0000
0000
1000
0001
0000
1000
0000
,
1100
1000
0001
0100
0000
0010
1000
0001
,
0000
1000
0001
0100
0000
1000
0010
0100
,
0010
0000
1000
0100
0000
0010
0001
0000
,
0100
0000
0010
1000
1001
0000
0010
0100
,
0001
0000
1000
0000
0010
0000
0000
0100
0000
0000
0010
0000
1000
0000
0000
0100
,
0000
1000
0001
0100
0001
0010
0001
1000
,
0100
0000
1000
0000
0010
0000
0100
0010
0000
0000
0001
0000
1000
0000
0100
1000
,
0000
0000
0001
0000
0100
0000
0010
0100
0010
0000
1000
0000
0001
0000
0010
0001
,
0010
0000
0001
0000
0010
0000
0000
0011
0000
0000
0001
0000
1000
0000
0000
1100
,
0000
1000
0001
0100
0010
1000
0001
0010
,
0001
0000
0100
0100
0000
0010
0010
1000
,
1001
0000
0000
0000
1100
0000
0000
0000
1001
0000
0000
0110
0000
0000
1100
0000
,
1002
0000
0000
0000
0000
0000
1000
1003
,
0000
0000
0000
0010
0100
1000
0100
0010
,
0001
0000
0000
1100
0000
0000
0010
0000
0000
0000
0000
0000
0000
0000
0001
0100
,
0001
0000
0000
0000
,
1000
0000
0000
0000
0000
0000
0000
0001
,
0001
0000
0000
1000
1000
0000
0000
0010
,
0100
0010
0000
0000
1000
0100
0000
0000
0001
0100
0000
0000
0010
0100
0000
0000
,
1000
0001
0000
0000
0001
0100
0000
0000
0010
0100
0000
0000
1000
0100
0000
0000
,
0001
1000
0001
0000
0100
0010
0100
0000
1000
0100
1000
0000
0001
0010
0001
0000
,
0000
1001
0000
0001
0100
0000
0010
0100
0000
2000
0200
0000
3300
0000
0000
0000
,
1000
1000
0001
0100
0000
0100
0100
0010
,
1000
0001
0100
0001
0011
0000
1000
0000
,
1001
0001
1000
0100
0000
0010
1000
0001
,
0100
0000
0001
0000
0010
0000
0001
0000
0101
0000
0000
0010
1000
0000
0010
0000
,
1010
1000
0001
0100
0000
0010
1000
0001
,
0010
0001
0100
0010
1010
0000
0100
0000
,
1001
0000
0000
1100
0000
0000
0011
0000
,
1010
0000
0000
0000
0000
0000
1000
0001
1000
0000
0000
0100
0010
0000
0100
0000
,
0110
0000
0000
1100
0000
0000
1001
0000
0000
0000
0000
0000
0000
0000
1000
0100
,
1000
0000
0001
0100
0001
0000
0010
0100
0010
0000
1000
0001
1000
0000
0001
0000
,
0101
0000
0000
0010
0000
0000
0100
0000
0010
0000
0000
0000
0000
0000
1000
0001
,
1000
0001
0100
0010
0000
0100
0000
1001
,
0001
0010
0001
0010
1000
0100
1000
0100
,
0001
0100
0001
0100
0010
0100
0010
1000
,
0001
0000
0010
0001
0010
0000
0100
0000
0010
0100
0010
0000
1000
0000
0001
1000
,
0001
0100
0010
0100
1000
0100
0010
0100
1000
0001
0100
0010
1000
0100
1000
0010
,
0001
0100
0001
0100
0000
0010
0100
0001
,
1000
0100
0010
1000
0010
1000
0100
0010
,
0001
0010
0100
0001
0000
0001
0100
0010
,
1000
0100
0010
0100
0010
1000
0100
0010
,
0001
0010
0100
0001
0000
0001
1000
0010
,
1000
0001
0100
0010
1000
0001
0100
0010
,
1000
0000
0000
0010
0000
0000
0100
0000
,
0001
0000
0000
0010
0000
0000
0100
0000
0000
1000
0000
0000
0100
0000
0000
0010
0000
0000
1000
0000
0100
0000
0000
0000
,
0001
1000
0001
2000
0002
0000
0000
0000
0000
0000
0000
0000
0000
0000
0000
0000
0000
0000
0000
0000
0000
0000
0000
0000
0000
0000
0000
0000
0000
0000
0000
0000
,
0000
0000
0000
0000
,
3003
0000
0000
0000
;

//---------------dance-single - ----------------
#NOTES:
     dance-single:
     :
     Medium:
     7:
     0.403,0.545,0.315,0.000,0.038:
0000
0000
0000
0000
,
0000
0000
0000
0000
,
0000
0000
0000
0000
,
0000
0000
0000
0000
,
0000
0000
0000
0000
,
0000
0000
0000
0000
,
0000
0000
0000
0000
,
0000
0000
0000
0000
,
0000
0000
0100
0000
,
0010
0100
0001
1000
0000
0001
1000
0000
,
0001
0100
0110
0010
,
0010
0010
0100
0010
0000
0010
1000
0000
,
0001
0100
0101
1000
,
1100
1000
0100
1000
0000
0010
0100
0000
,
0010
0000
1000
0001
0100
0000
0010
0000
,
0110
0000
0000
1010
0000
0000
0011
0000
,
1100
0000
0000
0001
0100
0000
0000
0000
,
0110
0010
0100
0010
0000
0010
1000
0000
,
0010
0100
0110
0010
,
1000
0000
0001
0100
0000
0010
0100
0000
,
0010
1000
0001
0100
0101
0000
1000
0000
,
1100
0000
0010
0100
0000
0100
0010
0000
,
1000
0000
0001
0000
0101
0000
1000
0001
,
0100
0000
0000
0110
0000
0000
1000
0000
,
1100
0000
0101
0000
,
0010
0100
0010
0000
0010
1000
0010
0000
,
0001
1000
0001
0000
0100
0000
0010
0000
,
1000
0001
1000
0000
0010
1000
0010
0000
,
0100
0000
1000
0000
0001
0010
1000
0000
,
0001
0000
1001
0000
0001
0100
0010
0000
,
1000
0000
1100
0000
0010
1000
0010
0000
,
1000
0000
0001
0100
0000
0000
0010
0000
,
0110
0000
0000
0000
0010
0000
0000
0000
0011
0000
0000
0001
0000
0000
0001
0000
,
1001
0000
0000
0000
0000
0000
0001
1000
,
0000
0000
0000
0001
0010
0100
1000
0100
,
1000
0000
0000
0100
0000
0000
1000
0000
0000
0000
0000
0000
0000
0000
0000
0100
,
0010
0000
0000
0000
,
0110
0000
0000
0000
0000
0000
0000
0010
,
0010
0000
0000
0100
0100
0000
0000
0010
,
1000
1000
1000
1000
,
1000
1000
1000
1000
,
0001
0001
0001
0001
,
0000
0100
0000
0000
0010
0000
0000
1000
0000
0000
0001
0000
0000
0000
0000
0000
,
0001
0000
1000
0001
0000
0001
0100
0000
,
0010
0100
0110
0010
,
0110
0000
0010
0100
0000
0010
1000
0000
,
0001
0100
1100
0001
,
0101
0000
0001
0100
0000
0100
0010
0000
,
1000
0000
0001
1000
0010
0000
0010
1000
,
0100
0000
0000
1100
0000
0000
0010
0000
,
0011
0000
0000
0001
0100
0000
0000
0000
,
0110
0000
0000
0010
0000
0000
0010
0000
0000
0000
0000
0000
0000
0000
0000
0000
,
0010
0100
0001
1000
,
0001
0000
0000
0001
0000
0000
0100
0000
0010
0000
0000
0000
0000
0000
1000
0000
,
0100
1000
0100
1000
0000
1100
0000
0100
,
0001
1000
0001
1000
0001
0100
0001
0100
,
0010
0100
0010
0100
0010
1000
0010
1000
,
0010
0100
0010
1000
0001
0100
0010
0001
,
0010
0100
1000
0100
0010
0001
1000
0001
,
0100
0000
0000
0010
0000
0000
1000
0000
,
0001
0100
0110
0010
,
1010
0000
0000
0010
0000
0000
0100
0000
,
0010
1000
1001
1000
,
1100
0000
0000
1000
0000
0000
0001
0000
,
0100
0010
1000
0000
,
0001
0000
0000
1000
0000
0000
0010
0000
,
0100
0000
0010
0000
,
0000
1000
0001
0000
0000
0000
0000
0000
0000
0000
0000
0000
0000
0000
0000
0000
;

//---------------dance-single - ----------------
#NOTES:
     dance-single:
     :
     Easy:
     5:
     0.295,0.417,0.287,0.057,0.005:
0000
0000
0000
0000
,
0000
0000
0000
0000
,
0000
0000
0000
0000
,
0000
0000
0000
0000
,
0000
0000
0000
0000
,
0000
0000
0000
0000
,
0000
0000
0000
0000
,
0000
0000
0000
0000
,
0000
0000
0010
0000
,
1000
0001
0100
0010
,
1000
0010
1010
0100
,
0101
0100
0001
0100
,
0010
1000
1000
0010
,
0110
0010
1000
0001
,
0100
1000
0010
1000
,
1010
0000
0000
0101
0000
0000
1000
0000
,
0001
0000
0000
1000
0001
0000
0000
0000
,
0101
0100
0001
0100
,
0010
1000
1010
0010
,
1010
1000
0100
0010
,
0001
0100
0101
1000
,
1100
1000
0001
0100
,
0010
1000
1010
0100
,
0010
0000
0000
1000
0000
0000
0001
0000
,
1000
0000
0001
0000
,
0100
0000
0100
0000
,
0100
0100
0010
0010
,
1000
0000
1000
0000
,
0001
1000
0100
0010
,
0011
0000
0001
0000
,
0001
0100
0010
1000
,
1020
0000
0000
1000
0000
0000
0000
0000
,
1030
0010
1000
0001
,
1001
0000
0000
0000
0000
0000
1000
0001
,
0000
0000
0000
0001
0100
0000
0010
0000
,
1000
0000
1000
0000
1000
0000
0000
0001
,
0001
0000
0000
0000
,
1001
0000
0000
0000
,
1000
0000
0001
0000
,
0200
0000
0000
0000
,
0000
0000
0000
0000
,
0002
0000
0000
0000
,
0303
0000
0000
0000
,
1000
0001
0100
0010
,
1000
0010
1010
0100
,
0101
0001
1000
0100
,
1000
0010
1010
0100
,
0101
0001
0100
0010
,
1000
0100
1100
0010
,
0011
0000
0000
0101
0000
0000
1010
0000
,
1002
0000
0000
1000
1003
0000
0000
0000
,
0001
1000
0100
0010
,
0011
0011
0011
0011
,
0001
0100
0010
1000
,
0010
1000
0100
0010
,
0001
0001
1000
1000
,
0001
1000
0001
0100
,
0010
1000
0010
0000
0001
0100
0001
0000
,
1000
0001
1000
0001
1000
0001
1000
0001
,
2002
0000
0000
0000
,
3003
0000
0100
0000
,
0010
0000
0000
0000
,
0000
0000
1000
0000
,
0001
0000
0000
0000
,
0000
0000
0100
0000
,
1000
0000
0000
0001
0000
0000
1000
0000
,
0100
0000
1000
0000
,
0000
1001
0000
0000
0000
0000
0000
0000
0000
0000
0000
0000
0000
0000
0000
0000
;

//---------------dance-single - ----------------
#NOTES:
     dance-single:
     :
     Beginner:
     2:
     0.093,0.160,0.029,0.000,0.005: // measure 1
0000
0000
0000
0000
,  // measure 2
0000
0000
0000
0000
,  // measure 3
0000
0000
0000
0000
,  // measure 4
0000
0000
0000
0000
,  // measure 5
0000
0000
0000
0000
,  // measure 6
0000
0000
0000
0000
,  // measure 7
0000
0000
0000
0000
,  // measure 8
0000
0000
0000
0000
,  // measure 9
0000
0000
0010
0000
,  // measure 10
0001
0000
0000
0000
,  // measure 11
0000
0000
1000
0000
,  // measure 12
1000
0000
0000
0000
,  // measure 13
0000
0000
0010
0000
,  // measure 14
0010
0000
0000
0000
,  // measure 15
0000
0000
0100
0000
,  // measure 16
0100
0000
0000
0000
,  // measure 17
0100
0000
0100
0000
,  // measure 18
0110
0000
0000
0000
,  // measure 19
0000
0000
0001
0000
,  // measure 20
0001
0000
0000
0000
,  // measure 21
0000
0000
1000
0000
,  // measure 22
1000
0000
0000
0000
,  // measure 23
0000
0000
0010
0000
,  // measure 24
0010
0000
0000
0000
,  // measure 25
0100
0000
0100
0000
,  // measure 26
0100
0000
0000
0000
,  // measure 27
0010
0000
0000
0000
,  // measure 28
0001
0000
0000
0000
,  // measure 29
1000
0000
0000
0000
,  // measure 30
0010
0000
0000
0000
,  // measure 31
0100
0000
0000
0000
,  // measure 32
0010
0000
0000
0000
,  // measure 33
0010
0000
1000
0000
,  // measure 34
1001
0000
0000
0000
,  // measure 35
0001
0000
0000
0000
,  // measure 36
1000
0000
0000
0000
,  // measure 37
0010
0000
0000
0000
,  // measure 38
0100
0000
0000
0000
,  // measure 39
0100
0000
0100
0000
,  // measure 40
0100
0000
0000
0000
,  // measure 41
0000
0000
0000
0000
,  // measure 42
0010
0000
0000
0000
,  // measure 43
1000
0000
0000
0000
,  // measure 44
0001
0000
0000
0000
,  // measure 45
0000
0000
1000
0000
,  // measure 46
0100
0000
0000
0000
,  // measure 47
0000
0000
0001
0000
,  // measure 48
0010
0000
0000
0000
,  // measure 49
0000
0000
0001
0000
,  // measure 50
0100
0000
0000
0000
,  // measure 51
0010
0000
0010
0000
,  // measure 52
0010
0000
0000
0000
,  // measure 53
1000
0000
0000
0000
,  // measure 54
0001
0000
0000
0000
,  // measure 55
1000
0000
0000
0000
,  // measure 56
0100
0000
0000
0000
,  // measure 57
1000
0000
0000
0000
,  // measure 58
0001
0000
0000
0000
,  // measure 59
0001
0000
1000
0000
,  // measure 60
1001
0000
0000
0000
,  // measure 61
0000
0000
0010
0000
,  // measure 62
0010
0000
0000
0000
,  // measure 63
0000
0000
0100
0000
,  // measure 64
0100
0000
0000
0000
,  // measure 65
0000
0000
0001
0000
,  // measure 66
0001
0000
0000
0000
,  // measure 67
1000
0000
0000
0000
,  // measure 68
0000
0100
0000
0000
0000
0000
0000
0000
0000
0000
0000
0000
0000
0000
0000
0000
;
