#TITLE:Summer Vacation(CU mix);
#SUBTITLE:;
#ARTIST:OutPhase;
#TITLETRANSLIT:;
#SUBTITLETRANSLIT:;
#ARTISTTRANSLIT:;
#CREDIT:;
#BANNER:bn.PNG;
#BACKGROUND:bg.PNG;
#LYRICSPATH:;
#CDTITLE:Beatmania IIDX.png;
#MUSIC:Summer Vacation(CU mix).mp3;
#OFFSET:0.020;
#SAMPLESTART:59.060;
#SAMPLELENGTH:15.000;
#SELECTABLE:YES;
#BPMS:0.000=135.000;
#STOPS:192.500=1.556
;
#BGCHANGES:;

//---------------dance-single - ----------------
#NOTES:
     dance-single:
     :
     Hard:
     8:
     0.499,0.649,0.221,0.077,0.518:
0000
0000
0000
0000
,
0000
0000
0000
0000
,
0000
0000
0000
0000
,
0000
0000
0000
0000
,
0000
0000
1000
0100
0010
0001
0000
0010
,
0100
0000
1000
0100
0010
0000
0001
0100
,
0001
0010
0000
0010
1000
0010
0000
0001
,
0010
0001
0001
0010
0100
1000
1002
0000
,
1003
0000
0000
0000
1100
0000
0000
0000
0000
0000
0000
0010
0000
0000
0010
0000
,
0000
0000
0000
0000
0101
0000
0000
0000
0000
0000
0000
0010
0000
0000
1000
0000
,
0000
0000
0000
0000
1100
0000
0000
0000
0000
0000
0000
1001
0000
0000
0100
0000
,
0000
0000
1000
0100
0010
0100
0001
1000
,
1010
0000
0000
0000
0010
0000
0000
0000
0000
0000
0000
0100
0000
0000
1000
0000
,
0000
0000
0000
0000
0110
0000
0000
0000
0000
0000
0000
0001
0000
0000
0100
0000
,
0000
0000
0000
0000
1010
0000
0000
0000
0000
0000
0000
0010
0000
0000
0100
0000
,
0000
0000
1000
0100
0010
0001
0010
0100
,
0001
0100
0010
1000
0010
0100
0001
2000
,
0000
0000
0000
0000
3100
0000
0000
1000
0000
0100
0000
0000
0010
0000
0000
0001
,
0000
0000
0001
0000
0100
0000
0000
0010
0000
1000
0000
0000
0010
0000
0000
1000
,
0000
0000
0100
0000
1000
0000
0000
0100
0000
1000
0000
0000
0100
0000
0000
0010
,
0000
0000
0001
0000
0100
0000
0000
0001
0000
0100
0000
0000
0010
0000
0000
1000
,
0000
0000
1000
0000
0100
0000
0000
0010
0000
0001
0000
0000
0100
0000
0000
0010
,
0000
0000
1000
0000
0100
0000
0000
0010
0000
0001
0000
0000
0001
0000
0000
0100
,
0000
0000
0010
0000
0100
0000
0000
0001
0000
0100
0000
0000
0010
0000
0000
0001
,
0000
0000
0100
0000
1000
0000
0000
0001
0000
1000
0000
0000
0100
0000
0000
0010
,
0000
0000
0001
1000
0100
0000
0010
0100
,
0010
0000
1000
0000
0010
0000
0010
1000
0000
0000
0000
0010
0100
0000
0010
0000
,
0010
0000
0010
0000
0100
0000
1000
0100
0000
0000
0000
0010
0001
0000
0010
0000
,
0100
1000
1020
0000
0130
0000
0012
0000
,
0103
1020
0130
2100
,
3010
0012
0103
0021
,
0031
0000
1000
0100
0010
0001
0010
0100
,
0010
0000
1000
0000
0001
0100
0001
0100
0001
0100
0001
0100
0001
0100
0001
0100
,
0010
1000
0001
0100
0010
0000
0000
1000
0000
0100
0000
0000
0010
0000
0000
0011
,
0000
0000
0001
0000
0100
0000
0000
0001
0000
0100
0000
0000
0010
0000
0000
1001
,
0000
0000
1000
0000
0100
0000
0000
0010
0000
0001
0000
0000
0001
0000
0000
0100
,
0000
0000
0010
0000
0100
0000
0000
0010
0000
1000
0000
0000
0001
0000
0000
0100
,
0000
0000
0001
0000
0100
0000
0000
0010
0000
0100
0000
0000
0010
0000
0000
1000
,
0000
0000
0001
0000
0010
0000
0000
0001
0000
0001
0000
0000
0100
0000
0000
0001
,
0000
0000
0010
0000
0100
0000
0000
0001
0000
1000
0000
0000
0100
0000
0000
1000
,
0000
0000
0100
0000
1000
0000
0000
0010
0000
0100
0000
0000
0001
0000
0000
1000
,
0000
0000
0100
0000
1000
0000
0010
1000
0000
0010
0000
0000
0010
0000
0000
0100
,
0000
0001
1000
0100
1000
0000
0000
0010
0000
0001
0000
0000
0010
0000
0000
1000
,
0000
0001
0100
0001
0100
0000
0000
0010
0000
1000
0000
0000
0100
0000
0000
1000
,
0000
0001
1000
0001
1000
0000
0000
0010
0000
0100
0000
0000
1000
0000
0000
0100
,
0000
0010
0001
0010
0001
0000
0000
1000
0000
0100
0000
0000
0010
0000
0000
0001
,
0000
0010
0100
0010
0100
0000
0000
1000
0000
0100
0000
0000
0010
0000
0000
0001
,
0000
0100
1000
0100
1000
0000
0000
0010
0000
0100
0000
0000
1000
0000
0000
0100
,
0000
0011
0000
1000
0100
0010
0001
0000
,
0010
0100
1000
0100
1000
0100
0000
0010
,
0100
0001
0000
0010
0100
1000
0000
0100
,
1000
0000
0010
0000
0000
0000
0001
0000
0000
0100
0000
0000
1000
0000
0000
0000
,
0000
0000
0010
1000
0010
1000
0010
0000
0001
0000
0011
0000
0001
0000
0010
0000
,
0100
0110
0100
1000
0100
1100
0010
1000
,
0010
1010
0100
0010
0100
0110
0010
0001
,
0010
0000
0011
0000
0001
0000
0100
1000
0100
1000
0000
0100
0000
0010
0000
0001
,
0010
0000
0000
0100
0000
0000
1000
0000
0000
0000
0000
0000
0000
0000
0000
0000
;

//---------------dance-single - ----------------
#NOTES:
     dance-single:
     :
     Medium:
     6:
     0.391,0.406,0.317,0.019,0.326:
0000
0000
0000
0000
,
0000
0000
0000
0000
,
0000
0000
0000
0000
,
0000
0000
0000
0000
,
0000
0000
1000
0000
0001
0000
0100
0001
,
0100
0000
0001
0000
0010
0000
0001
0010
,
0001
0000
0000
0100
0001
0100
0000
1000
,
0100
1000
0010
0100
0010
1000
0010
0000
,
0100
0000
0000
0000
0110
0000
0000
0000
0000
0000
0000
0001
0000
0000
1000
0000
,
0000
0000
0000
0000
1000
0000
0000
0000
0000
0000
0000
0001
0000
0000
0100
0000
,
0000
0000
0000
0000
0010
0000
0000
0000
0000
0000
0000
0100
0000
0000
0100
0000
,
0000
0000
0010
0100
0010
0100
0010
0100
,
0010
0000
0110
0000
1001
0000
1000
0001
,
0100
0000
0101
0000
1100
0000
1000
0001
,
0100
0000
0110
0000
1001
0000
0010
0100
,
0010
0000
1000
0100
1000
0000
0001
0100
,
0001
0000
0010
0100
0010
0000
0000
2002
,
0000
3003
0000
0000
0001
0000
0000
0100
0000
0001
0000
0000
0100
0000
0000
0000
,
0000
0000
0000
0000
0010
0000
0000
0100
0000
0010
0000
0000
0100
0000
0000
0000
,
0000
0000
0000
0000
0010
0000
0000
1000
0000
1000
0000
0000
0010
0000
0000
0000
,
0000
0000
0000
0000
1000
0000
0000
0001
0000
1000
0000
0000
0001
0000
0000
0000
,
0000
0000
0000
0000
0100
0000
0000
0010
0000
1000
0000
0000
0100
0000
0000
0000
,
0000
0000
0000
0000
1000
0000
0000
0001
0000
0100
0000
0000
0010
0000
0000
0000
,
0000
0000
0000
0000
0001
0000
0000
1000
0000
0001
0000
0000
0100
0000
0000
0000
,
0000
0110
0000
0110
,
0000
0000
0001
0000
1000
0000
0001
0100
,
0010
0000
0100
0000
0010
0000
0010
1000
,
0010
0000
0100
0000
0110
0000
0010
1000
,
0001
0101
0010
0011
,
0001
0011
0100
1100
,
0010
1001
0010
1100
,
0010
1000
0101
0110
,
1001
0000
1000
0001
0100
0010
0100
0010
,
1000
0000
0100
0000
1000
0000
0000
0100
0000
1000
0000
0000
0100
0000
0000
1000
,
0000
0000
0000
0000
0001
0000
0000
0100
0000
0001
0000
0000
0100
0000
0000
0001
,
0000
0000
0000
0000
0001
0000
0000
0010
0000
0001
0000
0000
0010
0000
0000
0001
,
0000
0000
0000
0000
1000
0000
0000
0100
0000
1000
0000
0000
0100
0000
0000
1000
,
0000
0000
0000
0000
0010
0000
0000
0100
0000
0010
0000
0000
0100
0000
0000
0010
,
0000
0000
0000
0000
0001
0000
0000
1000
0000
0001
0000
0000
1000
0000
0000
0001
,
0000
0000
0000
0000
1000
0000
0000
0100
0000
1000
0000
0000
0100
0000
0000
1000
,
0000
0000
0000
0000
0010
0000
0000
0001
0000
0010
0000
0000
0001
0000
0000
0010
,
0000
0000
0000
0000
0101
0000
0000
0001
0000
0001
0000
0000
0001
0000
0000
0001
,
0000
0000
0000
0000
0110
0000
0000
0100
0000
0100
0000
0000
0100
0000
0000
0100
,
0000
0000
0000
0000
1010
0000
0000
1000
0000
1000
0000
0000
1000
0000
0000
1000
,
0000
0000
0000
0000
1100
0000
0000
1000
0000
1000
0000
0000
1000
0000
0000
1000
,
0000
0000
0000
0000
1001
0000
0000
0001
0000
0001
0000
0000
0001
0000
0000
0001
,
0000
0000
0000
0000
0101
0000
0000
0001
0000
0001
0000
0000
0001
0000
0000
0001
,
0000
0000
0000
0000
0101
0000
0000
0001
0000
0001
0000
0000
0100
0000
0000
0010
,
0000
1000
0000
0001
0000
1000
0000
0001
,
1000
0001
0000
0100
0001
0100
0000
0001
,
0000
0100
0010
0100
0000
0010
0000
0010
,
0100
0000
0010
0000
0000
0000
0010
0000
0000
1000
0000
0000
0001
0000
0000
0000
,
0000
0001
0000
1000
0000
1100
0000
1000
,
0001
0101
0000
0001
0000
0110
0000
0010
,
1000
1001
0000
0001
0000
0101
0000
0001
,
0010
0000
0011
0000
0000
0000
0000
0001
0000
0100
0000
0010
0000
1000
0000
0000
,
0010
0000
0000
0100
0000
0000
0001
0000
0000
0000
0000
0000
0000
0000
0000
0000
;

//---------------dance-single - ----------------
#NOTES:
     dance-single:
     :
     Easy:
     4:
     0.348,0.433,0.413,0.259,0.000:
0000
0000
0000
0000
,
0000
0000
0000
0000
,
0000
0000
0000
0000
,
0000
0000
0000
0000
,
0000
0010
0010
1000
,
0001
2000
3001
1000
,
0001
1000
0001
0000
0001
0000
0100
0000
,
0010
1000
0010
1001
,
0110
1010
0000
0010
,
1000
1100
0000
1000
,
0001
0101
0000
0001
,
0010
0002
0000
1000
,
0003
1000
1001
0001
,
1000
0001
0100
0010
,
1000
0010
0100
0010
,
1000
0000
1001
0000
,
0001
0000
0000
0000
0001
0000
0000
0001
,
0000
1001
1000
0001
,
0100
1001
0001
0100
,
0010
1000
0010
0100
,
0010
1000
0001
0100
,
0010
1010
0010
1000
,
0100
1000
0010
0100
,
0001
0010
0001
0100
,
0010
2002
0000
0000
,
3003
0002
0100
0020
,
0033
2000
0100
0020
,
3030
0020
1000
0200
,
0330
0010
0000
0010
,
0000
0110
0000
1100
,
0000
0011
0000
0101
,
0000
1010
0101
1010
,
1100
0011
1100
1010
,
0101
1002
1000
0100
,
0013
2001
0100
0010
,
3001
0120
1000
0100
,
1030
2100
0010
0100
,
3010
0120
0100
0100
,
0130
0012
0010
0100
,
0013
2100
0001
0010
,
3100
1100
0011
0220
,
0330
1002
0100
0010
,
0010
0100
0100
1000
,
1003
2001
0001
0100
,
0010
0010
0100
0010
,
3010
1020
1000
0100
,
0001
0100
1000
0100
,
0031
0210
1000
0010
,
0301
0000
0000
0001
0000
1000
0000
0001
,
0000
0100
0000
0020
0000
0130
0000
0010
,
0000
1000
0010
1000
0000
0010
0000
0100
,
0000
0010
0000
2000
0000
0000
0000
0000
,
0000
3002
0000
0103
0000
0101
0000
0010
,
0000
0110
0000
1000
0000
1100
0000
0010
,
0000
0011
0000
0001
0000
0101
0000
0010
,
0000
0110
0000
2000
0000
0000
0000
0000
,
0000
0000
0000
3001
0000
0000
0000
0000
;

//---------------dance-single - ----------------
#NOTES:
     dance-single:
     :
     Challenge:
     9:
     0.701,0.785,0.547,0.346,0.749:
0000
0000
0000
0000
,
0000
0000
0000
0000
,
0000
0000
0000
0000
,
0000
0000
0000
0000
,
0000
0000
0000
0000
0001
0000
0000
0010
0100
0000
1000
0000
0100
0000
0001
0000
,
0010
0000
0001
0010
0100
0000
1000
0010
,
1000
0100
0000
0002
0010
0013
0000
2000
,
0100
3100
2000
3100
0020
0031
1001
0000
,
0110
0000
0000
0000
0011
0000
0000
0000
0000
0000
0000
1100
0000
1000
0100
0000
,
0000
0000
0000
0000
1010
0000
0000
0000
0000
0000
0000
0101
0000
0010
0001
0000
,
0000
0000
0000
0000
0011
0000
0000
0000
0000
0000
0000
1001
0000
0100
0010
0000
,
0000
0000
0000
0000
0001
0000
0010
0001
0100
0000
0010
0000
1000
0000
0001
1000
,
0100
1000
0100
0000
1100
0000
1000
0100
1000
0000
0100
0000
0010
0000
0001
0000
,
0200
0000
0000
0000
0310
0000
0010
0100
0010
0000
1000
0000
0100
0000
0010
0000
,
0002
0000
0000
0000
0103
0000
0010
1000
0100
0000
1000
0000
0100
0000
0010
0000
,
0001
0000
0001
0001
0011
0001
0001
0001
,
0101
0001
0001
0001
1001
0001
0001
2002
,
0000
0000
3003
0000
0010
0000
0010
0001
0000
0010
0000
1000
0100
0000
0000
1000
,
0000
0100
1000
0000
0010
0000
0010
0100
0000
0001
0000
1000
0100
0000
0000
0001
,
0000
0001
0010
0000
0001
0000
0001
0010
0000
0001
0000
1000
0010
0000
0000
0100
,
0000
0010
1000
0000
0010
0000
0010
1000
0000
0010
0000
0010
0100
0000
0000
0001
,
0000
1000
0001
0000
0010
0000
0010
0100
0000
1000
0000
0100
0010
0000
0010
0100
,
0000
0010
0001
0000
0010
0000
0010
0001
0000
0010
0000
1000
0100
0000
0000
1000
,
0000
0100
1000
0000
0010
0000
0010
0100
0000
0001
0000
1000
0100
0000
0000
0001
,
0000
0001
0010
0000
0002
0000
0000
0000
0013
0000
0000
0000
2000
0000
0000
0000
,
3100
0000
0000
0000
1000
0000
0001
0010
0000
0001
0000
2000
0100
0000
0100
0000
,
3100
0000
1000
0000
0001
0000
0100
0010
0000
0100
0000
0001
2000
0000
0001
0000
,
0001
0000
3001
0000
0010
0000
0001
0010
0000
1000
0000
0200
1000
0000
1000
0000
,
1000
1300
0201
0000
0310
0000
2100
0000
,
3010
0000
0000
0000
0202
0000
0000
0003
0310
0000
0000
0000
0022
0000
0000
0030
,
0103
0000
0000
0000
2200
0000
0000
0300
3010
0000
0000
0000
2200
0000
0000
3000
,
1300
0000
0001
0010
0100
1000
0100
0010
,
0100
0000
0001
0000
1000
0010
1000
0010
1000
0010
1000
0010
1000
0010
1000
0010
,
0100
0000
0001
0000
0100
0000
0001
0000
0100
0000
0001
0000
0010
0000
0000
0000
0000
0000
0000
0000
0000
0011
0000
0000
0000
0000
0000
0011
0000
0000
0000
0000
0000
0000
0000
0000
0110
0000
0000
0000
0000
0000
0000
0000
0000
1100
0000
0000
,
0000
0001
1000
0100
0010
0000
0000
1001
0000
0110
0000
0000
1100
0000
0000
1001
,
0000
1000
0001
0100
0010
0000
0000
0110
0000
1100
0000
0000
1001
0000
0000
1010
,
0000
1000
0100
0001
0010
0000
0000
0110
0000
0011
0000
0000
1001
0000
0000
0110
,
0000
0001
1000
0100
0010
0000
0000
0101
0000
0110
0000
0000
1100
0000
0000
0011
,
0000
0001
1000
0010
0100
0000
0000
1010
0000
1100
0000
0000
1010
0000
0000
1001
,
0000
0001
0100
0001
0010
0000
0000
1001
0000
0101
0000
0000
0011
0000
0000
1001
,
0000
1000
0010
0100
0001
0000
1000
0000
0001
0000
0100
0000
0001
0000
0100
0000
,
0001
0000
1000
0000
0001
0000
1000
0000
0001
0000
1000
0000
0001
0000
0000
0000
0000
0000
0100
0000
0000
0002
0000
0000
0000
0000
0000
0100
0000
0000
0000
0000
0000
0000
0000
0000
0103
0000
0000
0000
0000
0000
0000
0000
0000
0010
0000
0000
,
0000
1000
0001
0010
0002
0000
0000
0100
0000
0100
0000
0000
0100
0000
0000
0010
,
0003
1000
0010
1000
0020
0000
0000
0100
0000
0100
0000
0000
0100
0000
0000
1000
,
0030
1000
0001
1000
0002
0000
0000
0100
0000
0010
0000
0000
1000
0000
0000
0010
,
0003
0100
1000
0100
2000
0000
0000
0001
0000
0001
0000
0000
0100
0000
0000
0010
,
3000
0100
0010
0100
0020
0000
0000
1000
0000
0100
0000
0000
0100
0000
0000
1000
,
0030
0010
1000
0010
2000
0000
0000
0100
0000
0010
0000
0000
0001
0000
0000
0010
,
0000
0000
0000
0000
0000
0000
0000
0000
0001
3000
0000
0000
0000
0000
0000
0000
0000
0000
0000
0000
0000
0000
0000
0000
1000
0000
0000
0000
0000
0000
0000
0000
0001
0000
0000
0000
0000
0000
0000
0000
0010
0000
0000
0000
0000
0000
0000
0000
0001
0000
0000
0000
0000
0000
0000
0000
0100
0000
0000
0000
0000
0000
0000
0000
,
0010
0000
1000
0000
0100
0000
1000
0010
0100
0010
1000
0000
0100
0000
0001
0000
,
0100
0010
1000
0001
0010
0001
0100
0010
,
1000
0000
0100
0000
1000
0000
0100
0000
1000
0100
0000
0001
0100
0000
0001
1000
,
0000
0000
0000
0001
0000
0000
0100
0000
0010
0000
0100
0000
0010
0000
0100
0000
0010
0000
0100
0000
0000
0000
0000
0000
0010
0000
0000
0000
0000
0000
2010
0000
0000
0000
0000
0000
3010
0000
0000
0000
0000
0000
1000
0000
0000
0000
0000
0000
,
0001
2001
3001
0100
0001
0201
0310
0100
,
1000
2100
3001
1000
0001
1002
1003
0010
,
1000
0000
2010
0000
3010
0000
0100
0110
0000
0011
0000
1010
0000
0110
0000
0100
,
0001
0000
0010
1000
0000
0010
0001
0000
0000
0000
0000
0000
0000
0000
0000
0000
;

//---------------dance-single - ----------------
#NOTES:
     dance-single:
     :
     Beginner:
     2:
     0.089,0.159,0.048,0.000,0.000: // measure 1
0000
0000
0000
0000
,  // measure 2
0000
0000
0000
0000
,  // measure 3
0000
0000
0000
0000
,  // measure 4
0000
0000
0000
0000
,  // measure 5
0000
0010
0000
0000
,  // measure 6
0000
0001
0000
0000
,  // measure 7
0000
1000
0000
0000
,  // measure 8
0000
0010
0000
0100
,  // measure 9
0100
0100
0000
0000
,  // measure 10
0000
0010
0000
0000
,  // measure 11
0000
1000
0000
0000
,  // measure 12
0000
0001
0000
0000
,  // measure 13
0000
0001
0000
0000
,  // measure 14
0000
1000
0000
0000
,  // measure 15
0000
0010
0000
0000
,  // measure 16
0000
0100
0000
0000
,  // measure 17
0000
0000
0000
0000
,  // measure 18
0000
0010
0000
0000
,  // measure 19
0000
0010
0000
0000
,  // measure 20
0000
0010
0000
0000
,  // measure 21
0000
0010
0000
0000
,  // measure 22
0000
0100
0000
0000
,  // measure 23
0000
0100
0000
0000
,  // measure 24
0000
0100
0000
0000
,  // measure 25
0000
0100
0000
0010
,  // measure 26
0000
1001
0000
0000
,  // measure 27
0000
0001
0000
0000
,  // measure 28
0000
1000
0000
0000
,  // measure 29
0000
0010
0000
0000
,  // measure 30
0000
0100
0000
0000
,  // measure 31
0000
0100
0000
0000
,  // measure 32
0000
0010
0000
0010
,  // measure 33
0000
1000
1000
1000
,  // measure 34
1000
1001
0000
0000
,  // measure 35
0000
0010
0000
0000
,  // measure 36
0000
1000
0000
0000
,  // measure 37
0000
0001
0000
0000
,  // measure 38
0000
0100
0000
0000
,  // measure 39
0000
0010
0000
0000
,  // measure 40
0000
1000
0000
1000
,  // measure 41
0000
1000
0000
0000
,  // measure 42
0000
1001
0000
0000
,  // measure 43
0000
0010
0000
0000
,  // measure 44
0000
0100
0000
0000
,  // measure 45
0000
0001
0000
0000
,  // measure 46
0000
1001
0000
0000
,  // measure 47
0000
0010
0000
0000
,  // measure 48
0000
0100
0000
0010
,  // measure 49
0000
0000
0000
0100
0000
0000
0000
0000
,  // measure 50
0000
0000
0000
0010
0000
0000
0000
0000
,  // measure 51
0000
0000
0000
1000
0000
0000
0000
0000
,  // measure 52
0000
0000
0000
0001
0000
0000
0000
0000
,  // measure 53
0000
0000
0000
0110
0000
0000
0000
0000
,  // measure 54
0000
0000
0000
0010
0000
0000
0000
0000
,  // measure 55
0000
0000
0000
1000
0000
0000
0000
0000
,  // measure 56
0000
0000
0000
0001
0000
0000
0000
0000
;
