#TITLE:Star Gate Heaven;
#SUBTITLE:(Fracus' Crazy Chill Mix);
#ARTIST:SySF. Feat. Donna Burke;
#TITLETRANSLIT:;
#SUBTITLETRANSLIT:;
#ARTISTTRANSLIT:;
#CREDIT:;
#BANNER:bn.png;
#BACKGROUND:StarGateHeavenFracusCrazyChillMix-b.png.png;
#LYRICSPATH:;
#CDTITLE:;
#MUSIC:15_-_sysf_feat_donna_burke_-_star_gate_heaven_(fracus'_crazy_chill_mix).mp3;
#OFFSET:-0.040;
#SAMPLESTART:61.480;
#SAMPLELENGTH:12.000;
#SELECTABLE:YES;
#BPMS:0.000=125.000;
#STOPS:;
#BGCHANGES:;

//---------------dance-single - ----------------
#NOTES:
     dance-single:
     :
     Hard:
     6:
     0.328,0.379,0.129,0.266,0.152:
0000
0000
0000
0000
,
0000
0000
0000
0000
,
0000
0000
0000
0000
,
0000
0000
0000
0000
,
1000
0000
0000
0000
0001
0000
0000
0000
0100
0000
0010
0000
0000
0010
0000
0000
,
0010
0000
0100
0000
0010
0000
1000
0001
,
0010
0001
1000
1001
,
0110
0000
0010
0000
0010
0000
1000
0001
,
0010
0001
1000
0001
,
0100
0000
0010
0000
1000
0000
0001
0100
,
0010
1000
0001
1100
,
0011
0000
0001
0000
0100
0000
0010
1000
,
0002
0013
2000
3100
,
1000
0000
0001
0000
0100
0000
0001
0010
,
0001
0001
0100
0010
,
1000
0000
0000
0000
1000
0000
0000
0000
1000
0000
0000
0000
0001
0100
0001
0100
,
0001
0000
0000
1000
0000
0000
0001
0000
0100
0000
0000
0000
0010
0000
0000
0000
,
0100
0000
0000
0010
0000
0000
1000
0000
0001
0000
0000
0100
0000
0000
0001
0000
,
0100
0000
0000
0000
0110
0000
0000
0000
0010
0000
0000
1000
0000
0000
0100
0000
,
1000
0000
0000
0001
0000
0000
0100
0000
0010
0000
0000
0100
0000
0000
0010
0000
,
2000
3100
0020
0031
,
0001
0000
0000
0100
0000
0000
0010
0000
1000
0000
0000
0100
0000
0000
1000
0000
,
0002
0000
0000
0103
0020
0000
0000
0130
,
0020
0000
0000
0000
0100
0000
0000
0000
0130
0000
0000
0000
0010
1000
0010
1000
,
0010
0000
0000
0000
0000
0000
1000
0000
0100
0000
0000
1000
0000
0000
0100
0000
,
0010
0000
0000
0001
0000
0000
0100
0000
0001
0000
0000
0100
0000
0000
0010
0000
,
0200
0000
0000
0300
0010
0000
0000
0000
0010
0000
0000
1000
0000
0000
0010
0000
,
0100
0000
0000
0010
0000
0000
1000
0000
0010
0000
0000
0000
0100
0001
0100
0001
,
0100
0000
0000
0010
0000
0000
1000
0000
0001
0000
0000
0000
1001
0000
1000
0000
,
0001
0000
0000
0010
0000
0000
0001
0000
0100
0000
0000
0010
0000
0000
0010
0000
,
1000
0000
0000
0001
0000
0000
1000
0000
0001
0000
0000
0100
0000
0000
0010
0000
,
1000
0000
0000
0000
1000
0000
0000
0000
1000
0000
0000
0000
0100
1000
0100
1000
,
0200
0000
0000
0010
0000
0010
0000
0000
,
0020
0300
0200
0330
,
2002
0000
0000
0000
3000
0000
0000
1003
,
0200
0000
0000
0300
,
2100
0000
0000
0100
0000
0100
0000
0000
,
0200
0000
0000
3300
,
0022
0000
0000
0033
,
1000
0000
0000
0001
0000
0000
0001
0000
0100
0000
0000
0010
0000
0000
0000
0000
,
1001
0000
0000
0101
0000
1100
0000
0000
,
1000
0002
0100
0000
0010
0000
0103
0000
,
0102
0000
0000
0020
0000
0003
0000
0000
,
0032
0000
0000
2000
0000
0000
3003
0000
,
1000
0000
0001
0100
0000
0010
0000
0010
,
2000
3100
0002
0013
,
0002
0000
0000
0010
0000
1000
0000
0000
,
2003
0000
0000
0000
0000
0000
0000
0000
0000
0000
0100
0000
0000
0100
0000
0000
,
0200
0000
0000
0000
,
3300
0000
0000
0010
,
0100
0000
0000
0000
,
0000
0000
0000
0000
0000
0000
0000
0000
0000
0000
0001
0000
0000
0010
0000
0000
,
0002
0000
0000
0000
,
0000
0000
0000
1000
,
1003
0000
0000
0001
0000
0000
0100
0000
0010
0000
0000
1000
0000
0000
0000
0000
,
1001
0000
0000
0000
;

//---------------dance-single - ----------------
#NOTES:
     dance-single:
     :
     Medium:
     4:
     0.240,0.303,0.101,0.184,0.009:
0000
0000
0000
0000
,
0000
0000
0000
0000
,
0000
0000
0000
0000
,
0000
0000
0000
0000
,
0010
1000
0100
1000
,
0010
0100
0001
0010
,
0001
0100
0010
1010
,
1010
0000
1000
0000
0010
0000
1000
0001
,
1000
0001
0100
0010
,
1000
0100
1000
0010
,
0100
0001
0010
0101
,
0011
0000
0001
0000
0100
0000
0010
1000
,
0001
0001
1000
0001
,
1000
1000
0001
1000
,
0010
0100
0010
1000
,
1001
0001
0001
0001
,
2000
3100
0002
0103
,
0001
0010
0001
0100
,
0020
1030
0200
1300
,
1000
0000
0001
0000
0100
0000
0010
1000
,
0200
1300
0020
0031
,
0001
1000
0001
0100
,
0020
0000
2030
0000
,
0020
0000
0000
0000
3030
0000
0001
1000
,
0001
1000
0001
0100
,
0010
1000
0100
0010
,
0001
0100
0010
1000
,
0001
0000
1000
0000
0001
0000
0001
0100
,
0010
0010
0100
0100
,
0010
1000
0001
0100
,
0010
1000
0100
0010
,
0001
0000
0000
0000
,
1001
0000
0000
1000
0000
1000
0000
0000
,
2000
0000
0002
3003
,
1001
0000
0000
0001
0000
0000
0000
0000
,
0200
0000
0000
0300
,
0101
0000
0000
0100
0000
0100
0000
0000
,
2000
0000
0000
0000
0002
0000
3000
0200
,
0000
0000
0000
0303
,
2000
0000
3001
0000
,
1001
0000
0000
0100
0000
0100
0000
0000
,
0020
0000
0000
0000
,
0100
0000
0000
0100
0000
0000
0000
0000
,
0200
0000
0000
0330
,
1001
0000
0000
0100
0000
0100
0000
0000
,
0020
0000
0000
0000
,
2030
0000
0000
0010
0000
0010
0000
0000
,
3010
0000
0000
0000
0000
0000
0000
0000
0000
0000
1000
0000
0000
0001
0000
0000
,
0100
0000
0000
0000
,
0000
0000
0000
1000
,
0001
0000
0000
0000
,
0000
0000
0000
0000
0000
0000
0000
0000
0000
0000
0010
0000
0000
0100
0000
0000
,
0010
0000
0000
0000
,
0000
0000
0000
0010
,
1000
0000
0000
0000
,
1001
0000
0000
0000
;

//---------------dance-single - ----------------
#NOTES:
     dance-single:
     :
     Easy:
     2:
     0.129,0.202,0.009,0.165,0.000:
0000
0000
0000
0000
,
0000
0000
0000
0000
,
0000
0000
0000
0000
,
0000
0000
0000
0000
,
0010
0000
0000
0000
,
0000
0000
0000
0000
,
0000
0000
0000
1000
,
1000
0000
0000
0002
,
0103
0001
0010
0000
,
0001
0000
1000
0000
,
0001
0000
1000
0100
,
1000
0000
0001
0200
,
0301
0000
1000
0000
,
0001
0000
0100
0000
,
0010
0000
1000
0001
,
0100
0100
0100
0100
,
0100
0000
0010
0000
,
2000
0000
0100
0000
,
3100
0000
0010
0000
,
0002
0000
0103
0000
,
0001
0000
1000
0000
,
0020
0000
0130
0000
,
0010
0000
1000
0000
,
0001
0000
0000
2000
,
3100
0000
1000
0001
,
0100
0000
0100
0000
,
0100
0000
0010
1000
,
0100
0000
1000
0000
,
0001
0000
0001
0000
,
0100
0010
1000
0000
,
0010
0000
1000
0000
,
0001
0000
0000
0000
,
2000
0000
0000
0000
,
0002
0000
0000
0000
,
3003
0000
0000
0000
,
0002
0000
0000
0003
,
0020
0000
0000
0000
,
0200
0000
0000
0000
,
0330
0000
0000
0000
,
0010
0000
0010
0000
,
2000
0000
0000
0000
,
0200
0000
0000
3300
,
0011
0000
0000
0000
,
0200
0000
0000
0300
,
0002
0000
0020
0000
,
0033
0000
0000
0000
,
2000
0000
0000
0000
,
3100
0000
0000
0000
,
0000
0000
0000
0000
,
0000
0000
0000
0010
,
0010
0000
0000
0000
,
0000
0000
0000
0000
,
0000
0000
0000
0000
,
0000
0000
0000
1000
,
0002
0000
0000
0000
,
0003
0000
0000
0000
;

//---------------dance-single - ----------------
#NOTES:
     dance-single:
     :
     Beginner:
     1:
     0.052,0.101,0.018,0.000,0.000: // measure 1
0000
0000
0000
0000
,  // measure 2
0000
0000
0000
0000
,  // measure 3
0000
0000
0000
0000
,  // measure 4
0000
0000
0000
0000
,  // measure 5
0001
0000
0000
0000
,  // measure 6
0000
0000
0000
0000
,  // measure 7
0000
0000
0000
0000
,  // measure 8
0000
0000
0000
0000
,  // measure 9
1000
0000
0000
0000
,  // measure 10
0000
0000
0000
0000
,  // measure 11
0000
0000
0000
0000
,  // measure 12
0000
0000
0000
0000
,  // measure 13
0100
0000
0000
0000
,  // measure 14
0000
0000
0000
0000
,  // measure 15
0000
0000
0000
0000
,  // measure 16
0010
0000
0000
0000
,  // measure 17
0001
0000
0000
0000
,  // measure 18
0001
0000
0000
0000
,  // measure 19
1000
0000
0000
0000
,  // measure 20
0010
0000
0010
0000
,  // measure 21
0010
0000
0000
0000
,  // measure 22
0100
0000
0000
0000
,  // measure 23
0010
0000
0000
0000
,  // measure 24
0001
0000
0000
0000
,  // measure 25
1000
0000
0000
0000
,  // measure 26
0010
0000
0000
0000
,  // measure 27
0100
0000
0000
0000
,  // measure 28
0001
0000
0000
0000
,  // measure 29
1000
0000
0000
0000
,  // measure 30
0010
0000
0000
0000
,  // measure 31
0100
0000
0000
0000
,  // measure 32
0010
0000
0000
0000
,  // measure 33
1001
0000
0000
0000
,  // measure 34
0010
0000
0000
0000
,  // measure 35
0000
0000
0000
0000
,  // measure 36
0010
0000
0000
0000
,  // measure 37
1000
0000
0000
0000
,  // measure 38
0000
0000
0000
0000
,  // measure 39
0001
0000
0000
0000
,  // measure 40
0010
0000
0010
0000
,  // measure 41
0010
0000
0000
0000
,  // measure 42
0100
0000
0000
0000
,  // measure 43
0010
0000
0000
0000
,  // measure 44
0010
0000
0000
0000
,  // measure 45
1000
0000
0000
0000
,  // measure 46
0001
0000
0000
0000
,  // measure 47
0100
0000
0000
0000
,  // measure 48
0010
0000
0000
0000
,  // measure 49
0000
0000
0000
0000
,  // measure 50
0000
0000
0000
0000
,  // measure 51
0000
0000
0000
0000
,  // measure 52
0000
0000
0000
0000
,  // measure 53
0000
0000
0000
0000
,  // measure 54
0000
0000
0000
0000
,  // measure 55
1000
0000
0000
0000
,  // measure 56
1001
0000
0000
0000
;
