#TITLE:Star Dream;
#SUBTITLE:;
#ARTIST:Pink Pong;
#TITLETRANSLIT:;
#SUBTITLETRANSLIT:;
#ARTISTTRANSLIT:;
#CREDIT:;
#BANNER:bn.PNG;
#BACKGROUND:bg.PNG;
#LYRICSPATH:;
#CDTITLE:Beatmania IIDX.png;
#MUSIC:02.STAR DREAM.mp3;
#OFFSET:-0.362;
#SAMPLESTART:13.323;
#SAMPLELENGTH:14.200;
#SELECTABLE:YES;
#BPMS:0.000=148.000;
#STOPS:160.000=1.219
;
#BGCHANGES:;

//---------------dance-single - ----------------
#NOTES:
     dance-single:
     :
     Hard:
     9:
     0.639,0.975,0.238,0.357,0.467:
0000
0000
0000
0000
,
0000
0000
0000
0000
,
0000
0000
0000
0000
,
0000
0000
0000
0000
,
0000
0000
0000
0000
,
0000
0000
0000
0000
,
0000
0000
0000
0000
,
2002
0000
3003
0000
,
1000
0100
0000
1000
0000
0000
0001
0000
1000
0000
0000
0001
0000
0000
0001
0000
,
0100
0000
0000
0010
0000
0000
1000
0000
0100
0000
0000
1000
0000
0000
0001
0000
,
0010
0001
0000
1000
0000
0000
0001
0000
1000
0000
0000
0001
0000
0000
0100
0000
,
0010
0000
0000
1000
0000
0000
0010
0000
0010
0100
1000
0001
0000
0000
1000
0000
,
0100
1000
0000
0100
0000
0000
1000
0000
0001
0000
0000
0100
0000
0000
0001
0000
,
0010
0001
0000
0001
0000
0000
0001
0000
0100
0000
0000
0010
0000
0000
0010
0000
,
1000
0001
0000
0100
0000
0000
0001
0000
0100
0000
0000
0010
0000
0000
1000
0000
,
1100
0000
0000
0100
0000
0000
1000
0000
0101
0000
0000
0001
0000
0000
0010
0000
,
0011
0000
0000
0001
0100
0000
0001
0000
0100
0000
0000
0010
0100
0000
0010
0000
,
1000
0000
0000
0010
1000
0000
0010
0000
0100
0000
0000
0010
1000
0000
0001
0000
,
1000
0000
0000
0001
0100
0000
0001
0000
0100
0000
0000
0010
0100
0000
0010
0000
,
1100
0000
0000
0000
0011
0000
0000
0001
0100
0000
0000
0000
0110
0000
0000
0000
,
0010
0100
0010
1000
0010
0100
0010
1000
,
0100
0010
0100
1000
0100
0010
0001
0100
,
0010
1000
0010
0100
0010
1000
0100
1000
,
0100
0010
0001
0100
0010
1000
0010
0100
,
0010
0000
0000
0010
1000
0000
0001
0100
0000
1000
0100
0000
0010
0000
0001
0000
,
0010
0000
0000
0000
0001
0000
0000
0100
0000
0000
0010
0000
1000
0000
0010
0000
,
1000
0000
0000
1000
0100
0000
0010
0001
0000
0001
0100
0000
0010
0000
0100
0000
,
0010
0100
0000
0010
1000
0000
0001
0100
0000
1000
0100
0000
0001
0000
0100
0000
,
0001
0100
0000
0000
0010
0000
0000
0100
0000
0000
0010
0000
1000
0000
0010
0000
,
0100
0010
0000
0010
1000
0000
0010
1000
0000
0001
1000
0000
0001
0000
0100
0000
,
0001
0100
0001
0000
0000
0000
1000
0100
1000
0000
0000
0000
0010
1000
0020
0000
,
0000
0000
0000
0030
,
2000
3200
2300
3200
0320
0032
0023
0032
,
0203
0302
0203
0302
0023
0032
2003
3200
,
0320
0032
0203
0320
0230
0320
2030
3002
,
0023
0230
2300
3200
0320
2030
3002
0203
,
0310
1000
0010
1000
0010
1000
0010
1000
0010
0000
0000
0000
0000
0000
1000
0100
,
0010
0100
0010
0100
0010
0100
0010
0100
0010
0000
0000
0000
0000
0000
0001
0010
,
0001
0000
0000
0000
0011
0000
0000
0001
0100
0000
0010
0000
1000
0000
0010
0000
,
0010
0100
0010
0100
0010
1000
0010
1000
0010
0100
0010
1000
0100
0010
0001
0100
,
0010
0000
0000
0000
0010
0000
0000
0010
0000
0000
1000
0000
0010
0000
0000
0100
,
0000
0010
1000
0010
1000
0100
0000
1000
,
0000
0000
0001
0000
1001
0000
0000
0001
0000
0000
1000
0000
0101
0000
0000
0001
,
0000
0000
0100
0000
0010
0000
0000
0100
0000
0000
0010
0000
1000
0000
0000
0010
,
0000
1000
1010
0000
0101
0000
1001
0000
,
1000
0000
0001
0000
1000
0000
0000
0001
0000
0000
0100
0000
0001
0000
0000
0000
,
0100
0101
1100
1010
,
0011
1100
1010
0202
,
0303
0000
0000
0000
1000
0000
0001
1000
0000
0000
1000
0000
0100
0000
0000
1000
,
0000
0000
0001
0000
0010
0000
0000
0001
0000
0000
0100
0000
0010
0000
0000
1000
,
0000
0000
0001
0000
1001
0000
0000
1000
0000
0000
1000
0000
0100
0000
0000
1000
,
0000
0000
0001
0000
0010
0000
0000
0001
0000
0000
1000
0000
0001
0000
0100
0001
,
0000
0010
0100
0000
1000
0000
0001
0100
0000
0000
0010
0000
0100
0000
0000
0010
,
0000
0000
1000
0000
0001
0000
1000
0100
0000
0000
0001
0000
0010
0000
0001
0010
,
0000
0000
0001
0000
0100
0000
0010
0100
0000
0000
0010
0000
1000
0000
0100
1000
,
0000
0000
1000
0000
1001
0000
0000
1100
0000
0000
0001
0000
0011
0000
0000
0001
,
0000
0000
0101
0000
0100
0000
0010
0100
0010
0000
0010
0000
1000
0000
0001
0000
,
0010
0000
0001
0000
0100
0000
0010
1000
0010
0000
1000
0000
0100
0000
1000
0000
,
0010
0000
0100
0000
0010
0000
1000
0001
1000
0000
0001
0000
0100
0000
0001
0000
,
0010
0000
0001
0000
0100
0000
0010
1000
0010
0000
0100
0000
0010
0000
1000
0000
,
0100
0000
0010
0000
0001
0000
0100
0001
0100
0000
0010
0000
1000
0000
0001
0000
,
0010
0000
0001
0000
0100
0000
0010
0100
0010
0000
0100
0000
0010
0000
1000
0000
,
0001
0000
0010
0000
0001
0000
0100
0001
0100
0000
0001
0000
0010
0000
0100
0000
,
0010
0000
0001
0000
1001
0000
1000
0100
0000
0000
0001
0000
0001
0000
0001
0010
,
0000
0200
2000
0000
0000
0000
3000
0000
0000
0300
0000
0000
0000
0000
0000
0000
;

//---------------dance-single - ----------------
#NOTES:
     dance-single:
     :
     Medium:
     7:
     0.472,0.528,0.274,0.274,0.210:
0000
0000
0000
0000
,
0000
0000
0000
0000
,
0000
0000
0000
0000
,
0000
0000
0000
0000
,
0000
0000
0000
0000
,
0000
0000
0000
0000
,
0000
0000
0000
0000
,
0000
0000
0000
0000
,
1000
0000
0000
1000
0000
0000
0001
0000
1000
0000
0000
0001
0000
0000
0100
0000
,
0001
0000
0000
0100
0000
0000
0001
0000
0100
0000
0000
0010
0000
0000
1000
0000
,
0010
0000
0000
1000
0000
0000
0010
0000
1000
0000
0000
0001
0000
0000
1000
0000
,
0001
0000
0000
0100
0000
0000
0010
0000
1000
0000
0000
0010
0000
0000
0010
0000
,
0010
0000
0000
1000
0000
0000
0001
0000
1000
0000
0000
0001
0000
0000
0100
0000
,
0010
0000
0000
0010
0000
0000
0010
0000
1000
0000
0000
0010
0000
0000
1000
0000
,
0001
0000
0000
1000
0000
0000
0001
0000
0100
0000
0000
0010
0000
0000
1000
0000
,
1010
0000
0000
0010
0000
0000
1000
0000
1010
0000
0000
0100
0000
0000
0010
0000
,
1000
0001
1000
0000
0001
0000
0101
0000
,
0010
0100
0010
0000
1000
0000
1001
0000
,
1000
0001
0100
0000
0001
1000
0100
0000
,
1001
0110
2002
3003
,
1000
0001
0100
0001
0020
0000
0031
0000
,
1000
0001
0100
0010
2000
0000
3010
0000
,
1000
0001
1000
0001
0200
0000
0301
0000
,
0001
0100
0010
1000
0200
0000
1300
0000
,
1000
0000
0000
0000
0001
0000
0000
0100
0000
0000
0010
0000
1000
0000
0100
0000
,
1000
0000
0000
0000
1000
0000
0000
1000
0000
0000
1000
0000
0001
0000
0100
0000
,
0001
0000
0000
0000
0001
0000
0000
0001
0000
0000
0001
0000
0100
0000
0010
0000
,
0100
0000
0000
0000
0010
0000
0000
0100
0000
0000
0010
0000
1000
0000
0001
0000
,
1000
0000
0000
0000
0001
0000
0000
0100
0000
0000
0010
0000
1000
0000
0100
0000
,
1000
0000
0000
0000
0100
0000
0000
1100
0000
0000
1000
0000
0001
0000
0100
0000
,
0010
1000
0000
0001
0100
0000
2000
0200
,
0000
0000
0000
3300
,
2000
3002
0203
0320
,
2030
3020
0230
0320
,
2030
3002
0203
0302
,
0023
0032
0203
0310
,
1020
1000
1000
1030
,
0201
0001
0001
0301
,
0021
0031
1200
1300
,
1000
0100
0010
0001
0010
0100
1000
0010
,
0101
1001
0000
0010
,
0000
0000
0010
1000
0100
1000
0000
0001
,
0000
0100
0001
0000
0000
0000
1001
0000
,
0000
0010
0000
0010
,
0010
0110
1010
0101
,
1000
0001
1000
1001
,
1100
0011
0101
1010
,
0110
1000
0011
2200
,
3300
0000
0000
0000
1000
0000
0000
1000
0000
0000
1000
0000
0001
0000
0000
0001
,
0000
0000
0001
0000
0100
0000
0000
0100
0000
0000
0100
0000
0010
0000
0000
0010
,
0000
0000
0010
0000
1000
0000
0000
0010
0000
0000
0100
0000
0010
0000
0000
0010
,
0000
0000
0010
0000
1000
0000
0000
0001
0000
0000
1000
0000
0001
0000
0000
0001
,
0000
0000
0001
0000
1000
0000
0000
0001
0000
0000
0100
0000
0010
0000
0000
0010
,
0000
0000
0010
0000
1000
0000
0000
1000
0000
0000
1000
0000
0001
0000
0000
1000
,
0000
0000
0001
0000
0100
0000
0000
0010
0000
0000
0010
0000
0100
0000
0000
0010
,
0000
0000
1000
0000
1010
0000
0000
0010
0000
0000
1000
0000
1100
0000
0000
1000
,
0000
0000
0100
0000
1000
0000
0001
0000
0100
0000
0010
0000
1000
0000
0000
1000
,
0000
0000
1000
0000
0010
0000
0100
0000
0010
0000
1000
0000
0001
0000
0000
0001
,
0000
0000
0001
0000
1000
0000
0001
0000
0100
0000
0010
0000
1000
0000
0000
1000
,
0000
0000
1000
0000
0010
0000
1000
0000
0100
0000
1000
0000
0010
0000
0000
0010
,
0000
0000
0010
0000
0100
0000
0010
0000
1000
0000
0001
0000
0100
0000
0000
0100
,
0000
0000
0100
0000
0001
0000
0010
0000
0001
0000
0100
0000
0010
0000
0000
0010
,
0000
0010
1000
0010
0100
0010
1000
0100
,
0010
0000
0000
0000
0011
0000
0000
0001
0000
0000
0100
0000
1010
0000
0000
0200
,
0000
1300
0000
0000
0000
0000
0000
0000
;

//---------------dance-single - ----------------
#NOTES:
     dance-single:
     :
     Easy:
     3:
     0.265,0.292,0.073,0.320,0.000:
0000
0000
0000
0000
,
0000
0000
0000
0000
,
0000
0000
0000
0000
,
0000
0000
0000
0000
,
0000
0000
0000
0000
,
0000
0000
0000
0000
,
0000
0000
0000
0000
,
0000
0000
0000
0000
,
0010
0010
1000
1000
,
0020
0000
1030
0000
,
1000
0100
1000
0010
,
0200
0000
0301
0000
,
0001
0010
0001
0100
,
0020
0000
1030
0000
,
1000
0001
0100
0010
,
1010
0000
0101
0000
,
2000
0000
3000
0000
,
0002
0000
0003
0000
,
0100
0000
0100
0000
,
0010
0010
0010
1001
,
1000
0000
0001
0000
,
0100
0000
0010
0000
,
1000
0000
0001
0000
,
1000
0000
0001
0000
,
1000
0001
0100
0010
,
0010
0100
0001
1000
,
1000
0001
0100
0010
,
1000
0010
1000
1000
,
0001
1000
0001
0100
,
0100
0001
1000
0001
,
1000
0000
0000
0001
0000
0000
0200
0000
,
0000
0000
0000
0300
,
0002
0000
2003
0000
,
3002
0000
2003
0000
,
3002
0000
2003
0000
,
3002
0000
2003
0000
,
3001
0001
0002
0003
,
1000
1000
2000
3000
,
0010
0000
0100
0000
,
0010
1000
0001
0100
,
1001
0010
0000
0010
,
0000
0010
0000
1000
,
0000
1000
0000
0001
,
0000
1000
0000
0001
,
1000
0001
0100
0010
,
0000
0100
0000
0010
,
0010
0010
0010
0010
,
0010
1000
0001
0100
,
1001
0001
1000
0001
,
0100
0010
1000
0020
,
0030
1000
0001
1000
,
0100
1000
0010
0200
,
0300
0100
0100
0010
,
0010
1000
0001
2000
,
3000
1000
0001
0100
,
0010
2020
0000
0000
,
3030
2000
0100
0200
,
3300
0020
0001
0002
,
0033
0001
0002
0200
,
0303
0010
2000
0020
,
3030
1000
2000
0002
,
3003
0001
0002
0200
,
0303
0010
0020
0002
,
0033
0011
0000
1100
;

//---------------dance-single - ----------------
#NOTES:
     dance-single:
     :
     Beginner:
     1:
     0.077,0.117,0.009,0.000,0.000: // measure 1
0000
0000
0000
0000
,  // measure 2
0000
0000
0000
0000
,  // measure 3
0000
0000
0000
0000
,  // measure 4
0000
0000
0000
0000
,  // measure 5
0000
0000
0000
0000
,  // measure 6
0000
0000
0000
0000
,  // measure 7
0000
0000
0000
0000
,  // measure 8
0000
0000
0000
0000
,  // measure 9
0001
0000
0000
0000
,  // measure 10
0001
0000
0000
0000
,  // measure 11
1000
0000
0000
0000
,  // measure 12
1000
0000
0000
0000
,  // measure 13
0010
0000
0000
0000
,  // measure 14
0010
0000
0000
0000
,  // measure 15
0100
0000
0000
0000
,  // measure 16
0100
0000
0100
0000
,  // measure 17
0010
0000
0000
0000
,  // measure 18
0001
0000
0000
0000
,  // measure 19
1000
0000
0000
0000
,  // measure 20
0001
0000
0001
0000
,  // measure 21
0001
0000
0000
0000
,  // measure 22
1000
0000
0000
0000
,  // measure 23
0010
0000
0000
0000
,  // measure 24
0100
0000
0000
0000
,  // measure 25
0010
0000
0000
0000
,  // measure 26
0010
0000
0000
0000
,  // measure 27
0010
0000
0000
0000
,  // measure 28
1000
0000
0000
0000
,  // measure 29
0010
0000
0000
0000
,  // measure 30
0100
0000
0000
0000
,  // measure 31
0010
0000
0000
0000
,  // measure 32
0000
0000
0000
0000
,  // measure 33
0001
0000
0000
0000
,  // measure 34
1000
0000
0000
0000
,  // measure 35
0001
0000
0000
0000
,  // measure 36
0100
0000
0000
0000
,  // measure 37
0010
0000
0000
0000
,  // measure 38
0010
0000
0000
0000
,  // measure 39
0010
0000
0010
0000
,  // measure 40
0010
0000
0000
0000
,  // measure 41
0000
0001
0000
0000
,  // measure 42
0000
0000
0000
0000
,  // measure 43
0000
1000
0000
0000
,  // measure 44
0000
0000
0000
0000
,  // measure 45
0000
0010
0000
0000
,  // measure 46
0000
0000
0000
0100
,  // measure 47
0000
0100
0000
0000
,  // measure 48
0000
0010
0000
0000
,  // measure 49
0000
1000
0000
0000
,  // measure 50
0000
0001
0000
0000
,  // measure 51
0000
0010
0000
0000
,  // measure 52
0000
0100
0000
0000
,  // measure 53
0000
0010
0000
0000
,  // measure 54
0000
1000
0000
0000
,  // measure 55
0000
0001
0000
0000
,  // measure 56
0000
1000
0000
1000
,  // measure 57
0000
1000
0000
0000
,  // measure 58
0000
0010
0000
0000
,  // measure 59
0000
0100
0000
0000
,  // measure 60
0000
0001
0000
0000
,  // measure 61
0000
0010
0000
0000
,  // measure 62
0000
1000
0000
0000
,  // measure 63
0000
0100
0000
0000
,  // measure 64
0000
0010
0000
1001
;
