#TITLE:Spooky;
#SUBTITLE:;
#ARTIST:good-cool;
#TITLETRANSLIT:;
#SUBTITLETRANSLIT:;
#ARTISTTRANSLIT:;
#CREDIT:;
#BANNER:bn.PNG;
#BACKGROUND:bg.PNG;
#LYRICSPATH:;
#CDTITLE:Beatmania IIDX.png;
#MUSIC:Spooky.mp3;
#OFFSET:-5.500;
#SAMPLESTART:87.737;
#SAMPLELENGTH:12.000;
#SELECTABLE:YES;
#DISPLAYBPM:140.000;
#BPMS:0.000=140.000,255.500=746.667,297.500=140.004;
#STOPS:;
#BGCHANGES:;

//---------------dance-single - ----------------
#NOTES:
     dance-single:
     :
     Hard:
     8:
     0.504,0.763,0.295,0.410,0.094:
1001
0000
0110
0000
0010
1000
0001
0000
,
1100
0000
1100
0000
1000
0001
0100
0001
,
0010
0001
0100
0100
0000
0000
0010
0000
,
1000
0000
0001
0000
1000
0000
0001
0100
,
0002
0000
0013
0000
0001
0010
0001
0000
,
0001
1100
0001
0110
,
0001
1000
0100
0100
0000
0000
1000
0000
,
0001
0010
0100
0000
0010
0001
0000
1000
,
0002
0010
0010
0013
,
0001
1000
0100
0000
2000
0000
3010
0000
,
1000
0001
0100
0000
0010
0000
0110
0000
,
0010
0000
0000
0000
1000
0000
0000
0000
0001
0000
0000
0100
0000
0000
0010
0000
,
2020
0000
0000
3000
,
0000
0000
0000
0000
0000
1030
0000
0000
,
1000
0000
0001
0000
0100
0000
0001
0000
0010
0000
0000
0001
0000
0000
0100
0000
,
0101
0010
0110
1000
,
1001
0000
0000
0001
0000
0000
0100
0000
0001
0000
0000
0100
0000
0000
0010
0000
,
0100
0000
0000
0010
0000
0000
1000
0000
0100
0000
0000
1000
0000
0000
0001
0000
,
0001
0000
0000
1000
0000
0000
0001
0000
0100
0000
0000
0010
0000
0000
0010
0000
,
0100
0000
0000
0010
0000
0000
1000
0000
1000
0100
0000
0010
0001
0000
1000
0000
,
0001
0000
0000
0001
0000
0000
0001
0000
1000
0000
0000
1000
0000
0000
1000
0000
,
0100
0000
0000
0100
0000
0000
0100
0000
0010
0000
0000
0010
0000
0000
0010
0000
,
0001
0000
0000
0001
0000
0000
0001
0000
1000
0000
0000
0001
0000
0000
0100
0000
,
0020
0130
2000
3100
,
1000
0200
0000
1300
0200
0000
1300
0000
,
1000
0000
1001
0000
0001
0100
0010
1000
,
0200
1300
0002
0013
,
0001
1000
0001
0100
0000
0010
0000
0010
,
2000
3200
0000
0320
0230
0000
0010
0320
,
0130
0000
0110
0000
1001
0001
1000
0001
,
0010
0001
1000
0001
,
0001
0100
0010
1000
0100
1000
0001
0010
,
0200
0000
0310
0000
0001
1000
0020
0000
,
1030
0000
1001
0000
0010
0100
0010
0000
,
0110
0000
1100
0000
0001
1000
0001
0000
,
1000
0000
0002
0200
0000
0000
0303
0000
,
1001
0000
0001
0000
1000
0001
0100
0000
,
0001
0000
0101
0000
0001
0100
0010
0000
,
0010
0110
1000
1100
,
1100
1001
0101
0011
,
0001
0000
1000
0000
0100
0000
1000
0000
0010
0000
0000
0010
0000
0000
0010
0000
,
0100
0000
0000
0000
0010
0000
0000
0000
1000
0000
0000
0001
0000
0000
0001
0000
,
1000
0000
0001
0000
0100
0000
0010
0000
1000
0000
0000
1000
0000
0000
1000
0000
,
2000
3100
0002
0013
,
0001
0000
0100
0000
0010
0000
1000
0000
0100
0000
0000
1000
0000
0000
0100
0000
,
1000
0000
0000
0000
1100
0000
0000
0000
0001
0000
0000
1000
0000
0000
0001
0000
,
0100
0000
0001
0000
0010
0000
0001
0000
0100
0000
0000
0010
0000
0000
1000
0000
,
0100
1000
0001
0010
0001
0100
0010
1000
,
0200
1300
0002
0013
0002
0103
0020
0130
,
0020
2030
0200
0000
0000
0000
3300
0000
,
1000
0001
0101
1010
0000
0000
0000
0000
,
0000
0000
2002
0000
3003
1000
0001
0100
,
0001
0010
0002
0013
0200
0301
0020
0130
,
0020
1030
2000
0200
0000
0000
3300
0000
,
1000
0001
0100
0100
0000
0100
0100
0000
,
0110
0010
1000
0001
,
0020
0031
2000
3100
0020
0130
2000
3001
,
0002
0013
0200
1300
0002
0103
0020
1030
,
1000
0001
1001
1001
0000
0000
1000
0000
,
0001
0000
0101
0000
1010
0000
1000
0100
,
1000
0001
0200
0020
0330
0000
0010
1000
,
0002
0000
0013
0000
0001
1000
0100
0001
,
0010
0001
0100
0100
0000
0010
0010
1000
,
1001
0000
1000
0000
1001
0000
1000
0200
,
0000
0000
0000
0000
,
0000
0000
0000
0000
,
0000
0000
0000
0000
,
0000
0000
0000
0000
,
0000
0000
0000
0000
,
0000
0000
0000
0000
,
0000
0000
0000
0000
,
0000
0000
0000
0000
,
0000
0000
0000
0000
,
0000
0000
0000
0000
,
0000
2000
0000
3300
0000
0000
0000
0000
;

//---------------dance-single - ----------------
#NOTES:
     dance-single:
     :
     Medium:
     5:
     0.350,0.488,0.295,0.320,0.000:
1001
0000
0110
0000
0010
1000
0010
0000
,
1000
0010
1000
0010
,
0100
0000
0010
0010
0000
0000
0000
0000
,
0010
0000
1000
0000
0001
0000
1000
0001
,
0200
0002
0000
0300
,
0200
0000
0303
0000
,
0001
0000
1000
0001
0000
0000
0000
0000
,
1000
0001
0000
0000
0001
0001
0000
0000
,
0002
0100
0010
0100
,
0020
0000
0000
0033
,
2000
0100
0010
3100
,
1100
0011
0001
1000
,
2100
0010
0100
0010
,
0200
0000
0000
3300
,
0100
0010
0010
1000
,
1001
0010
1001
0100
,
0002
0000
1003
0000
,
2000
0000
0000
0000
3100
0000
0000
1000
,
0002
0000
0000
0000
0103
0000
0000
0001
,
0200
0000
0000
0000
0301
0000
1000
0001
,
0200
0000
0301
0000
,
0002
0000
0013
0000
,
0001
0000
1000
0000
,
0001
1000
0100
1000
,
0010
1000
0000
0010
0100
0000
0110
0000
,
0010
1000
0001
1000
,
0001
0100
0001
0000
1000
0000
1001
0000
,
1000
0100
1000
0000
0010
0000
1010
0000
,
0010
1000
0000
0001
0100
0000
1001
0000
,
0001
0000
1000
0000
0001
0100
0010
0000
,
1000
1000
0010
0100
,
0010
1000
0001
0000
1000
0001
1000
0000
,
1002
0100
0020
0030
,
0200
0300
0020
0033
,
0001
1000
0000
0001
,
0100
0000
0010
0100
0000
0000
0000
0000
,
2001
0000
0200
0300
,
0020
0030
0200
3300
,
1100
0000
0011
0000
,
1001
0110
1010
0101
,
0001
1000
0001
0000
2000
0000
3100
0000
,
0001
0000
1000
0000
0001
0100
0001
0000
,
2000
0000
3001
0000
0010
0001
0010
0000
,
0012
0100
0020
0033
,
0011
0000
1100
0000
1000
0100
1000
0000
,
0100
0000
1100
0000
1000
0010
1000
0000
,
0010
0000
1010
0000
0010
1000
0001
0000
,
1000
0001
1000
0001
1000
0001
1000
0001
,
1002
1000
0100
0010
,
0203
0002
0000
0000
,
0303
0000
1001
1001
0000
0000
0000
0000
,
0000
0000
0020
0000
0030
0000
0010
1000
,
2100
0000
0010
0020
0000
0000
0000
3000
,
0100
0000
2000
0000
0000
0000
0000
3030
,
0010
0000
1000
0010
0000
0000
0000
0000
,
1010
0000
1010
0000
,
0120
1000
0001
1000
,
0001
2000
0000
3030
,
0010
0000
0010
1000
0000
0000
0000
0000
,
1010
0101
1010
0010
,
0210
1000
0001
1000
,
0002
0000
0000
0303
,
0001
0000
0100
0001
0000
0001
0100
0000
,
0010
0000
1000
0000
0010
0000
0000
2002
,
0000
0000
0000
0000
,
0000
0000
0000
0000
,
0000
0000
0000
0000
,
0000
0000
0000
0000
,
0000
0000
0000
0000
,
0000
0000
0000
0000
,
0000
0000
0000
0000
,
0000
0000
0000
0000
,
0000
0000
0000
0000
,
0000
0000
0000
0000
,
0000
0000
0000
3003
0000
0000
0000
0000
;

//---------------dance-single - ----------------
#NOTES:
     dance-single:
     :
     Easy:
     3:
     0.233,0.427,0.164,0.246,0.000:
1000
0001
1000
0001
,
2000
0000
3000
0000
,
0000
0000
0001
0001
0000
0000
0000
0000
,
0000
0000
0000
0010
,
0020
0000
0000
0000
,
0200
0000
0330
0000
,
0000
0000
0010
0100
0000
0000
0000
0000
,
0000
0000
0000
0000
,
0020
0000
2030
0000
,
0020
0000
0000
3030
,
0010
1000
0000
0000
0000
0000
0000
0000
,
0100
0100
0000
0000
,
2002
0000
0000
0000
,
0000
0000
0000
0000
0000
3000
0000
0000
,
0003
0000
0000
0000
,
1000
1000
0001
0001
,
1000
0000
0010
0000
,
0100
0000
0001
0000
,
1001
0000
0010
0000
,
1001
0000
1000
0001
,
0101
0000
0001
0000
,
0100
0000
0010
0000
,
1000
0000
0001
0000
,
1000
0000
0001
0000
,
0100
0000
0000
0100
0000
0000
0100
0000
,
0000
0000
0000
0000
,
0010
0000
0010
0000
,
0010
1000
0001
1000
,
0001
0000
0000
0100
0000
0000
0010
0000
,
1010
0010
1000
0001
,
0100
0001
0100
0010
,
0220
0000
0000
0330
,
0010
1000
0010
0100
,
0001
0010
0001
0100
,
0010
1000
0010
0100
,
0010
2020
0000
3030
,
0010
1000
0010
0100
,
0001
0010
0001
0100
,
0110
0000
1001
0000
,
1010
1100
1010
0101
,
0012
0013
0010
0001
,
0100
0010
1000
0010
,
0100
0001
0010
0001
,
0202
0000
0000
0303
,
0101
0001
0100
0010
,
1000
0010
1000
1000
,
0010
0100
0010
1000
,
2002
0000
0000
3003
,
0002
1000
1000
1000
,
1000
2000
0000
0000
,
3003
0000
1000
0001
0000
0000
0000
0000
,
0000
0200
0300
0000
,
0220
0000
0000
0300
,
0100
0200
0000
0000
,
0330
0010
0000
0000
,
0000
0000
0000
0000
,
2001
0001
0001
0001
,
0001
0002
0000
0000
,
3003
0001
0000
0000
,
1000
0001
0100
0010
,
2000
0020
0000
0030
,
0010
0020
0000
3030
,
0000
1000
0000
0000
,
1000
0000
0001
0000
1000
0000
0000
2002
,
0000
0000
0000
0000
,
0000
0000
0000
0000
,
0000
0000
0000
0000
,
0000
0000
0000
0000
,
0000
0000
0000
0000
,
0000
0000
0000
0000
,
0000
0000
0000
0000
,
0000
0000
0000
0000
,
0000
0000
0000
0000
,
0000
0000
0000
0000
,
0000
0000
0000
0000
0000
0000
0000
0000
0000
0000
0000
0000
0000
0000
0000
0000
0000
0000
0000
0000
0000
0000
0000
0000
0000
0000
0000
0000
0000
0000
0000
0000
0000
0000
0000
0000
0000
0000
0000
0000
0000
0000
0000
0000
0000
0000
0000
0000
0000
0000
0000
0000
0000
0000
0000
0000
0000
0000
0000
0000
0000
0000
0000
0000
0000
0000
0000
0000
0000
0000
0000
0000
0000
0000
3003
0000
0000
0000
0000
0000
0000
0000
0000
0000
0000
0000
0000
0000
0000
0000
0000
0000
0000
0000
0000
0000
0000
0000
0000
0000
0000
0000
0000
0000
0000
0000
0000
0000
0000
0000
0000
0000
0000
0000
0000
0000
0000
0000
0000
0000
0000
0000
0000
0000
0000
0000
0000
0000
0000
0000
0000
0000
0000
0000
0000
0000
0000
0000
0000
0000
0000
0000
0000
0000
0000
0000
0000
0000
0000
0000
0000
0000
0000
0000
0000
0000
0000
0000
0000
0000
0000
0000
0000
0000
0000
0000
0000
0000
0000
0000
0000
0000
0000
0000
0000
0000
0000
0000
0000
0000
0000
0000
0000
0000
0000
0000
0000
0000
0000
0000
0000
0000
;

//---------------dance-single - ----------------
#NOTES:
     dance-single:
     :
     Beginner:
     1:
     0.067,0.131,0.049,0.000,0.000: // measure 1
0010
0000
0000
0000
,  // measure 2
0000
0000
0000
0000
,  // measure 3
0000
0001
0000
0000
,  // measure 4
0000
0000
0000
0000
,  // measure 5
1000
0000
0000
0000
,  // measure 6
0000
0000
0000
0000
,  // measure 7
0000
0010
0000
0000
,  // measure 8
0000
0000
0000
0000
,  // measure 9
1000
0000
0000
0000
,  // measure 10
0000
0000
0000
0000
,  // measure 11
0001
0000
0000
0000
,  // measure 12
0000
0000
0000
0000
,  // measure 13
0010
0000
0000
0000
,  // measure 14
0000
0000
0000
0000
,  // measure 15
0100
0000
0000
0000
,  // measure 16
0010
0000
0010
0000
,  // measure 17
0010
0000
0000
0000
,  // measure 18
0001
0000
0000
0000
,  // measure 19
1000
0000
0000
0000
,  // measure 20
1000
0000
0000
0000
,  // measure 21
0001
0000
0000
0000
,  // measure 22
0100
0000
0000
0000
,  // measure 23
0010
0000
0000
0000
,  // measure 24
1000
0000
0000
0000
,  // measure 25
0001
0000
0000
0000
,  // measure 26
0000
0000
0000
0000
,  // measure 27
1000
0000
0000
0000
,  // measure 28
0000
0000
0000
0000
,  // measure 29
0010
0000
0000
0000
,  // measure 30
0000
0000
0000
0000
,  // measure 31
0100
0000
0000
0000
,  // measure 32
1000
0000
0001
0000
,  // measure 33
1001
0000
0000
0000
,  // measure 34
0000
0000
0000
0000
,  // measure 35
0010
0000
0000
0000
,  // measure 36
0000
0000
0000
0000
,  // measure 37
1000
0000
0000
0000
,  // measure 38
0000
0000
0000
0000
,  // measure 39
0001
0000
0001
0000
,  // measure 40
0001
0000
0000
0000
,  // measure 41
0100
0000
0000
0000
,  // measure 42
0010
0000
0000
0000
,  // measure 43
0001
0000
0000
0000
,  // measure 44
1000
0000
1000
0000
,  // measure 45
1000
0000
0000
0000
,  // measure 46
0010
0000
0000
0000
,  // measure 47
0100
0000
0000
0000
,  // measure 48
1001
0000
0000
0000
,  // measure 49
0010
0000
0000
0000
,  // measure 50
0000
0000
0000
0000
,  // measure 51
0000
0110
0000
0000
,  // measure 52
0000
0000
0000
0000
,  // measure 53
0001
0000
0000
0000
,  // measure 54
1000
0000
0000
0000
,  // measure 55
0000
1001
0000
0000
,  // measure 56
0000
0000
0000
0000
,  // measure 57
0010
0000
0000
0000
,  // measure 58
0000
0000
0000
0000
,  // measure 59
0000
0110
0000
0000
,  // measure 60
0100
0000
0000
0000
,  // measure 61
0010
0000
0000
0000
,  // measure 62
1000
0000
0000
0000
,  // measure 63
0000
1001
0000
0000
,  // measure 64
0000
0000
0000
0000
0000
0000
0000
0010
;
