#TITLE:Sphere;
#SUBTITLE:;
#ARTIST:Tatsh Feat. K. Nayuki;
#TITLETRANSLIT:;
#SUBTITLETRANSLIT:;
#ARTISTTRANSLIT:;
#CREDIT:;
#BANNER:bn.PNG;
#BACKGROUND:bg.PNG;
#LYRICSPATH:;
#CDTITLE:Beatmania IIDX.png;
#MUSIC:Sphere.mp3;
#OFFSET:0.160;
#SAMPLESTART:37.700;
#SAMPLELENGTH:9.940;
#SELECTABLE:YES;
#BPMS:0.000=160.020,21.000=80.000,23.000=160.000,27.000=80.000,29.000=160.000,61.000=80.000,79.000=160.000,151.000=80.000,153.000=160.000,253.000=80.000;
#STOPS:;
#BGCHANGES:;

//---------------dance-single - ----------------
#NOTES:
     dance-single:
     :
     Hard:
     8:
     0.549,0.704,0.401,0.128,0.132:
0000
0000
0000
0000
,
0000
0000
0000
0000
,
0000
0000
0000
0000
,
0000
0000
0000
0000
,
0000
0000
1000
0001
0100
0001
0010
0001
,
0100
0010
2000
0000
0000
0000
3100
1000
,
0010
0001
0100
0001
1000
0010
2000
0000
,
0200
3300
1000
0001
0100
0001
0010
0001
,
0100
0001
0010
0000
0001
0000
0010
0000
,
0100
0010
0001
1000
0001
0100
0001
0100
,
0010
1000
0100
0000
1000
0000
0100
1000
,
0000
0100
0000
0000
0010
0000
0000
0000
0001
0000
0000
0000
0011
0000
0000
0000
,
0001
0101
0001
0101
,
0001
0000
0001
0100
0001
0100
0010
1000
,
0010
0000
1000
0000
0010
0000
0100
0000
0010
0000
0100
0000
0010
1000
0010
0100
,
0001
0100
0001
0010
0000
0000
0000
0000
0000
0000
0000
0000
1001
0000
1000
0100
,
0000
0001
0100
0000
0001
0100
0001
0100
0010
1000
0010
1000
0010
0100
0010
0000
,
0100
0000
0010
0100
0010
0000
0010
0000
0100
0000
0100
0000
0010
1000
0001
1000
,
0000
0001
0100
0000
1000
0100
1000
0100
0010
0100
0010
0100
1000
0100
0010
0001
,
0010
0000
0002
0203
0020
0330
0010
0000
,
0100
0000
0010
0000
0010
1000
0001
0000
,
0001
0000
0001
0000
0001
0100
0010
0000
,
0100
0000
0100
0000
0010
0100
0110
0000
,
0110
1001
1001
0101
,
0001
0000
0001
0100
0010
0000
0100
0000
,
0110
0000
0010
1000
0010
0000
1000
0100
,
1000
0000
0010
0001
0010
0000
0101
0000
,
0010
0110
0010
0110
,
0000
1100
0000
0000
0011
0000
0000
0000
,
0001
0100
0001
0100
0010
1000
1010
0000
,
0000
0110
0000
0000
0011
0000
0000
0000
,
0001
1000
0001
0100
0010
0000
0010
0100
,
0010
0100
0000
0010
1000
0010
0000
0001
,
0100
0001
0000
0001
0100
0000
0010
0100
,
1000
0000
0001
0000
0000
0000
1000
0000
1000
0000
0000
0000
0000
0000
1000
0100
,
1000
0100
1000
0000
1000
0100
1000
0000
0100
0000
0000
0000
1000
0001
1000
0001
,
1000
0000
0000
0000
0001
0100
0001
0100
0001
0000
0000
0000
0011
0000
0000
0000
,
1100
1001
1100
2000
,
3002
0000
0103
0010
0100
0000
0010
0000
,
0110
0000
0010
1000
0001
0000
1000
0000
,
1001
0000
0001
0100
0010
0000
0100
0000
,
0110
0000
0010
1000
0010
0000
1000
0000
,
1100
0000
1000
0100
1000
0000
0100
0000
,
1000
0002
0000
0100
,
0100
0000
0103
0010
1000
0010
0100
0010
,
1000
0010
1000
0000
0001
0000
0001
1000
,
1001
0000
0001
0000
0100
0000
0010
0100
,
0110
0000
0010
0000
1010
0000
1000
0100
,
1100
1000
1100
1000
,
0100
0000
0010
0001
0010
0000
0001
0000
,
0100
0000
0001
0100
0001
0000
0010
0000
,
0100
0020
0000
0000
,
0100
0230
0000
0320
,
0000
0000
1030
0010
1000
0010
0100
0010
,
0100
0010
1000
0010
1000
0010
0100
0010
,
1000
0010
0100
0010
1000
0010
0100
0010
,
1000
0010
0100
0010
1000
0010
0100
0010
,
1000
0010
1000
0001
1000
0001
1000
0001
,
1000
0001
0100
0001
0100
0001
0100
0001
,
0100
0010
0011
0000
0001
0100
0101
0000
,
0010
0100
0110
0000
0010
1000
1010
0000
,
0010
0100
0110
1000
1100
0010
0011
0001
,
0011
0001
0011
0010
0110
0010
1100
1000
,
0010
0011
0202
0000
0000
0000
0000
0000
,
0000
0303
0000
0000
;

//---------------dance-single - ----------------
#NOTES:
     dance-single:
     :
     Challenge:
     10:
     0.781,0.967,0.356,0.328,0.479:
0000
0000
0000
0000
,
0000
0000
0000
0000
,
0000
0000
0000
0000
,
0000
0000
0000
0000
,
0000
0001
1000
0001
1000
0100
0000
0001
0010
0000
0001
0100
0010
0100
0001
1000
,
0001
0000
0100
0010
1000
0000
1000
0000
1000
0000
1000
0000
1000
0001
0000
0001
,
1000
0000
1000
0100
0001
0010
0001
0010
0100
0000
0010
0001
0200
0000
0000
0000
,
0301
0010
0100
0001
0010
0001
0100
0010
1000
0000
0100
0000
0000
0000
0001
0000
0010
0000
0000
0000
0001
0000
0100
0000
0001
0000
0100
0000
0001
0000
0000
0000
,
0010
0000
0100
0000
0010
0100
0000
0010
0000
0000
0010
0000
0000
0010
0000
0000
,
0010
0000
0001
0000
1000
0100
0000
0010
0001
0000
0001
0100
0001
0010
0100
0010
,
0001
0000
1000
0000
1000
0100
0000
1000
0000
0000
0001
0000
0100
0000
0010
0000
,
0000
0010
0000
0000
0010
0100
0010
0000
0100
0000
0010
0000
1000
0100
1000
0000
,
0100
0000
1000
0000
0100
1000
0100
0000
1000
0000
0100
0000
0010
0001
0010
0000
,
0100
0001
0101
0010
0110
1000
1100
0010
,
0110
0000
0010
0000
0010
1000
0001
0100
0001
0010
0001
0010
0100
1000
0100
0010
,
0001
0010
0100
0001
0000
0000
0000
0000
0000
0000
0000
0000
2001
0000
3002
0100
,
0003
0020
0200
0030
0301
0010
0001
0100
0010
1000
0100
1000
0010
0100
0020
0000
,
2030
0000
3200
0000
1300
0100
0010
0100
1000
0100
0010
0100
1000
0001
0200
0020
,
0300
0100
0230
0000
0310
0100
0001
0100
0010
1000
0100
1000
0001
1000
0020
1000
,
2030
0000
0000
0000
3200
0000
0010
0000
0002
0000
0000
0303
1001
0000
1000
0000
,
0001
0100
0001
0100
0010
0100
0001
0100
,
1000
0100
0010
1000
0100
0001
0100
0010
,
0001
0000
0100
0000
0010
0000
1000
0000
0001
0000
0100
0000
0001
0000
0000
0001
,
0100
0000
0000
0100
0010
0000
0000
0010
1000
0000
0000
1000
0100
0000
1000
0000
,
0100
1000
0100
1000
0010
0001
0010
0100
,
0001
0010
0001
1000
0001
0100
0001
0100
,
0010
1000
0010
0100
0010
1000
1010
0000
,
0010
0000
0110
0000
0010
0000
1100
0100
,
1000
1100
0100
0010
0011
0001
0100
0010
,
0100
0001
1000
0010
0100
0010
0110
0010
,
0100
0110
0010
0010
0110
0010
0100
0010
,
1000
0001
0100
1000
0100
0010
0001
0100
,
0001
0200
0000
0010
0010
0320
0000
1000
,
1030
2000
0000
3100
1000
0100
0010
0001
,
0010
0100
0001
0100
0010
1000
0001
0100
,
0001
0000
0100
0000
0000
0000
0001
0000
0002
0000
0000
0000
1003
0100
0010
0001
,
0100
0000
0000
0000
0100
0010
1000
0001
0100
0000
0000
0000
1100
0000
0000
0000
,
0101
0110
1001
2000
,
3100
0010
0001
1000
0100
0010
1000
0100
1000
0000
0000
0000
0100
0000
0000
0000
1000
0000
0000
0000
0100
0000
0000
0000
0010
0000
0000
0000
0001
0000
0000
0000
,
0010
0100
1000
0100
0001
0100
0010
0100
,
0010
0001
1000
0100
0010
0001
1000
0100
,
0010
1000
0100
0010
0100
0010
1000
0001
,
0100
0010
1000
0100
0010
0001
0010
0100
,
0010
0001
0200
0000
0000
0000
1000
0000
,
0001
0000
0301
0001
0001
0100
0100
0010
,
0010
0000
0100
0000
0010
0000
1000
0000
0010
0000
0100
0000
0010
0100
0001
1000
,
0100
0010
0001
0000
0100
0000
0010
0000
1000
0000
0100
0000
1000
0100
0010
0001
,
0010
0100
0010
0000
0001
0000
0100
0000
0010
0000
1000
0000
0001
1000
0001
0100
,
0001
0100
0001
0000
0100
0000
0010
0000
0100
0000
0010
0000
0010
0000
1000
0000
,
0010
0000
0100
0000
0010
0100
0010
0000
0100
0000
0010
0000
1000
0000
0001
0000
,
0100
0001
0100
0000
0010
0100
0010
0000
0100
0000
0010
0000
1000
0000
0001
0000
,
0100
0010
0120
0000
0100
0000
0130
0000
,
0010
1000
2020
0000
3030
0000
0022
0000
,
0033
0000
1002
1000
1000
1000
1000
1000
,
1000
1003
0200
0310
0020
0100
0130
0200
,
0010
0320
0100
0230
0010
0320
0100
0230
,
0010
0310
0001
1000
0100
0010
0012
0100
,
0100
0000
1000
0000
1003
0000
0001
0100
0001
0000
0100
0000
0010
0100
0010
0000
,
0100
0000
0010
0000
1000
0000
0100
1000
0100
0000
0010
0000
0001
0010
0001
0000
,
0010
0100
0101
0010
0110
0010
1010
0100
,
0110
0010
0110
1000
1100
0010
0011
0001
,
0011
0001
0101
0110
1001
1100
0011
0110
,
1100
0000
0011
0000
1000
0100
0010
0100
0010
0001
1000
0100
0010
0001
1000
0010
,
0100
0001
1000
0100
0020
0000
0000
0000
0000
0000
0000
0000
0000
0000
0000
0000
,
0000
0030
0000
0000
;

//---------------dance-single - ----------------
#NOTES:
     dance-single:
     :
     Medium:
     6:
     0.420,0.528,0.310,0.292,0.000:
0000
0000
0000
0000
,
0000
0000
0000
0000
,
0000
0000
0000
0000
,
0000
0000
0000
0000
,
0000
1000
0001
0100
,
0010
2000
3000
0010
,
1000
0001
0100
0020
,
2030
3100
1000
0100
,
1000
0002
0000
0000
0000
0000
0000
0000
,
0003
0000
1000
0000
0001
0000
0100
0001
,
0100
0002
0000
0000
,
0003
1001
0010
1001
,
0100
1001
0010
1010
,
0010
0000
1000
0010
1000
0010
1000
0010
,
1000
0010
1000
0100
0010
0001
0010
0100
,
1000
0001
0000
0000
0000
0000
1000
0000
,
0001
0000
0001
0100
0001
0000
0200
0000
,
0301
0000
0001
1000
0100
0000
2000
0000
,
3020
2000
3030
0020
,
2030
0200
3300
2000
,
0100
0000
0100
0000
3100
1000
0200
0000
,
1000
0000
1000
0000
1300
0010
0200
0000
,
0001
0001
0301
1001
,
0010
1001
0100
0002
,
1000
0000
1000
0000
1003
0001
2000
0000
,
0100
0000
0100
0000
3100
1000
0020
0000
,
0000
0000
0000
1030
,
0010
0110
0010
1010
,
0000
0101
0000
0000
1100
0000
0000
0000
,
0010
0001
0100
0010
1000
0000
1010
0000
,
0000
0101
0000
0000
1001
0000
0000
0000
,
0001
1000
0010
1000
0100
0000
1000
0000
,
0000
0001
0000
1000
0000
0001
0000
0001
,
0000
0001
0000
0001
0100
0000
0001
0000
,
0100
0000
0000
0010
0100
0000
0000
0010
,
0100
0010
0000
0010
1000
0000
0010
0000
,
1010
0001
0101
0101
,
1100
1010
1001
2000
,
3002
0203
0001
0001
,
0301
1000
0200
0000
1000
0000
1000
0000
,
1300
0010
0200
0000
0001
0000
0001
0300
,
0001
1000
0001
0000
1000
0001
0000
0001
,
0100
0001
0100
0010
,
1000
0020
1000
1000
,
1000
0000
1030
0001
1000
0001
1000
0001
,
1000
0001
1000
0000
0001
0000
0202
0000
,
0303
0001
1000
2020
,
3030
0010
0100
2002
,
3003
0001
0100
1000
,
0010
1000
0100
0010
,
1000
0100
0010
0001
,
0010
0200
0000
0000
,
0001
0001
0000
0001
,
0300
0000
0001
1000
0001
0000
1000
0100
,
1000
0000
0010
0001
0010
0000
0001
0100
,
0001
0000
0100
0010
0100
0000
0010
1000
,
0010
0000
1000
0100
1000
0000
0010
0001
,
0010
0000
0100
0001
0100
0000
0100
0010
,
0100
0000
0010
1000
0010
0000
0001
1000
,
0001
1001
0110
1010
,
0101
0110
1001
1100
,
0011
0110
0101
1010
,
0101
0000
0001
0100
0010
1000
0100
0010
,
0001
0100
0020
0000
0000
0000
0000
0000
,
0000
0030
0000
0000
;

//---------------dance-single - ----------------
#NOTES:
     dance-single:
     :
     Easy:
     4:
     0.312,0.528,0.228,0.319,0.000:
0000
0000
0000
0000
,
0000
0000
0000
0000
,
0000
0000
0000
0000
,
0000
0000
0000
0000
,
0000
0001
1000
0001
,
0100
0010
0000
0010
,
0100
0010
1000
0002
,
2003
3100
1000
0100
,
1000
0100
2000
0000
0000
0000
0000
0000
,
3000
0010
0001
0100
,
0010
0100
0020
0000
0000
0000
0000
0000
,
0030
0110
0010
0110
,
0010
1001
0010
1010
,
0010
1000
0001
0100
,
0010
0000
0010
0100
0010
0100
0010
1000
,
0001
1000
0000
0000
0000
0000
1000
0000
,
0001
0100
0000
0001
,
0100
0000
0010
0100
0010
1000
0001
0000
,
1000
0200
0300
1000
,
0001
0202
0303
0001
,
1000
0001
0100
0020
,
0000
0000
0130
0020
,
0000
0000
0130
0020
,
1030
0020
0130
2002
,
0000
3003
0002
0200
,
0000
0303
0002
2000
,
0000
0000
3003
0010
,
0000
0110
0000
0010
,
0000
0010
0000
0000
0010
0000
0000
0000
,
0100
0010
1000
0001
,
0000
0001
0000
0000
0001
0000
0000
0000
,
0001
1000
0001
0100
,
0000
0010
0000
0100
,
0000
0010
0000
1000
,
0001
0100
0010
1000
,
0100
0000
1000
0000
0100
0000
1000
0100
,
1000
0000
0010
0001
0010
0000
0011
0000
,
1100
0110
1001
0000
,
0000
0020
0100
0100
,
0130
0000
0020
0000
0000
0100
0000
0000
,
0200
0000
0000
0330
,
0001
0000
2000
0000
0000
0100
0000
0000
,
0200
0000
0000
0000
,
3300
0011
0000
0001
,
0100
0020
0000
2000
,
3030
0000
0020
0000
0000
0030
0000
0000
,
0000
0200
0000
0300
,
0010
0020
0000
0030
,
1000
2000
0000
3000
,
0001
2000
0000
0000
,
0001
0002
0000
0000
,
3003
0002
0000
0000
,
0100
0103
0000
0010
,
0000
0220
0000
0000
,
0000
0000
0000
0000
,
0330
0010
0100
0010
,
1000
0001
1000
0001
,
0100
0010
1000
0100
,
1000
0100
0010
0001
,
0010
0011
1100
0011
,
1100
0101
1010
0101
,
1010
0110
1001
0110
,
1001
0000
0001
1000
0001
1000
0001
1000
,
0001
2000
0002
0000
0000
0000
0000
0000
,
0000
3003
0000
0000
;

//---------------dance-single - ----------------
#NOTES:
     dance-single:
     :
     Beginner:
     1:
     0.082,0.144,0.046,0.000,0.000: // measure 1
0000
0000
0000
0000
,  // measure 2
0000
0000
0000
0000
,  // measure 3
0000
0000
0000
0000
,  // measure 4
0000
0000
0000
0000
,  // measure 5
0000
0010
0000
0000
,  // measure 6
0000
0000
0000
0100
,  // measure 7
0000
0000
0000
0000
,  // measure 8
0000
0110
0000
0000
,  // measure 9
0000
0000
0000
0000
,  // measure 10
0000
1001
0000
0000
,  // measure 11
0000
0000
0000
0000
,  // measure 12
0000
0010
0000
0000
,  // measure 13
0000
0000
0000
0000
,  // measure 14
0000
0100
0000
0000
,  // measure 15
0000
0010
0000
0010
,  // measure 16
0000
0000
0000
1001
,  // measure 17
0000
0001
0000
0000
,  // measure 18
0000
0000
0000
1000
,  // measure 19
0000
1000
0000
1000
,  // measure 20
0000
1001
0000
0010
,  // measure 21
0000
0000
0000
0010
,  // measure 22
0000
0000
0000
1000
,  // measure 23
0000
0000
0000
0001
,  // measure 24
0000
0000
0000
1000
,  // measure 25
0000
0000
0000
0010
,  // measure 26
0000
0000
0000
0100
,  // measure 27
0000
0000
0000
0010
,  // measure 28
0000
0010
0000
0010
,  // measure 29
0000
0000
0000
0000
,  // measure 30
0000
0000
0000
0001
,  // measure 31
0000
0000
0000
0000
,  // measure 32
0000
0000
0000
1000
,  // measure 33
0000
0000
0000
0000
,  // measure 34
0000
0000
0000
0010
,  // measure 35
0000
0000
0000
0000
,  // measure 36
0000
0000
0000
0100
,  // measure 37
0000
0100
0000
0100
,  // measure 38
0000
0000
0000
0000
,  // measure 39
0000
0001
0000
0000
,  // measure 40
0000
1000
0000
0000
,  // measure 41
0000
0000
0000
0000
,  // measure 42
0000
0010
0000
0000
,  // measure 43
0000
0000
0000
0000
,  // measure 44
0000
0100
0000
0000
,  // measure 45
0000
0010
0000
0000
,  // measure 46
0000
0010
0000
0000
,  // measure 47
0000
1000
0000
0000
,  // measure 48
0001
0001
0000
0000
,  // measure 49
1000
1000
0000
0000
,  // measure 50
0010
0010
0000
0000
,  // measure 51
0000
0100
0000
0000
,  // measure 52
0000
0010
0000
0000
,  // measure 53
0000
0100
0000
0100
,  // measure 54
0000
0100
0000
0000
,  // measure 55
0000
0010
0000
0000
,  // measure 56
0000
1000
0000
0000
,  // measure 57
0000
0001
0000
0000
,  // measure 58
0000
1000
0000
0000
,  // measure 59
0000
0001
0000
0000
,  // measure 60
0000
0100
0000
0000
,  // measure 61
0000
0010
0000
0000
,  // measure 62
0000
1000
0000
0000
,  // measure 63
0000
0001
0000
0000
,  // measure 64
0000
0110
0000
0000
;
