#TITLE:Space Fight;
#SUBTITLE:;
#ARTIST:Akira Yamaoka;
#TITLETRANSLIT:;
#SUBTITLETRANSLIT:;
#ARTISTTRANSLIT:;
#CREDIT:;
#BANNER:bn.PNG;
#BACKGROUND:bg.PNG;
#LYRICSPATH:;
#CDTITLE:;
#MUSIC:Space Fight.mp3;
#OFFSET:-6.920;
#SAMPLESTART:48.365;
#SAMPLELENGTH:13.280;
#SELECTABLE:YES;
#BPMS:0.000=139.000;
#STOPS:156.000=1.295
;
#BGCHANGES:;

//---------------dance-single - ----------------
#NOTES:
     dance-single:
     :
     Hard:
     7:
     0.457,0.429,0.410,0.337,0.011:
0010
1000
0100
0020
0000
0130
0000
1000
,
0100
0010
0002
0000
0103
0010
1000
0200
,
0000
0020
0000
0000
0330
0100
1000
0020
,
0000
0000
0000
0230
0000
0000
0302
0000
,
1003
0001
1000
0001
1000
0001
1000
0001
,
0100
0001
0100
1000
0100
0001
0100
0010
,
0001
0010
0001
0010
0100
1000
0001
0100
,
0010
1000
0010
0100
0010
1000
0002
0000
,
0103
0000
1000
0200
0000
0000
0300
0000
,
0000
0000
0010
0002
0000
0000
0003
0000
,
0000
0000
0100
2000
0000
0000
3000
0000
,
0000
0000
0010
2000
0000
0000
0000
3000
,
0000
0000
0001
0202
0000
0000
0303
0000
,
0000
0000
0010
2002
0000
0000
3003
0000
,
0000
0000
1000
2200
0000
0000
3300
0000
,
0000
0000
0010
0022
0000
0000
0000
0033
,
1000
0001
0100
0010
,
0100
0020
0000
0030
0000
0020
0000
0030
,
1000
0001
0100
1001
,
0000
0000
0110
0000
0000
1010
0000
0001
,
0100
1000
0001
0100
1000
0100
0001
0100
,
1000
0100
0001
0100
1000
0100
0001
0010
,
1000
0010
0001
0010
1000
0010
0001
0010
,
0000
0000
1000
0000
0000
0100
0000
0000
0010
0000
0000
0001
0000
0000
0100
0000
,
2100
3010
0102
0013
,
0120
1030
0201
0310
,
1000
0100
0001
0000
0001
0100
0010
0000
,
1000
0001
0010
0100
1000
0100
0010
0001
,
0012
0103
2010
3100
,
2100
3010
0102
0013
,
0100
1000
0001
0000
0010
0100
0001
0000
,
0001
1000
0010
0100
0001
0100
0010
0001
,
0010
0000
0001
0100
0000
1001
0000
0110
,
0000
0010
1000
0000
0100
1000
0100
0000
,
0000
0010
0000
0100
0000
1000
0100
0000
,
0010
0000
0101
0000
0010
0000
0100
1000
,
0000
0100
0000
1000
0000
0100
0010
0000
,
1001
0000
0110
0000
1000
0100
0010
0000
,
0101
0000
1010
0000
0010
0100
0001
0000
,
1100
0101
0011
1100
,
1010
0110
1010
0101
,
1100
0000
0010
0001
0010
0000
0100
1000
,
0100
0000
0010
0100
0001
0100
0001
0010
,
0100
1000
1001
0000
0011
0000
1010
0000
,
1100
0101
0011
0110
,
1010
0000
1000
0100
0010
0000
0001
0100
,
0010
0000
1000
0001
0010
0100
1000
0100
,
0010
0002
2000
0000
0000
0000
0000
0000
,
3003
0000
0000
0000
;

//---------------dance-single - ----------------
#NOTES:
     dance-single:
     :
     Medium:
     5:
     0.329,0.379,0.168,0.084,0.000:
1000
0000
0001
0000
1000
0000
0001
1000
,
0002
0003
1000
0001
,
0100
0010
0100
0010
,
2000
0000
0000
0010
0000
0000
3010
0000
,
0010
1000
0010
0000
0010
0000
1010
0000
,
0010
1000
0100
0000
1000
0000
1100
0000
,
1000
0001
0100
0000
0001
0000
0101
0000
,
0001
0000
0000
1000
0000
0000
0100
0000
,
0000
0000
1000
0001
0000
0000
0000
0000
,
0000
0000
0001
0100
0000
0000
0000
0000
,
0000
0000
0100
0010
0000
0000
0000
0000
,
0000
0000
0010
1000
0000
0000
0000
0000
,
0000
1000
0001
1000
,
0001
0100
0010
0010
,
0100
0010
1000
0001
,
2002
0000
3003
0000
,
1000
1100
0100
1100
,
1000
1100
0010
0011
,
0001
0101
0100
0101
,
0100
0000
0101
0000
0100
0001
0000
0100
,
0001
1000
0001
1000
0001
1000
0001
1000
,
0001
0001
1000
1000
,
1000
0001
0100
0000
0100
0000
0100
0010
,
0100
0000
0000
0000
,
0010
1000
0010
1000
,
0001
0100
0001
0100
,
0010
1000
0010
0000
0001
0100
0001
0000
,
0010
1000
0010
1000
0001
0100
0001
0100
,
0001
0001
1000
1000
,
0001
1000
0001
1000
,
0001
1000
0001
0000
0100
0010
0100
0000
,
0220
0000
0330
0000
,
0010
0000
0010
1000
0000
0001
0000
1000
,
0000
0001
0000
1000
0001
0000
1000
0000
,
0001
0100
0000
0001
0000
0100
0000
0010
,
0100
0000
0010
0000
1000
0000
0010
1000
,
0000
0001
0000
1000
0001
0000
1000
0000
,
0001
0100
0010
1000
,
0100
0000
1000
0000
0001
1000
0001
0100
,
0010
0001
0110
1000
,
0110
1000
1001
0001
,
0101
0001
1000
0001
,
0100
0010
1000
1000
,
1000
0010
1000
0010
,
1000
0001
0100
0001
,
0100
0000
0001
1000
0001
0000
1000
0100
,
1000
2000
0001
0010
,
0100
0020
0000
0000
,
3030
0000
0000
0000
;

//---------------dance-single - ----------------
#NOTES:
     dance-single:
     :
     Easy:
     3:
     0.259,0.404,0.232,0.274,0.000:
1000
0001
0000
0000
,
0200
0000
0310
2000
,
0000
3000
0000
0000
,
0001
0000
1000
0000
,
0100
1000
0100
0020
,
0032
0000
1003
0100
,
0020
0000
0030
0000
,
0002
0000
2003
0000
,
3000
0000
0000
0000
,
0000
1000
0000
0000
,
0000
0001
0000
0000
,
0000
0010
0000
0000
,
0000
0100
0000
0100
,
0000
1000
0000
0000
,
0000
0001
0000
0000
,
0020
0000
0000
0030
,
1000
0001
0100
0010
,
0000
0000
0000
0000
,
1000
1100
0000
0000
,
0000
0000
0000
0000
,
0001
0010
1000
0010
,
0001
0000
0000
0000
,
1000
0100
0001
0100
,
2000
0000
0000
3000
,
0010
0010
0100
0100
,
1000
1000
0001
0001
,
1000
1100
0010
0011
,
1001
1001
1001
1001
,
0010
0100
1000
0100
,
0001
0010
0100
1000
,
0010
1010
0001
0101
,
1100
0101
0011
1010
,
1001
0000
0000
0010
,
0010
0000
0100
0000
,
0100
0000
1000
0000
,
1000
0000
1000
0000
,
0001
0001
0100
0000
,
0100
0000
1000
1000
,
1000
0000
0010
0001
,
1000
0200
1300
0020
,
0031
0200
0310
2000
,
3100
2100
3100
0012
,
0013
0120
1000
0100
,
0031
2000
3100
0020
,
0031
0200
0310
2000
,
3001
0120
0130
0210
,
0310
1002
0103
2010
,
3100
2002
0000
0000
,
3003
0000
0000
0000
;

//---------------dance-single - ----------------
#NOTES:
     dance-single:
     :
     Beginner:
     1:
     0.072,0.099,0.032,0.000,0.000: // measure 1
0010
0000
0000
0000
,  // measure 2
0010
0000
0000
0000
,  // measure 3
0000
0000
0000
0000
,  // measure 4
0000
0000
0000
0000
,  // measure 5
0001
0000
0000
0000
,  // measure 6
0001
0000
0000
0000
,  // measure 7
1000
0000
0000
0000
,  // measure 8
1000
0000
0000
0000
,  // measure 9
0000
0010
0000
0000
,  // measure 10
0000
0010
0000
0000
,  // measure 11
0000
0010
0000
0000
,  // measure 12
0000
0010
0000
0000
,  // measure 13
0000
1000
0000
0000
,  // measure 14
0000
0001
0000
0000
,  // measure 15
0000
0100
0000
0000
,  // measure 16
0110
0000
0000
0000
,  // measure 17
0000
0000
0000
0010
,  // measure 18
0000
0000
0000
0000
,  // measure 19
0000
0010
0000
0010
,  // measure 20
0000
0010
0000
0000
,  // measure 21
0001
0000
0000
0000
,  // measure 22
0000
0000
0000
0000
,  // measure 23
1000
0000
0000
0000
,  // measure 24
0000
0000
0000
0000
,  // measure 25
0010
0000
0000
0000
,  // measure 26
0010
0000
0000
0000
,  // measure 27
1000
0000
0000
0000
,  // measure 28
1000
0000
0000
0000
,  // measure 29
0001
0000
0000
0000
,  // measure 30
0001
0000
0000
0000
,  // measure 31
0001
0000
0000
0000
,  // measure 32
1001
0000
0000
0000
,  // measure 33
0010
0000
0000
0000
,  // measure 34
0000
0000
0000
0000
,  // measure 35
0100
0000
0000
0000
,  // measure 36
0100
0000
0000
0000
,  // measure 37
0010
0000
0000
0000
,  // measure 38
0000
0000
0000
0000
,  // measure 39
0010
0000
0010
0000
,  // measure 40
0000
0001
0000
0000
,  // measure 41
0000
0001
0000
0000
,  // measure 42
0000
1000
0000
1000
,  // measure 43
0000
1000
0000
0000
,  // measure 44
0000
0010
0000
0000
,  // measure 45
0000
0010
0000
0000
,  // measure 46
0000
0100
0000
0100
,  // measure 47
0000
0100
0000
0000
,  // measure 48
0000
1001
0000
0000
;
