#TITLE:Soumatou;
#SUBTITLE:-The Last Song-;
#ARTIST:TAKA;
#TITLETRANSLIT:;
#SUBTITLETRANSLIT:;
#ARTISTTRANSLIT:;
#CREDIT:;
#BANNER:bn.PNG;
#BACKGROUND:bg.PNG;
#LYRICSPATH:;
#CDTITLE:15 trooper.png;
#MUSIC:Soumatou -The Last Song-.mp3;
#OFFSET:-0.100;
#SAMPLESTART:11.360;
#SAMPLELENGTH:12.000;
#SELECTABLE:YES;
#BPMS:0.000=85.000,46.500=83.000,47.000=80.000,48.000=85.000,167.500=81.000,168.500=71.000,169.500=73.000,170.500=76.000,171.500=71.000;
#STOPS:;
#BGCHANGES:;

//---------------dance-single - ----------------
#NOTES:
     dance-single:
     :
     Hard:
     6:
     0.288,0.343,0.132,0.164,0.121:
0000
0000
0000
0000
,
0000
0000
0000
0000
,
0000
0000
0000
0000
,
0000
0000
0000
0000
,
0001
0000
1000
0001
1000
0000
0001
0000
0200
0000
0000
0000
0301
0000
0000
0000
,
0001
0010
0100
1000
0100
1000
0100
0000
,
1000
0100
0010
0001
1000
0001
0100
0010
,
1000
0001
0100
1000
0200
0000
1300
0000
,
0002
0000
0000
2003
,
0200
0000
0000
3300
,
0010
0000
0000
0000
0000
0000
0000
0000
0000
0000
0001
0000
0010
0000
0100
1000
,
0100
1000
0100
0010
0001
0010
1000
0100
,
1000
0000
0000
0000
0000
0000
0100
1000
0100
0000
0000
0000
1000
0000
0100
0010
,
0001
0000
0000
0010
0000
0000
1000
0000
0000
0010
0000
0000
1000
0000
0000
0001
0000
0000
0100
0001
0100
0001
0100
0001
,
0100
0000
0000
0000
0000
0000
0000
0000
0000
0000
0010
0000
0100
0000
0000
1000
,
0100
0000
0010
0001
0010
0100
0100
1000
,
0001
0000
0000
0000
0000
0000
0001
1000
0001
0000
0000
0000
1000
0000
0100
1000
,
0100
0010
0001
0010
1000
0010
1000
0000
,
1001
0001
1000
1100
0000
0000
0000
0000
,
1100
0100
0010
0011
0000
0000
0000
0000
,
0101
0010
1000
1001
0000
0000
0000
0000
,
1100
0000
0100
0000
0010
0000
1001
0000
0000
0000
0000
0000
0010
0001
0000
0000
,
0101
0010
1000
1001
0000
0000
0000
0100
,
1100
1000
0100
0011
0000
0000
0000
0001
,
0101
1000
0001
0110
0000
0000
0000
0010
,
0110
0000
1000
0000
0100
0000
0011
0000
0000
0000
0000
0000
1000
0100
0010
0001
,
0020
0000
0000
0031
0000
0000
0100
0000
1000
0000
0000
0000
0001
0010
0100
1000
,
0200
0000
0000
1300
0000
0000
1000
0000
0100
0000
0010
0000
0001
0000
0020
0000
,
0000
0000
0000
0030
0001
0000
0010
0000
0000
0000
0002
0000
0000
0000
0200
0000
,
0000
0000
0000
0000
0000
0000
0000
0303
,
0000
1000
0000
0100
1000
0000
0000
0100
,
0000
0000
0001
0001
0000
0000
1000
1000
0000
0000
0100
0100
0000
0000
0010
0000
,
0000
0001
0000
1000
0100
0000
0000
0010
,
0000
0000
0001
0001
0000
0000
1000
1000
0000
0000
0100
0000
0000
0000
0010
0000
,
0000
0000
0000
0100
0000
0000
0000
0000
0000
1000
0000
0000
0100
0000
0000
0000
0000
0000
1000
0000
0000
0001
0010
0100
,
1000
0001
0010
0100
0000
0000
0000
0000
0000
1000
0000
0000
0000
0000
0000
0001
0000
0000
0000
0000
0000
0100
0000
0000
,
0010
0000
0000
1000
0100
0000
0010
0000
,
0001
0200
0000
0320
0000
2030
0000
0002
,
3003
0000
1001
0000
0001
1000
0001
0000
0010
0000
0200
0000
0000
0000
0310
0000
,
1000
0200
0000
1300
0000
0010
0000
0001
,
0010
0100
1000
0001
0100
0020
0000
1030
,
0000
1000
0100
0010
0001
2000
0000
3001
,
0000
0000
2000
0000
0000
0000
0000
0000
0000
0000
0000
0000
3000
0200
0000
0000
,
0000
0020
0000
0000
0000
0000
0000
0000
0000
0000
0000
0000
0000
0000
0330
0000
,
0000
0000
0000
0001
0000
0000
0000
0000
0000
0000
0000
0000
0000
0000
0000
0000
0000
0000
0000
0000
0000
0000
0000
0000
0000
0000
0000
0000
0000
0000
0000
0000
;

//---------------dance-single - ----------------
#NOTES:
     dance-single:
     :
     Medium:
     3:
     0.196,0.240,0.125,0.156,0.008:
0000
0000
0000
0000
,
0000
0000
0000
0000
,
0000
0000
0000
0000
,
0000
0000
0000
0000
,
1000
0001
1000
0001
2000
0000
3100
0000
,
0010
0001
0100
1000
,
0001
0100
0001
0000
0100
0000
0010
0000
,
1000
0001
0100
0010
,
2000
0000
0000
0010
,
0002
0000
0000
3003
,
0001
0000
0000
0000
0000
0010
0100
1000
,
0001
1000
0001
0100
0001
0100
1000
0001
,
1000
0000
0000
0001
0001
0000
1000
0000
,
0200
0000
0300
0002
,
1003
0000
0000
0000
0000
0010
1000
0000
,
1000
0000
0000
0000
0000
0001
0100
0001
,
1000
0000
0000
0001
0001
0000
0010
0100
,
1000
0001
0100
0010
,
1001
0000
0000
1100
0000
0000
0000
0000
,
0011
0000
0000
0101
0000
0000
0000
0000
,
1001
0000
0000
0110
0000
0000
0000
0000
,
1100
0000
0000
0011
0000
0000
1000
0000
,
1001
0000
0000
0101
0000
0000
0000
0000
,
0011
0000
0000
1100
0000
0000
0000
0000
,
1001
0000
0000
0011
0000
0000
0000
0000
,
1010
0000
0000
1001
0000
0000
1000
0100
,
2000
0000
0000
0000
3000
0000
0001
0100
,
0002
0000
1003
0001
,
0200
0000
0320
2030
,
0002
0000
3003
0000
,
0000
1000
0000
0000
0000
0000
0000
0001
,
0000
0100
0000
0100
0000
0100
0000
0100
,
0000
1000
0000
0020
0000
0000
0000
1030
,
0000
0001
0000
0001
0000
1000
0000
0100
,
0000
0010
0000
0001
0000
1000
0000
1000
,
0100
0010
0000
0001
0000
1000
0000
0001
,
0000
0100
0000
0010
1000
0000
0100
0000
,
0010
0000
0000
0002
0000
1000
0000
0103
,
0000
1000
0100
1000
0100
2000
0000
3010
,
0000
0001
0000
0200
0000
0301
0000
0001
,
0000
0001
0010
0100
1000
0200
0000
1300
,
0000
0001
1000
0100
0010
2000
0000
3001
,
0000
0000
2000
0000
0000
0000
0000
0000
0000
0000
0000
0000
0000
0002
3000
0000
,
0000
0200
0000
0000
0000
0000
0000
0000
0000
0000
0000
0000
0000
0000
0000
0000
,
0000
0000
0000
0303
0000
0000
0000
0000
0000
0000
0000
0000
0000
0000
0000
0000
0000
0000
0000
0000
0000
0000
0000
0000
0000
0000
0000
0000
0000
0000
0000
0000
;

//---------------dance-single - ----------------
#NOTES:
     dance-single:
     :
     Easy:
     2:
     0.108,0.155,0.070,0.109,0.004:
0000
0000
0000
0000
,
0000
0000
0000
0000
,
0000
0000
0000
0000
,
0000
0000
0000
0000
,
1000
0001
0200
0300
,
0001
1000
0200
0300
,
1000
0000
0000
0000
,
0001
0100
0010
1000
,
0002
0000
0000
0000
,
0200
0000
0000
0303
,
0010
0000
0000
0000
,
1000
0001
0100
0010
,
1000
0000
0001
0000
,
0100
0000
0000
0020
,
1030
0000
0000
0001
,
0100
0000
0000
0010
,
1000
0000
0000
0001
,
0001
0000
0000
0000
,
1010
0000
0000
0000
,
0101
0000
0000
0000
,
1100
0000
0000
0000
,
0011
0000
0000
0000
,
0110
0000
0000
0000
,
1001
0000
0000
0000
,
0011
0000
0000
0000
,
1010
0000
0000
0001
,
0002
0000
0003
1000
,
2000
0000
3100
0010
,
0002
0000
0000
0000
,
0003
0000
0000
0000
,
0000
1000
0000
0000
0000
0000
0000
0000
,
0000
0001
0000
0001
0000
0001
0000
0001
,
0000
1000
0000
0000
0000
0000
0000
0000
,
0000
0010
0000
0010
0000
0010
0000
0010
,
0000
0100
0000
0000
0000
0000
0000
2000
,
0000
3100
0000
0010
0000
0001
0000
0000
,
0000
1000
0000
0000
0000
0000
0000
0000
,
0000
0000
0000
0000
,
0000
1001
0000
0001
0000
2000
0000
0000
,
0000
3100
0000
0100
0000
0010
0000
0000
,
0000
0001
0000
1000
0000
0100
0000
0010
,
0000
0002
0000
0000
0000
2003
0000
0000
,
0000
3002
0000
0000
0000
0000
0000
0000
,
0000
0200
0000
0000
0000
0000
0000
0000
0000
0000
0000
0000
0000
0000
0000
0000
,
0000
0000
0000
0000
0000
0000
0000
0000
0000
0000
0000
0000
0000
0000
0000
0000
0000
0000
0300
0003
0000
0000
0000
0000
0000
0000
0000
0000
0000
0000
0000
0000
0000
0000
0000
0000
0000
0000
0000
0000
0000
0000
0000
0000
0000
0000
0000
0000
0000
0000
0000
0000
0000
0000
0000
0000
0000
0000
0000
0000
0000
0000
0000
0000
0000
0000
0000
0000
0000
0000
0000
0000
0000
0000
0000
0000
0000
0000
0000
0000
0000
0000
0000
0000
0000
0000
0000
0000
0000
0000
0000
0000
0000
0000
0000
0000
0000
0000
0000
0000
0000
0000
0000
0000
0000
0000
0000
0000
0000
0000
0000
0000
0000
0000
0000
0000
0000
0000
0000
0000
0000
0000
0000
0000
0000
0000
0000
0000
0000
0000
0000
0000
0000
0000
0000
0000
0000
0000
0000
0000
0000
0000
0000
0000
0000
0000
0000
0000
0000
0000
0000
0000
0000
0000
0000
0000
0000
0000
0000
0000
0000
0000
0000
0000
0000
0000
0000
0000
0000
0000
0000
0000
0000
0000
0000
0000
0000
0000
0000
0000
0000
0000
0000
0000
0000
0000
0000
0000
0000
0000
0000
0000
;

//---------------dance-single - ----------------
#NOTES:
     dance-single:
     :
     Beginner:
     1:
     0.034,0.050,0.000,0.000,0.004: // measure 1
0000
0000
0000
0000
,  // measure 2
0000
0000
0000
0000
,  // measure 3
0000
0000
0000
0000
,  // measure 4
0000
0000
0000
0000
,  // measure 5
0001
0000
0000
0000
,  // measure 6
0000
0000
0000
0000
,  // measure 7
1000
0000
0000
0000
,  // measure 8
0000
0000
0000
0000
,  // measure 9
0100
0000
0000
0000
,  // measure 10
0000
0000
0000
0000
,  // measure 11
0001
0000
0000
0000
,  // measure 12
1000
0000
0000
0000
,  // measure 13
0001
0000
0000
0000
,  // measure 14
0000
0000
0000
0000
,  // measure 15
1000
0000
0000
0000
,  // measure 16
0001
0000
0000
0000
,  // measure 17
0010
0000
0000
0000
,  // measure 18
0000
0000
0000
0000
,  // measure 19
0100
0000
0000
0000
,  // measure 20
0100
0000
0000
0000
,  // measure 21
1000
0000
0000
0000
,  // measure 22
0001
0000
0000
0000
,  // measure 23
0010
0000
0000
0000
,  // measure 24
0010
0000
0000
0000
,  // measure 25
1000
0000
0000
0000
,  // measure 26
0001
0000
0000
0000
,  // measure 27
0100
0000
0000
0000
,  // measure 28
0010
0000
0000
0000
,  // measure 29
1000
0000
0000
0000
,  // measure 30
0000
0000
0000
0000
,  // measure 31
0000
0001
0000
0000
0000
0000
0000
0000
,  // measure 32
0000
1000
0000
0000
0000
0000
0000
0000
,  // measure 33
0000
1000
0000
0000
0000
0000
0000
0000
,  // measure 34
0000
0100
0000
0000
0000
0000
0000
0000
,  // measure 35
0000
0010
0000
0000
0000
0000
0000
0000
,  // measure 36
0000
0001
0000
0000
0000
0000
0000
0000
,  // measure 37
0000
0000
0000
0000
,  // measure 38
0000
0000
0000
0000
,  // measure 39
0000
0010
0000
0000
0000
0000
0000
0000
,  // measure 40
0000
0000
0000
0000
,  // measure 41
0000
1000
0000
0000
0000
0000
0000
0000
,  // measure 42
0000
0001
0000
0000
0000
0000
0000
0000
,  // measure 43
0000
1000
0000
0000
0000
0000
0000
0000
,  // measure 44
0000
0001
0000
0000
0000
0000
0000
0000
0000
0000
0000
0000
0000
0000
0000
0000
;
