#TITLE:So Deep;
#SUBTITLE:(Original Mix);
#ARTIST:Silvertear;
#TITLETRANSLIT:;
#SUBTITLETRANSLIT:;
#ARTISTTRANSLIT:;
#CREDIT:;
#BANNER:SO DEEP (PERFECT SPHERE REMIX).png;
#BACKGROUND:SO DEEP (PERFECT SPHERE REMIX)-bg.png;
#LYRICSPATH:;
#CDTITLE:Dance Mania.png;
#MUSIC:So Deep (Original Mix).mp3;
#OFFSET:-6.540;
#SAMPLESTART:19.576;
#SAMPLELENGTH:12.000;
#SELECTABLE:YES;
#BPMS:0.000=147.200;
#STOPS:64.000=6.120
,103.000=0.420
;
#BGCHANGES:;

//---------------dance-single - ----------------
#NOTES:
     dance-single:
     :
     Hard:
     9:
     0.537,0.681,0.044,0.240,0.400:
1000
0100
0000
1000
0100
0000
1000
0000
0001
0100
0000
0001
0100
0000
0001
0000
,
0000
1000
0000
0001
0100
0000
0010
0000
0010
1000
0001
0000
1000
0000
0001
0000
,
0100
0010
0000
1000
0100
0000
0010
0000
0001
0100
0000
0010
1000
0000
0001
0000
,
0000
1000
0000
0100
1000
0000
0100
0000
0001
0010
0001
0000
0100
0000
0010
0000
,
1000
0001
0000
0001
0100
0000
0010
0000
0010
0100
0000
0100
0010
0000
1000
0000
,
0000
1000
0000
1000
0100
0000
0010
0000
0001
0100
0001
0000
0010
0000
1000
0000
,
0001
1000
0000
1000
0100
0000
1000
0000
1000
0100
0000
0010
0001
0000
0010
0000
,
0000
0001
0000
0100
0001
0000
0100
0000
0010
1000
0001
0000
1000
0001
0100
0000
,
0001
0000
1000
0001
1000
0000
0001
0000
0100
0000
0010
0100
0010
0000
0100
0000
,
0000
0010
0000
0010
1000
0000
0100
0000
1000
0100
1000
0000
0100
0000
0001
0000
,
0010
0001
0010
0000
0100
0000
1000
0000
0001
1000
0001
0000
0100
0000
0010
0000
,
0000
0100
0000
0010
1000
0000
0100
0000
0010
0001
0010
0000
0001
0100
0001
0000
,
1000
0001
1000
0000
0001
0000
0100
0000
0010
0100
0010
0000
0010
0000
1000
0000
,
0000
1000
0000
1000
0001
0000
0100
0000
0010
1000
0100
0000
1000
0000
0100
0000
,
1000
0100
0000
0010
0001
0000
0011
0000
0001
0010
0000
0100
1000
0000
1001
0000
,
0000
1100
0000
1000
0001
0000
0101
0000
0010
1000
0001
0000
0001
0010
0100
1000
,
0010
2000
0000
0000
,
3002
0000
0203
0000
0302
0000
0000
0103
,
0001
0200
0000
0000
0000
0000
0000
0000
,
0000
0000
0000
0000
0000
0000
0000
0010
,
0310
0200
0000
0000
0000
0000
0000
0000
,
0000
0000
0310
0100
0002
0000
0000
0000
0000
0000
0000
0000
0000
0000
1003
0000
,
0002
0200
0000
0000
0000
0000
0000
0000
,
0000
0000
0000
0000
,
0000
0300
0000
0000
,
0000
0000
0000
0003
,
1002
0100
1000
2003
,
3002
0000
0203
0000
0010
0310
1000
0002
,
0000
1000
0000
1000
0000
1000
0000
1000
,
0000
1000
0000
1000
0000
1003
0001
0200
,
0000
0010
0000
0010
0000
0310
1000
0200
,
0000
1000
0000
1000
0000
1300
0100
2000
,
0000
0100
0000
0100
0000
0100
0000
0100
,
0000
0100
0000
0100
0000
3100
1000
0020
,
0100
0000
0100
0000
0130
0010
1000
0002
,
0000
1000
0000
1000
0000
1003
0001
0200
,
0000
0020
0000
0000
0000
0000
0000
0000
,
0000
0000
0000
0000
0330
0010
1000
0002
,
0000
0000
0000
0000
0000
1003
0001
0200
,
0000
0000
0000
0000
0310
0000
2000
0200
,
0000
0000
0000
0000
,
3300
0000
0000
0000
0000
0000
0001
0100
,
0010
0000
0100
0010
0000
0100
0010
0000
0100
0010
0100
0000
0010
0000
1000
0000
,
0100
0000
1000
0100
0000
1000
0100
0000
1000
0100
1000
0000
0010
0000
0001
0000
,
0100
0000
0001
0100
0000
0001
0100
0000
0001
0100
0001
0000
0001
0000
0010
0000
,
0001
0000
0001
0010
0000
0001
0010
0000
0001
0010
0001
0000
0001
0000
0100
0000
,
0010
0000
1000
0100
0000
0010
0100
0000
0010
1000
0100
0000
1000
0000
0001
0000
,
0100
0000
0010
1000
0000
1000
0100
0000
0001
0100
0010
0000
0100
0000
0010
0000
,
1000
0000
1000
0001
0000
0001
0100
0000
0100
0010
1000
0000
0001
0000
1000
0000
,
0100
0000
0010
0001
0000
0010
0001
0000
0100
1000
0100
0000
1000
0000
0001
0000
,
1000
0000
0100
0000
1000
0000
0100
0000
0010
0000
0001
0000
0010
0001
0010
0000
,
0100
0000
0001
0000
0100
0000
0010
0000
1000
0000
0010
0000
0100
0010
0100
0000
,
0010
0000
1000
0000
0100
0000
0010
0000
0001
0000
0100
0000
0001
0100
0001
0000
,
0100
0000
0001
0000
0100
0000
0010
0000
1000
0000
0001
0000
0001
1000
0001
0000
,
1000
0000
0001
0000
0100
0000
0010
0000
1000
0000
0100
0000
1000
0100
1000
0000
,
0010
0000
0100
0000
0010
0000
0001
0000
0100
0000
0010
0000
0100
0010
0100
0000
,
0010
1000
0100
0010
0001
0010
0100
0010
,
0001
0000
0001
0100
0000
0100
0010
0000
0010
1000
0010
0000
0100
0000
0001
0000
,
1000
0100
0000
0010
0002
0000
0200
0000
0000
0000
0000
0000
0000
0000
0000
0000
,
0303
0000
0000
0000
;

//---------------dance-single - ----------------
#NOTES:
     dance-single:
     :
     Medium:
     5:
     0.336,0.419,0.222,0.213,0.000:
1000
0001
0100
0000
0010
1000
0001
0000
,
1000
0000
0001
0000
0001
1000
0001
0000
,
1000
0100
1000
0000
0010
0001
0010
0000
,
0001
0000
0100
0000
0010
1000
0001
0000
,
1000
0001
1000
0000
0100
1000
0100
0000
,
1000
0000
0100
0000
0010
0001
0100
0000
,
0010
0100
0010
0000
0001
1000
0001
0000
,
1000
0000
0001
0000
0001
0100
0010
0000
,
0110
0000
0010
0000
0110
0000
0010
0100
,
0000
0010
0000
0100
0000
0010
0000
0100
,
0010
0000
1000
0000
0100
0000
1000
0100
,
0000
1000
0000
0100
0000
0010
0000
0001
,
0100
0000
0010
0000
0100
0000
0010
1000
,
0000
0001
0000
1000
0000
0001
0000
1000
,
0100
0000
1100
0000
1000
0000
0100
1000
,
0000
1000
0100
0010
0001
0100
0010
1000
,
1001
0002
0000
0000
,
0100
0000
0100
0000
0200
0000
0303
0001
,
0100
0020
0000
0000
0000
0000
0000
0000
,
0000
0000
0030
0000
0000
0000
0000
0100
,
0010
0200
0000
0000
0000
0000
0000
0000
,
0000
0010
0020
0000
0000
0330
0000
0010
,
2000
0002
0000
0000
0000
0000
0000
0000
,
0000
0000
0000
0000
,
0000
3003
0000
0000
,
0000
0000
0000
0000
,
0020
0000
0000
0130
,
0010
0000
0200
0000
0000
0310
1000
0002
,
0000
0000
0000
0000
,
0000
0000
0000
0000
0000
1003
0001
0200
,
0000
0000
0000
0000
0000
0310
1000
0020
,
0000
0000
0000
0000
0000
0130
0002
2000
,
0000
0000
0000
0000
,
0000
0000
0000
0000
3003
0001
1000
0002
,
0000
0000
0000
0000
0000
0103
0001
0200
,
0000
0000
0000
0000
0000
0310
1000
0020
,
0000
0200
0000
0000
0000
0000
0000
0000
,
0000
0000
0330
0000
0000
0010
2000
0002
,
0000
0000
0000
0000
3003
0001
0100
0002
,
0000
0000
0000
0000
0100
0000
0100
0200
,
0000
0000
0000
0000
,
0000
0000
0303
0000
,
0001
0000
1000
0000
0001
0100
0010
0000
,
0100
0000
0110
0000
0010
1000
0100
0000
,
1000
0000
1100
0000
1000
0001
0100
0000
,
0010
0000
0110
0000
0010
1000
0001
0000
,
0100
0000
0101
0000
0001
0100
0010
0000
,
1000
0000
0010
0000
0100
0010
1000
0000
,
0001
0000
1001
0000
0001
1000
0100
0000
,
1000
0000
0001
0000
0001
0100
0010
0000
,
0110
0000
0110
0000
0010
1000
0001
0000
,
0101
0000
0101
0000
0001
0100
0010
0000
,
1010
0000
1010
0000
0010
1000
0100
0000
,
1100
0000
1100
0000
1000
0001
0100
0000
,
0110
0000
0110
0000
0010
1000
0001
0000
,
1001
0000
1001
0000
0001
0100
0010
0000
,
0110
0000
0110
0000
0010
1000
0100
0000
,
1100
0000
0011
0000
0001
0100
0010
0000
,
0002
2000
0000
0000
,
3003
0000
0000
0000
;

//---------------dance-single - ----------------
#NOTES:
     dance-single:
     :
     Easy:
     3:
     0.220,0.262,0.044,0.133,0.000:
1000
0000
0001
0000
,
1000
0001
0100
0000
,
0001
0000
1000
0000
,
0001
1000
0100
0000
,
1000
0000
0001
0000
,
0001
1000
0100
0000
,
0010
0000
0010
0000
,
0010
1000
0100
0000
,
1100
0000
1000
0000
,
1000
0001
0100
0010
,
1000
0000
1000
0000
,
1000
0010
0100
0001
,
0010
0000
0010
0000
,
0010
0001
0100
0010
,
1000
0000
1000
0000
,
1001
0000
1000
0001
,
0101
0001
0000
0000
,
1000
0001
0100
0000
,
0010
0010
0000
0000
,
0000
0000
0000
0000
0000
0000
0000
1000
,
0000
1000
0000
0000
0000
0000
0000
0000
,
0000
0001
0000
0000
,
0000
2000
0000
0000
0000
0000
0000
0000
,
0000
0000
0000
0000
,
0000
0200
0000
0000
,
0000
0000
3300
0000
,
1000
0000
0000
0001
,
1000
0000
0100
0000
0000
1000
0001
0200
,
0000
0000
0000
0000
,
0300
0000
0000
0000
0000
0001
1000
0002
,
0000
0000
0000
0000
0000
1003
0001
2000
,
0000
0000
0000
0000
0000
3001
1000
0002
,
0000
0000
0000
0000
,
0003
0000
0000
0000
0000
0001
1000
0002
,
0000
0000
0000
0000
0003
1000
0001
2000
,
0000
0000
0000
0000
3000
0010
1000
0020
,
0000
2000
0000
0000
0000
0000
0000
0000
,
0000
0000
3030
0000
0000
1000
0001
2000
,
0000
0000
0000
0000
0000
0000
3001
1000
,
0000
0000
0000
0000
0001
0000
0200
0002
,
0000
0000
0000
0000
,
0000
0000
0000
0303
,
0001
0100
0001
0001
,
1000
0001
1000
1000
,
0100
1000
0100
0100
,
1000
0010
1000
1000
,
0010
0100
0010
0010
,
1000
0001
0100
0100
,
0001
1000
0100
0100
,
1000
0010
0100
0001
,
1001
0000
1000
0001
,
0100
0001
0100
0010
,
1000
0100
1000
0100
,
0010
0001
0100
0001
,
0010
1000
0001
0010
,
1000
0001
1000
0001
,
1000
0001
0100
0010
,
1000
0100
0010
0001
,
2002
0000
0000
0000
,
3003
0000
0000
0000
;

//---------------dance-single - ----------------
#NOTES:
     dance-single:
     :
     Beginner:
     1:
     0.070,0.103,0.018,0.000,0.000: // measure 1
0010
0000
0000
0000
,  // measure 2
0010
0000
0000
0000
,  // measure 3
1000
0000
0000
0000
,  // measure 4
1000
0000
0000
0000
,  // measure 5
0001
0000
0000
0000
,  // measure 6
0001
0000
0000
0000
,  // measure 7
0100
0000
0000
0000
,  // measure 8
0100
0000
0000
0000
,  // measure 9
0010
0000
0000
0000
,  // measure 10
0010
0000
0000
0000
,  // measure 11
1000
0000
0000
0000
,  // measure 12
0001
0000
0000
0000
,  // measure 13
0100
0000
0000
0000
,  // measure 14
0010
0000
0000
0000
,  // measure 15
1000
0000
0000
0000
,  // measure 16
0001
0000
0000
0000
,  // measure 17
1001
0001
0000
0000
,  // measure 18
0000
0001
0000
0000
,  // measure 19
0000
0001
0000
0000
,  // measure 20
0000
0000
0000
0000
,  // measure 21
0000
1000
0000
0000
,  // measure 22
0000
1000
0000
0000
,  // measure 23
0000
1000
0000
0000
,  // measure 24
0000
0000
0000
0000
,  // measure 25
0000
0000
0000
0000
,  // measure 26
0000
0000
0000
0000
,  // measure 27
0010
0000
0000
0000
,  // measure 28
0010
0000
0000
0000
,  // measure 29
1000
0000
0000
0000
,  // measure 30
0001
0000
0000
0000
,  // measure 31
1000
0000
0000
0000
,  // measure 32
0001
0000
0000
0000
,  // measure 33
0100
0000
0000
0000
,  // measure 34
0000
0000
0000
0000
,  // measure 35
0010
0000
0000
0000
,  // measure 36
1000
0000
0000
0000
,  // measure 37
0001
0000
0000
0000
,  // measure 38
0000
0000
0000
0000
,  // measure 39
0001
0000
0000
0000
,  // measure 40
1000
0000
0000
0000
,  // measure 41
0010
0000
0000
0000
,  // measure 42
0000
0000
0000
0000
,  // measure 43
0100
0000
0000
0000
,  // measure 44
0010
0000
0000
0000
,  // measure 45
1000
0000
0000
0000
,  // measure 46
0001
0000
0000
0000
,  // measure 47
1000
0000
0000
0000
,  // measure 48
0001
0000
0000
0000
,  // measure 49
0100
0000
0000
0000
,  // measure 50
0010
0000
0000
0000
,  // measure 51
1000
0000
0000
0000
,  // measure 52
0001
0000
0000
0000
,  // measure 53
0100
0000
0000
0000
,  // measure 54
0010
0000
0000
0000
,  // measure 55
1000
0000
0000
0000
,  // measure 56
1000
0000
0000
0000
,  // measure 57
0001
0000
0000
0000
,  // measure 58
1000
0000
0000
0000
,  // measure 59
0110
0000
0000
0000
;
