#TITLE:Snow Goose;
#SUBTITLE:;
#ARTIST:Mutsuhiko Izumi;
#TITLETRANSLIT:;
#SUBTITLETRANSLIT:;
#ARTISTTRANSLIT:;
#CREDIT:;
#BANNER:bn.png;
#BACKGROUND:bg.png;
#LYRICSPATH:;
#CDTITLE:!Ziddytitle.png;
#MUSIC:01 Snow Goose.mp3;
#OFFSET:-0.380;
#SAMPLESTART:21.952;
#SAMPLELENGTH:11.980;
#SELECTABLE:YES;
#BPMS:0.000=200.001;
#STOPS:263.500=2.400
,303.500=0.600
;
#BGCHANGES:;

//---------------dance-single - ----------------
#NOTES:
     dance-single:
     :
     Hard:
     9:
     0.576,0.684,0.238,0.347,0.045:
0000
0000
0000
0000
,
0000
0000
0000
0000
,
0000
0000
0000
0000
,
0000
0000
0000
0000
,
0000
0000
0000
0000
,
1000
0001
0100
0000
0101
0000
1100
0000
,
0100
1000
0010
0000
0110
0000
1001
0000
,
0001
0100
0010
0000
0010
0000
0110
0000
,
1000
0001
0100
0001
0010
0001
0100
0010
,
1000
0100
1000
0100
0010
0100
1000
0001
,
1000
0000
0001
1000
0001
0000
1000
0000
0000
0000
0000
0000
0000
0000
0000
0000
,
1000
0000
0100
1000
0100
0000
1000
0000
0000
0000
0000
0000
0000
0000
0000
0000
,
0001
0000
0010
0001
0010
0000
0001
0000
0000
0000
0000
0000
0000
0000
0000
0000
,
1000
0000
0001
0000
0100
0001
0100
0010
,
1000
0000
1000
0001
1000
0000
0010
0000
0000
0000
0000
0000
0000
0000
0000
0000
,
0100
0000
0010
1000
0100
0000
1000
0000
0000
0000
0000
0000
0000
0000
0000
0000
,
1000
0000
0001
0100
0001
0000
0010
0000
0000
0000
0000
0000
0000
0000
0000
0000
,
0001
0010
0100
1000
0001
0010
0100
1000
,
0002
0000
0000
1000
0003
0000
0002
0000
,
0200
0000
0000
0000
0303
0000
0001
1000
,
0200
0000
0000
1000
0000
0000
1000
0000
,
2000
0000
0000
3300
,
0020
0000
0000
0130
0000
0000
0010
0000
,
2000
0000
0000
3100
0000
0000
2000
0000
,
0002
0000
0000
3000
,
0200
0000
0000
0303
,
0020
0000
0000
0130
0000
0000
1000
0000
,
0002
0000
0000
0000
0003
0000
0100
0001
,
0200
0000
0000
0010
0000
0000
0010
0000
,
0020
0000
0000
0330
,
1002
0000
0000
1003
0000
0000
0000
0000
,
2000
0000
0000
3100
0000
0000
0000
0000
,
0002
0000
0000
0000
,
0203
0000
0000
0002
0000
0000
0303
0000
,
0001
1000
0000
1000
0000
0001
0100
0010
,
0200
0000
0000
0300
,
0010
1000
0000
0010
0000
0010
1000
0001
,
0200
0000
0000
0000
0301
1000
0001
0100
,
1000
0100
0000
1000
0000
1000
0100
0010
,
0002
0000
0000
0000
,
0013
0010
0010
0010
,
0011
1100
0110
1001
,
0101
0000
0001
0100
0010
1000
0010
0100
,
0010
0000
0010
0100
0010
1000
0100
1000
,
0100
0000
1000
0001
0100
0001
0010
0001
,
0200
0310
0020
0130
,
1001
0000
1000
0001
0100
0010
1000
0100
,
1100
0000
0001
0010
0001
0100
0010
1000
,
0100
1100
0000
0011
0000
1001
0000
1100
,
1000
0001
0100
0010
1000
0100
0001
0010
,
0002
0000
0010
0000
0010
0000
0010
0010
,
0023
0000
0001
0000
0001
0000
0001
0001
,
0032
0000
0100
0000
0100
0000
0100
0100
,
0203
0000
0010
0000
0010
0000
0010
0010
,
0320
0000
1000
0000
1000
0000
1000
1000
,
2030
0000
0100
0000
0100
0000
0100
0100
,
3100
1000
0100
1000
0100
1000
0100
1000
,
0010
0001
0010
0100
0010
1000
0001
0100
,
0010
0100
0000
0010
0000
0010
1000
0002
,
0200
0000
0000
0303
,
0001
0100
0000
0101
0000
0001
0100
0010
,
2000
0000
0000
0000
3100
1000
0100
0010
,
0001
0010
0000
0001
0000
0010
0001
0200
,
0020
0000
0000
0330
,
0010
0100
0010
0100
0001
1000
0001
0100
,
0001
0010
0100
1000
0100
0010
0001
0010
,
0101
0001
0100
0010
,
0110
0010
1000
0100
,
1100
1000
0100
0010
,
0011
0001
0101
0010
,
0010
0100
0010
0100
,
0010
1000
0010
1000
0010
0100
0010
0000
,
0001
1000
0010
0100
0001
0100
0001
0000
,
0001
0010
0001
0100
0001
0100
0010
1000
,
0100
1000
0100
1000
0100
0010
0001
0010
,
0100
1000
0100
0010
0100
0001
1000
0100
,
0010
0100
1000
0001
0100
0000
0010
1000
0000
0000
0000
0000
0101
0000
0000
0000
;

//---------------dance-single - ----------------
#NOTES:
     dance-single:
     :
     Medium:
     7:
     0.448,0.608,0.178,0.109,0.000:
0000
0000
0000
0000
,
0000
0000
0000
0000
,
0000
0000
0000
0000
,
0000
0000
0000
0000
,
0000
0000
0000
0000
,
0001
0000
1000
0000
0001
0000
1000
0001
,
1000
0000
1000
0000
1000
0000
1000
0001
,
0100
0000
0100
0000
0100
0000
0100
0010
,
0100
0000
0010
0000
0100
0000
0010
1000
,
0001
1000
0001
1000
,
0001
0100
0001
0100
0000
0000
0000
0000
,
0010
0100
0010
0100
0000
0000
0000
0000
,
0010
1000
0010
1000
0000
0000
0000
0000
,
1000
1000
1001
0110
,
0010
0100
0010
0100
0000
0000
0000
0000
,
0010
0100
0001
1000
0000
0000
0000
0000
,
1000
0001
0100
0010
0000
0000
0000
0000
,
0200
0000
0000
0000
,
0310
0000
0000
0010
0000
0000
0010
0000
,
1000
0000
0000
0000
0000
0000
1000
0001
,
0200
0000
0000
0301
0000
0000
0001
0000
,
0002
0000
0000
0003
,
1001
0000
0000
0001
0000
0000
0001
0000
,
0100
0000
0000
0010
0000
0000
0100
0000
,
0020
0000
0000
0000
,
1000
0000
0030
0000
,
1001
0000
0000
0010
0000
0000
0100
0000
,
0110
0000
0000
0000
0000
0000
0010
1000
,
0001
0000
0000
0001
0000
0000
0001
0000
,
0001
0000
0000
0000
,
1100
0000
0000
0010
0000
0000
0000
0000
,
0011
0000
0000
0100
0000
0000
0000
0000
,
0020
0000
0000
0000
,
1000
0000
0000
2000
0000
0000
3030
0000
,
0010
1000
0000
0010
0000
0010
1000
0010
,
0200
0000
0000
0300
,
0010
0100
0000
0010
0000
0010
0100
0010
,
0200
0000
0010
0310
,
0010
1000
0000
0001
0000
0001
0100
0001
,
0200
0000
0000
0000
,
0301
0001
1000
1000
,
1001
0110
1001
0110
,
0010
0000
0100
0000
0010
0000
0010
0100
,
0010
0000
1000
0000
0010
0000
0010
1000
,
0010
0000
1000
0000
0100
0000
1000
0100
,
2000
0000
0000
0000
0000
0000
0000
3000
,
0001
0000
1000
0000
0001
0100
0001
0000
,
0100
0000
0010
0000
0100
0010
0100
0000
,
0010
0010
0100
0100
,
0010
0100
0010
0100
0010
1000
0010
1000
,
0010
0000
0010
0000
0010
0000
0010
1000
,
0001
0000
0001
0000
0001
0000
0001
1000
,
0001
0100
0010
0100
,
0010
0100
0010
0000
0010
0100
0010
0000
,
0110
0000
0010
0100
0010
1000
0010
1000
,
0010
0000
1000
0100
0010
0001
0010
0100
,
0001
0100
0000
0100
0000
0100
0000
0100
,
0010
0100
0010
0000
0010
1000
0010
0000
,
0001
1000
0000
0001
0000
0001
0010
0100
,
1000
0000
0000
0000
,
1000
0100
0000
1000
0000
1000
0100
0010
,
0001
0000
0001
0001
,
0001
0100
0000
0001
0000
0001
0100
0010
,
2000
0000
0000
0000
,
3100
1000
0100
0010
,
0001
0100
0010
1000
,
0001
0100
0001
0100
,
0101
0001
0100
0010
,
0110
0010
1000
0010
,
0100
0000
0010
0000
0100
0000
0010
0100
,
0010
1000
0010
0100
,
0010
1000
0010
0000
0100
0000
0110
0000
,
0010
1000
0001
0000
1000
0000
1001
0000
,
0001
0100
0010
0000
0100
0000
0110
0000
,
0010
0100
0010
0000
0010
1000
0010
0000
,
0001
1000
0001
1000
0010
0100
0010
1000
,
0001
1000
0001
0100
0000
0000
0011
0000
;

//---------------dance-single - ----------------
#NOTES:
     dance-single:
     :
     Easy:
     4:
     0.263,0.418,0.178,0.000,0.000:
0000
0000
0000
0000
,
0000
0000
0000
0000
,
0000
0000
0000
0000
,
0000
0000
0000
0000
,
0000
0000
0000
0000
,
0010
1000
0010
0000
,
0001
0100
0001
0000
,
1000
0001
1000
0000
,
0001
0000
0001
0000
,
1000
0000
1000
0000
,
0001
0000
0000
1000
0000
0000
0000
0000
,
1000
0000
0000
0100
0000
0000
0000
0000
,
1000
0000
0000
0010
0000
0000
0000
0000
,
0000
0000
1010
0101
,
0001
0000
0000
0001
0000
0000
0000
0000
,
1000
0000
0000
1000
0000
0000
0000
0000
,
0010
0000
0000
0010
0000
0000
0000
0000
,
0100
0010
1000
0001
,
1000
0000
0000
0001
0000
0000
1000
0000
,
0001
0000
0000
0100
,
0001
0000
0000
0100
0000
0000
0010
0000
,
1000
0000
0000
0000
,
0010
0000
0000
0010
0000
0000
1000
0000
,
0001
0000
0000
1000
0000
0000
0001
0000
,
0100
0000
0000
0000
,
0001
0000
0000
0000
,
1000
0000
0000
0001
0000
0000
0100
0000
,
0010
0000
0000
0010
,
0010
0000
0000
0010
0000
0000
0010
0000
,
0010
0000
0000
0000
,
1000
0000
0000
0001
0000
0000
0000
0000
,
0001
0000
0000
1000
0000
0000
0000
0000
,
1000
0000
0000
0000
,
1000
0000
0000
0001
0000
0000
0000
0000
,
0001
0000
0000
1000
0000
0000
0001
0000
,
0100
0000
0000
0000
,
0100
0000
0000
0010
0000
0000
1000
0000
,
0100
0000
1000
1000
,
0001
0000
0000
1000
0000
0000
0001
0000
,
0100
0000
0000
0000
,
0010
0000
0010
0000
,
0010
0010
0010
0010
,
1000
0001
1000
0001
,
0100
0001
0100
0001
,
0100
0010
0100
0010
,
1000
0000
1000
0000
,
1000
0001
1000
0001
,
1000
0100
1000
0100
,
1000
0100
0000
0100
0000
0100
0000
0100
,
1000
1000
1000
1000
,
1100
0000
0000
0000
,
0011
0000
0000
0000
,
0101
0000
0000
0000
,
1010
0000
0000
0000
,
0110
0000
0000
0000
,
1010
0000
0000
0000
,
0011
0000
0000
0000
,
1100
0000
0000
0000
,
0001
0000
0000
1000
0000
0000
0001
0000
,
0100
0000
0000
0000
,
0100
0000
0000
0010
0000
0000
1000
0000
,
0100
0000
0000
0000
1000
0001
1000
0000
,
0001
0000
0000
0100
0000
0000
0010
0000
,
1000
0000
0000
0000
,
1000
1000
1000
1000
,
1000
1000
1000
1000
,
1001
0000
0000
0000
,
0110
0000
0000
0000
,
0110
0000
0000
0000
,
1001
0000
0000
0000
,
0110
0000
0000
0000
,
0010
0000
0010
0000
,
1000
0000
0001
0000
,
1000
0000
0100
0000
,
0010
0001
0100
0010
,
1000
0001
1000
0001
,
1100
0000
0000
1001
0000
0000
1001
0000
;

//---------------dance-single - ----------------
#NOTES:
     dance-single:
     :
     Beginner:
     2:
     0.108,0.228,0.040,0.000,0.000: // measure 1
0000
0000
0000
0000
,  // measure 2
0000
0000
0000
0000
,  // measure 3
0000
0000
0000
0000
,  // measure 4
0000
0000
0000
0000
,  // measure 5
0000
0000
0000
0000
,  // measure 6
0010
0000
0000
0000
,  // measure 7
0010
0000
0000
0000
,  // measure 8
0010
0000
0000
0000
,  // measure 9
0010
0000
0000
0000
,  // measure 10
0001
0000
0000
0000
,  // measure 11
1000
0000
0000
0000
,  // measure 12
1000
0000
0000
0000
,  // measure 13
1000
0000
0000
0000
,  // measure 14
0000
0000
0000
0000
,  // measure 15
0001
0000
0000
0000
,  // measure 16
0001
0000
0000
0000
,  // measure 17
0001
0000
0000
0000
,  // measure 18
1001
0000
0000
0000
,  // measure 19
0010
0000
0000
0000
,  // measure 20
0010
0000
0000
0000
,  // measure 21
0100
0000
0000
0000
,  // measure 22
0100
0000
0000
0000
,  // measure 23
0010
0000
0000
0000
,  // measure 24
0010
0000
0000
0000
,  // measure 25
1000
0000
0000
0000
,  // measure 26
0001
0000
0001
0000
,  // measure 27
0001
0000
0000
0000
,  // measure 28
1000
0000
0000
0000
,  // measure 29
0010
0000
0000
0000
,  // measure 30
0100
0000
0000
0000
,  // measure 31
0010
0000
0000
0000
,  // measure 32
0010
0000
0000
0000
,  // measure 33
1000
0000
0000
0000
,  // measure 34
0001
0000
0000
0000
,  // measure 35
0001
0000
0000
0000
,  // measure 36
0000
0000
0000
0000
,  // measure 37
1000
0000
0000
0000
,  // measure 38
0000
0000
0000
0000
,  // measure 39
0010
0000
0000
0000
,  // measure 40
0000
0000
0000
0000
,  // measure 41
0100
0000
0100
0000
,  // measure 42
0100
0000
0100
0000
,  // measure 43
0110
0000
0000
0000
,  // measure 44
0010
0000
0000
0000
,  // measure 45
1000
0000
0000
0000
,  // measure 46
0001
0000
0000
0000
,  // measure 47
0001
0000
0000
0000
,  // measure 48
1000
0000
0000
0000
,  // measure 49
0010
0000
0000
0000
,  // measure 50
0100
0000
0000
0000
,  // measure 51
0010
0000
0000
0000
,  // measure 52
1000
0000
0000
0000
,  // measure 53
0001
0000
0000
0000
,  // measure 54
0100
0000
0000
0000
,  // measure 55
0010
0000
0000
0000
,  // measure 56
1000
0000
0000
0000
,  // measure 57
0001
0000
0000
0000
,  // measure 58
0001
0000
0000
0000
,  // measure 59
1000
0000
0000
0000
,  // measure 60
0010
0000
0000
0000
,  // measure 61
0100
0000
0000
0000
,  // measure 62
0001
0000
1000
0000
,  // measure 63
0001
0000
0000
0000
,  // measure 64
1000
0000
0000
0000
,  // measure 65
0010
0000
0000
0000
,  // measure 66
0010
0000
0000
0000
,  // measure 67
0010
0000
0000
0000
,  // measure 68
0010
0000
0000
0000
,  // measure 69
0010
0000
0000
0000
,  // measure 70
0010
0000
0000
0000
,  // measure 71
0010
0000
0000
0000
,  // measure 72
1001
0000
0000
0000
,  // measure 73
0001
0000
0000
0000
,  // measure 74
1000
0000
0000
0000
,  // measure 75
0100
0000
0000
0000
,  // measure 76
0010
0000
0000
0000
,  // measure 77
0000
0000
0000
1001
;
