#TITLE:smoooch;
#SUBTITLE:;
#ARTIST:Kors K;
#TITLETRANSLIT:;
#SUBTITLETRANSLIT:;
#ARTISTTRANSLIT:;
#CREDIT:;
#BANNER:bn.PNG;
#BACKGROUND:bg.PNG;
#LYRICSPATH:;
#CDTITLE:;
#MUSIC:smoooch.ogg;
#OFFSET:0.100;
#SAMPLESTART:22.280;
#SAMPLELENGTH:12.000;
#SELECTABLE:YES;
#BPMS:0.000=177.000;
#STOPS:62.000=0.339
,63.000=0.339
,252.000=0.169
,252.500=0.169
,253.000=0.169
,253.500=0.169
;
#BGCHANGES:;

//---------------dance-single - ----------------
#NOTES:
     dance-single:
     :
     Hard:
     8:
     0.524,0.709,0.134,0.250,0.036:
0000
0000
0000
0000
,
0000
0000
0000
0000
,
0000
0000
0000
0000
,
0000
0000
0000
0000
,
0000
0000
0000
0000
,
0000
0000
0000
0000
,
0000
0000
0000
0000
,
0000
0000
0000
0000
,
0000
0000
1000
0100
0020
0000
0000
0002
,
0000
0000
0033
0000
,
0000
0000
0001
0010
0200
0000
0000
2000
,
0000
0000
3300
0000
,
0000
0000
0001
1000
0002
0000
0000
0200
,
0000
0000
0303
0000
,
0000
0000
0010
1000
0020
0000
0000
2000
,
0000
3030
0011
1100
,
0001
0000
1000
0001
1000
0000
0000
0010
,
0000
1000
0100
0010
0001
0000
0001
0100
,
0001
0000
0100
0000
0010
1000
0000
0010
,
0000
1000
0100
0010
0001
0010
0001
0010
,
0001
0000
0100
0001
0100
0000
0001
0100
,
0000
0001
0000
1000
0010
0000
0000
0000
,
1000
0100
0010
0001
0010
0100
1000
0001
,
1000
0000
0001
1000
0001
0000
0000
0000
,
1000
0200
0000
1000
0000
0010
0000
0002
,
0000
0000
0000
0000
0303
0000
0000
0001
,
0020
0000
0100
0100
0000
0100
0000
0200
,
0000
0000
0000
0330
,
1000
0200
0000
1000
0000
0010
0000
0001
,
0000
0010
0000
1000
0000
0010
0000
0301
,
1000
0000
0001
1000
0000
1001
0000
1000
,
0000
1000
0100
0010
0001
0010
0100
0000
,
0001
0100
0001
0100
0010
1000
0010
0000
,
1000
0100
0010
0001
0010
0001
0010
0000
,
0001
0100
0001
0100
0001
1000
0001
1000
,
0010
1000
0010
1000
0010
1000
0001
0000
,
1000
0100
0010
0001
0010
0100
1000
0100
,
0001
1000
0001
1000
0010
1000
0010
0000
,
0001
0100
0001
0100
0010
1000
0001
0100
,
0001
0001
1000
1000
0001
0001
1000
1000
,
0001
0000
0010
0000
0100
0000
1000
0100
0000
0100
0010
0000
0001
0000
1000
0000
,
0100
0000
0000
0001
0000
0000
1000
0100
1000
0000
0100
0000
1000
0000
0010
0000
,
0001
1000
0001
1000
0010
0100
1000
0100
,
0020
0001
0031
0010
0001
0010
0100
1000
,
0100
1100
0000
0011
0000
0110
0000
1001
,
1000
0000
0001
1000
0000
0001
1000
0000
0001
0000
0010
0000
0200
0000
0000
0000
,
0310
1000
0020
0000
,
0130
0100
0100
0100
,
0001
0000
1000
0000
1000
0100
0000
0010
,
0000
0001
0000
0010
0001
0000
0010
0100
,
0010
0000
1000
0000
0001
0100
0000
0010
,
1000
0100
0010
0001
0010
0000
0000
0000
1000
0000
0000
0000
0001
0000
1000
0000
,
0100
0010
0001
0100
1000
0000
1000
0001
,
0000
0010
0100
0010
0100
1000
0001
0000
,
1000
0001
0010
0100
,
2000
0000
0000
0000
0200
0000
0000
3300
,
0011
0000
0001
1000
0001
0000
0000
1000
,
0000
0001
1000
0001
1000
0000
0001
1000
,
0001
0000
1000
0000
0001
1000
0000
0001
,
0000
1000
0100
0010
0001
0010
0001
0010
,
0100
0000
0001
0000
0100
0000
0001
0100
,
0000
0010
0000
0100
0010
0000
0000
0000
,
1000
0100
0010
0001
0010
0100
0010
1000
,
0002
2003
3002
2003
3001
0000
1000
0100
,
1000
0000
0000
0010
0000
0001
0100
0001
,
0100
0000
0001
1000
0001
0000
1000
0000
,
0100
1000
0000
0100
0000
1000
0100
0010
,
0001
0010
0100
1000
0001
0000
1000
0001
,
1000
0000
0010
2000
0000
3100
0000
1000
,
0100
0000
0000
0000
1000
0100
0010
0001
,
0010
0100
0001
0100
0001
0000
1000
0001
,
2000
0000
0000
0000
3100
2000
0000
0100
,
0000
0100
0000
0010
0000
0010
0000
0001
,
0000
3001
0000
0001
0200
0000
0010
0010
,
0000
0010
0000
0020
0000
0000
0000
0000
,
0000
0000
0330
0000
1000
0100
0000
0011
,
0000
0110
0000
1001
0000
1000
0100
0010
,
0001
0000
0001
0000
0101
0000
1000
1100
,
0000
0110
0000
1001
0000
1000
0100
0010
,
0002
0000
0003
0000
;

//---------------dance-single - ----------------
#NOTES:
     dance-single:
     :
     Medium:
     6:
     0.379,0.461,0.098,0.259,0.000:
0000
0000
0000
0000
,
0000
0000
0000
0000
,
0000
0000
0000
0000
,
0000
0000
0000
0000
,
0000
0000
0000
0000
,
0000
0000
0000
0000
,
0000
0000
0000
0000
,
0000
0000
0000
0000
,
0000
0000
1000
0100
2000
0000
0000
0000
,
0000
0000
0000
3000
,
0000
0000
0001
0010
0002
0000
0000
0000
,
0000
0000
0003
0000
,
0000
0000
0010
0100
0020
0000
0000
0000
,
0000
0000
0030
0000
,
0000
0000
1000
0001
2000
0000
0000
0000
,
0000
0000
3001
1000
,
0010
0100
0010
1000
,
0001
0000
0100
0001
0100
0000
0001
0000
,
0010
0100
1000
0100
,
1000
0000
1000
0100
1000
0000
0100
0000
,
0010
0100
0010
0001
,
1000
0100
0010
0000
,
0001
1000
0010
0100
,
0001
0000
1000
0100
1000
0000
0000
0000
,
1000
0100
0000
1000
0000
0200
0000
2000
,
0000
0000
0000
0000
3300
0000
0000
0010
,
0100
0000
0001
1000
0000
0002
0000
0200
,
0000
0000
0000
0303
,
0001
1000
0000
0010
0000
1000
0000
0020
,
0000
0000
0000
0030
,
0001
0000
1000
0100
0000
0010
0000
0002
,
0000
0000
0000
0000
,
1003
0000
0001
0000
0100
0001
0100
0000
,
0010
0000
1000
0000
0100
1000
0100
0000
,
0010
0000
1000
0000
0001
0100
0001
0000
,
1000
0000
0001
0000
0001
0010
0001
0000
,
1100
0011
0110
0001
,
1000
0001
1000
0000
0010
0000
0100
0000
,
1000
0000
0100
0000
0010
0000
0001
0200
,
0020
0000
0000
0330
,
0001
0000
1000
0000
0100
0000
0010
0001
,
0020
0000
0000
0000
0030
0000
0001
0100
,
0002
0100
0100
0103
,
0101
0000
0000
0000
0000
0000
0010
1000
,
0010
1000
0100
0010
,
0002
0103
1000
0010
,
1000
0100
0022
0030
,
0010
0010
0010
0013
,
0001
1000
0100
0010
,
0001
0010
0100
1000
,
0100
0010
0001
0100
,
2002
3003
0001
1000
,
0001
0100
0010
1000
,
0010
1000
0001
0100
,
0001
0001
0010
0100
,
2000
0000
3020
0000
,
0130
0010
0100
0010
,
0100
0010
0001
1000
,
0100
0010
0001
0100
,
0202
0303
0000
0000
,
0001
1000
0010
0100
,
1000
0100
0010
0001
,
0010
0100
1000
0010
,
0001
1000
0001
1000
0001
0000
1000
0001
,
1000
0001
1000
0010
,
0100
0000
0001
0100
0001
0000
0001
0000
,
0010
0000
0100
0000
1000
0000
0100
1000
,
0100
1000
0100
1000
0100
0000
1000
0000
,
0100
0010
0011
0001
,
0100
0010
0110
0100
,
0110
0000
1000
0000
1100
0000
1000
0100
,
1000
0000
0000
0000
0010
2000
0000
0001
,
0000
0001
0000
0002
0000
0000
0000
0000
,
3003
0000
0000
0010
0002
0000
0100
0100
,
0000
0100
0000
0200
0000
0000
0000
0000
,
0000
0000
0303
0000
0001
0100
0000
1000
,
0000
0100
0000
0010
0000
0001
0000
0010
,
0001
0000
0000
1000
0100
0000
0010
0001
,
0000
0010
0000
0100
0000
1000
0100
0020
,
0002
0000
0033
0000
;

//---------------dance-single - ----------------
#NOTES:
     dance-single:
     :
     Easy:
     4:
     0.277,0.355,0.036,0.294,0.000:
0000
0000
0000
0000
,
0000
0000
0000
0000
,
0000
0000
0000
0000
,
0000
0000
0000
0000
,
0000
0000
0000
0000
,
0000
0000
0000
0000
,
0000
0000
0000
0000
,
0000
0000
0000
0000
,
0000
2000
0002
0000
,
0000
3003
0000
0000
,
0000
0020
0200
0000
,
0000
0330
0000
0000
,
0000
0002
2000
0000
,
0000
3003
0000
0000
,
0000
0200
0020
0000
,
0000
0330
1000
0001
,
1000
0100
0010
0001
,
0010
0001
0100
0001
,
0010
1000
0010
1000
,
0100
0001
0001
0001
,
0001
1000
0001
0100
,
0010
1000
0100
0000
,
1000
0001
0100
0010
,
1000
0100
2000
3000
,
2000
0000
0000
0001
0000
0000
0000
0001
,
3000
0000
0000
0000
,
0002
0000
0000
1000
0000
0000
0000
1003
,
0000
0000
0000
0000
,
0020
0000
0000
0100
0000
0000
0000
0130
,
0000
0000
0000
0000
,
0001
0000
0000
1000
0000
0001
0000
2000
,
0000
0000
0000
3000
,
0001
0001
1000
1000
,
0100
0010
0001
0100
,
1000
0100
0001
0100
,
1000
1000
0001
1000
,
0010
0010
0100
0100
,
1000
0010
0001
0010
,
1000
0001
0100
0010
,
0002
0000
0000
0000
,
1003
0001
0100
0010
,
0002
0000
0003
1000
,
0001
0100
0010
1000
,
0020
0000
0000
1030
,
0001
1000
0001
0100
,
0010
0000
1000
0000
,
0001
2000
0200
3300
,
1000
1000
1000
1001
,
0000
0000
0001
0000
,
1000
0000
0001
0000
,
1000
0000
0100
0000
,
0020
0030
0000
0000
,
0100
0000
0010
0000
,
1000
0000
0001
0000
,
0100
0000
0010
0000
,
2000
0000
0002
3003
,
0001
0000
1000
0000
,
0100
0000
0010
0000
,
0001
0000
0100
0000
,
2002
3003
0000
0000
,
1000
0000
0001
0000
,
0100
0000
0010
0000
,
1000
0000
0001
0000
,
0202
0000
0000
0303
0100
0000
0001
0000
,
0200
0000
0301
1000
,
0001
1000
0001
0010
,
1000
0010
0001
1000
,
1000
1000
1001
0001
,
0100
0010
1000
0010
,
0001
0000
1000
0001
,
0100
0010
1000
0100
,
0010
0000
0000
0000
0002
0000
0000
1000
,
0000
1000
0000
2000
0000
0000
3003
0000
,
0000
0000
0000
0000
2000
0000
0000
0001
,
0000
0001
0000
0002
0000
0000
0000
0000
,
3003
0000
0000
0000
0020
0000
0000
0100
,
0000
0100
0000
0130
0000
0000
0000
0000
,
0000
0000
0000
0000
0200
0000
0000
0010
,
0000
0010
0000
0020
0000
0000
0000
0000
,
0000
0000
0330
0000
;

//---------------dance-single - ----------------
#NOTES:
     dance-single:
     :
     Beginner:
     1:
     0.064,0.138,0.036,0.000,0.000:
0000
0000
0000
0000
,
0000
0000
0000
0000
,
0000
0000
0000
0000
,
0000
0000
0000
0000
,
0000
0000
0000
0000
,
0000
0000
0000
0000
,
0000
0000
0000
0000
,
0000
0000
0000
0000
,
0000
0000
1000
0000
,
0000
0000
0000
0000
,
0000
0000
0001
0000
,
0000
0000
0000
0000
,
0000
0000
0010
0000
,
0000
0000
0000
0000
,
0000
0000
0100
0000
,
0000
0000
0000
0000
,
0001
0000
0000
0000
,
0000
0000
0000
0000
,
1000
0000
0000
0000
,
0000
0000
0000
0000
,
0100
0000
0000
0000
,
0000
0000
0000
0000
,
0010
0000
0000
0000
,
1000
0000
0001
0000
,
1000
0000
0000
0000
,
0000
0000
0000
0000
,
0001
0000
0000
0000
,
0000
0000
0000
0000
,
0100
0000
0000
0000
,
0000
0000
0000
0000
,
0010
0000
0000
0000
,
0000
0000
0000
0000
,
1000
0000
0000
0000
,
0001
0000
0000
0000
,
0100
0000
0000
0000
,
0010
0000
0000
0000
,
0100
0000
0000
0000
,
0100
0000
0000
0000
,
1000
0000
0000
0000
,
0001
0000
0000
0000
,
1001
0000
0000
0000
,
0000
0000
0000
0000
,
0110
0000
0000
0000
,
0000
0000
0000
0000
,
1001
0000
0000
0000
,
0000
0000
0000
0000
,
0010
0000
0100
0000
,
0100
0000
0000
0000
,
1000
0000
0000
0000
,
0000
0000
0000
0000
,
0001
0000
0000
0000
,
1001
0000
0000
0000
,
0100
0000
0000
0000
,
0000
0000
0000
0000
,
0010
0000
0000
0000
,
0000
0000
0000
0000
,
1000
0000
0000
0000
,
0000
0000
0000
0000
,
0001
0000
0000
0000
,
0100
0000
0000
0000
,
0010
0000
0000
0000
,
0000
0000
0000
0000
,
0100
0000
0000
0000
,
0000
0000
1000
0000
,
0000
0000
0000
0000
,
0000
0000
0001
0000
,
0000
0000
0000
0000
,
0000
0000
0010
0000
,
0000
0000
0000
0000
,
0000
0000
0100
0000
,
0000
0000
0000
0000
,
0000
0000
1000
0000
,
0000
0000
0000
0000
,
0000
0000
0001
0000
,
0000
0000
0000
0000
,
0000
0000
0100
0000
,
0000
0000
0000
0000
,
0000
0000
0010
0000
;
