#TITLE:Smell Like This;
#SUBTITLE:;
#ARTIST:Y&Co.;
#TITLETRANSLIT:;
#SUBTITLETRANSLIT:;
#ARTISTTRANSLIT:;
#CREDIT:;
#BANNER:bn.PNG;
#BACKGROUND:bg.PNG;
#LYRICSPATH:;
#CDTITLE:Beatmania IIDX.png;
#MUSIC:Smell Like This.ogg;
#OFFSET:-1.984;
#SAMPLESTART:8.551;
#SAMPLELENGTH:13.230;
#SELECTABLE:YES;
#BPMS:0.000=145.000,80.000=72.500,116.000=145.000;
#STOPS:82.000=1.241
;
#BGCHANGES:;

//---------------dance-single - ----------------
#NOTES:
     dance-single:
     :
     Hard:
     7:
     0.444,0.469,0.214,0.134,0.250:
0000
0000
0000
0000
,
0000
0000
0000
0000
,
0000
0000
0000
0000
,
0000
0000
0000
0000
,
1000
0000
0100
0000
0010
0000
0100
0000
0010
0000
0000
0010
0000
0000
0010
0000
,
0001
0000
0100
0000
0001
0000
1000
0000
0010
0000
0000
1000
0000
0000
0001
0000
,
1000
0000
1000
0000
0100
0000
0010
0000
0100
0000
0000
0100
0000
0000
0100
0000
,
0010
0000
1000
0000
0001
0000
0100
0000
0001
0000
0000
0100
0000
0000
0010
0000
,
1000
0000
0100
0000
0010
0000
0001
0000
0010
0000
0000
0100
0000
0000
0010
0000
,
0001
0000
0100
0000
0010
0000
1000
0000
0010
0000
0000
0100
0000
0000
0001
0000
,
0010
0000
0100
0000
0001
0000
1000
0000
0010
0000
0000
0100
0000
0000
0100
0000
,
0001
0000
0100
0000
0010
0000
0100
0000
0002
0000
0000
0100
0000
0000
0103
0000
,
0010
0000
1000
0000
0001
0000
0100
0000
0010
0000
0010
0100
0000
0000
1000
0000
,
0100
0000
0001
0000
0100
0000
0010
0000
0100
0000
0000
0100
0000
0000
0100
0000
,
0010
0000
1000
0000
0001
0000
0100
0000
0001
0000
0010
0001
0000
0000
0001
0000
,
0100
0000
1000
0000
0100
0000
0010
0000
0001
0000
0000
0100
0000
0000
1000
0000
,
0010
0000
1000
0000
0001
0000
0100
0000
0001
0000
0010
0100
0000
0000
0010
0000
,
0100
0000
1000
0000
0100
0000
0010
0000
1100
0000
0000
0011
0000
0000
0110
0000
,
0001
0000
1000
0000
0010
0000
0100
0000
0001
0000
0010
0100
0000
0000
0010
0000
,
0100
0000
0010
0000
1000
0000
0010
0000
1001
0000
0000
0101
0000
0000
0010
0000
,
2002
0000
0000
0000
0000
0000
0000
0000
0000
0000
0000
0000
0000
0000
0000
0000
0000
0000
0000
0000
0000
0000
0000
0000
0000
0000
3003
0000
0000
0000
0010
0000
0000
0000
0000
0000
0000
0000
0000
0010
0000
0000
0000
0000
0000
0000
0000
0000
,
0010
0000
0000
0010
0000
0000
0010
0000
0100
0000
0001
0000
0000
1000
0000
0000
,
0100
0000
0000
0010
0000
0000
0001
0000
1000
0000
0100
0000
0000
0100
0000
0000
,
0010
0000
0000
0010
0000
0000
0100
0000
1000
0000
0001
0000
0000
0001
0000
0000
,
0001
0000
0000
1000
0000
0000
0100
0000
0010
0000
0001
0000
0000
0100
0000
0000
,
0010
0000
0000
0100
0000
0000
1001
0000
1010
0000
0101
0000
0000
1100
0000
0000
,
0011
0000
0000
0110
0000
0000
1000
0000
0100
0000
0101
0000
0000
0010
0000
0000
,
0100
0000
0000
1000
0000
0000
0100
0000
0001
0000
1000
0000
0000
0001
0000
0000
,
0100
0000
0000
1000
0000
0000
0100
0000
0100
0000
0200
0000
0000
0000
0000
0000
,
0000
0000
0000
0000
0310
0000
0000
0000
1000
0000
0000
1000
0100
0000
0010
0000
,
0100
0000
0010
0000
0100
0000
0000
0000
0010
0000
0000
0001
0100
0000
0010
0000
,
0100
0000
0010
0000
1000
0000
0000
0000
1000
0000
0000
0010
0100
0000
0010
0000
,
0100
0000
0001
0000
1000
0000
0000
0000
1001
0000
0000
0010
1000
0000
0001
0000
,
0100
0000
0010
0000
0100
0000
0000
0000
1100
0000
0000
0010
0100
0000
0001
0000
,
1000
0000
0010
0000
0100
0000
0000
0000
0011
0000
0000
0010
0100
0000
0001
0000
,
1000
0000
0010
0000
0100
0000
0000
0000
1010
0000
0000
0010
0100
0000
0001
0000
,
1000
0000
0010
0000
0100
0000
0000
0100
0010
0000
0000
0000
1000
0000
0001
0000
,
0001
0000
0000
0000
0010
0000
0000
0100
0000
0000
0010
0000
0000
1000
0000
0000
,
0010
0000
1000
0000
0001
0000
0000
0100
0000
0000
0010
0000
0000
1000
0000
0000
,
0010
0000
1000
0000
0100
0000
0000
1000
0000
0000
0100
0000
0000
1000
0000
0000
,
0100
0000
1000
0000
0100
0000
0000
0010
0000
0000
0100
0000
0000
0001
0000
0000
,
1000
0000
0001
0000
0101
0000
0000
0010
0000
0000
1010
0000
0000
0010
0000
0000
,
0100
0000
0010
0000
0110
0000
0000
0010
0000
0000
1010
0000
0000
0001
0000
0000
,
0001
0000
0100
0000
0110
0000
0000
0010
0000
0000
1010
0000
0000
0001
0000
0000
,
0001
0000
1000
0000
1001
0000
0000
1000
0000
0000
0100
0000
0000
1000
0000
0000
,
0001
0100
0010
1000
0010
0200
0000
0000
,
0310
1000
0001
0100
0001
0200
0000
0000
,
0300
0000
0010
1000
0001
2000
0000
0000
,
3100
1000
0010
0100
0002
0200
0000
0000
,
0303
0000
0001
0010
0100
2000
0000
0000
,
3100
1000
0010
0100
0002
0200
0000
0000
,
0303
0000
0001
0010
0100
2000
0000
0000
,
3010
0100
0001
1000
0020
0200
0000
0000
,
0000
0300
0000
0000
,
0000
0000
0000
0000
,
0000
0030
0000
0000
;

//---------------dance-single - ----------------
#NOTES:
     dance-single:
     :
     Medium:
     5:
     0.353,0.321,0.152,0.125,0.071:
0000
0000
0000
0000
,
0000
0000
0000
0000
,
0000
0000
0000
0000
,
0000
0000
0000
0000
,
1000
0100
1000
0000
0010
0100
0010
0000
,
0001
0100
0001
0000
0001
0010
0001
0000
,
0010
1000
0010
0000
0100
0010
0100
0000
,
1000
0100
0010
0000
0001
0100
0010
0000
,
0010
0100
0001
0000
1000
0100
1000
0000
,
0010
1000
0010
0000
0001
0100
0001
0000
,
0010
0100
0001
0000
1000
0100
0010
0000
,
0001
1000
0010
0000
0000
0000
0000
0000
,
1000
0100
0020
0000
0100
0000
0100
0030
,
0001
1000
0020
0000
0001
0000
0130
0000
,
1000
0100
0010
0000
0002
0000
0103
0000
,
0010
0100
0010
0000
0200
0000
1300
0000
,
0010
1000
0010
0000
0200
0000
1300
0000
,
1000
0100
0020
0000
0130
0000
0001
0000
,
1000
0100
0010
0000
0001
0000
0010
0000
,
0001
1000
0010
0000
0010
0100
0010
0100
,
0020
0000
0000
0000
0000
0000
0030
0000
0000
0000
1000
0000
0000
0001
0000
0000
,
1000
0000
0000
0001
0000
0000
1000
0000
0001
0000
0100
0000
0000
0010
0000
0000
,
0100
0000
0000
0010
0000
0000
0100
0000
0010
0000
1000
0000
0000
0100
0000
0000
,
0010
0000
0000
0001
0000
0000
0001
0000
1000
0000
0001
0000
0000
0100
0000
0000
,
0010
0000
0000
0100
0000
0000
1000
0000
0100
0000
0010
0000
0000
0010
0000
0000
,
0010
0000
0000
0010
0000
0000
0010
0000
0010
0000
0100
0000
0000
0100
0000
0000
,
0100
0000
0000
0100
0000
0000
0100
0000
0100
0000
1000
0000
0000
1000
0000
0000
,
1000
0000
0000
1000
0000
0000
1000
0000
1000
0000
0001
0000
0000
0001
0000
0000
,
0001
0000
0000
0001
0000
0000
0001
0000
0001
0000
1001
0000
0000
0000
0000
0000
,
0000
0000
0010
0000
1010
0000
0001
0100
,
0010
0000
1000
0000
1100
0000
0010
1000
,
0001
0000
0100
0000
0110
0000
0010
1000
,
0001
0000
0010
0000
0011
0000
0001
0100
,
0010
0000
1000
0000
1100
0000
0010
1000
,
0010
0000
0100
0000
0110
0000
0010
1000
,
0001
0000
0001
0000
1001
0000
0010
1000
,
0100
0010
0011
1000
,
0100
0000
0010
0100
0010
0000
0010
0100
,
0010
0000
0010
0100
0010
0000
0010
0100
,
0010
0000
0001
1000
0001
0000
0001
1000
,
0001
0000
0001
1000
0001
0000
0001
1000
,
0001
0000
0010
1000
0001
0000
0010
1000
,
0001
0000
0010
1000
0001
0000
0010
1000
,
0001
0000
1000
0100
0010
0000
0001
0100
,
0010
2002
0000
0000
,
0003
0000
3010
0000
0000
0100
0000
0000
,
1000
0000
1100
0000
0000
0011
0000
0000
,
0010
0100
0020
0000
0000
0130
0000
0000
,
1000
0100
0010
0001
0010
0200
0000
0000
,
0000
0000
1300
0000
0000
1100
0000
0000
,
0010
0000
0011
0000
0000
1010
0000
0000
,
0000
0000
0110
0000
0000
1001
0000
0000
,
0010
0100
0002
0000
0000
2003
0000
0000
,
0000
0002
0000
0000
,
0000
0000
0000
0000
,
0000
3003
0000
0000
;

//---------------dance-single - ----------------
#NOTES:
     dance-single:
     :
     Easy:
     4:
     0.287,0.370,0.062,0.330,0.000:
0000
0000
0000
0000
,
0000
0000
0000
0000
,
0000
0000
0000
0000
,
0000
0000
0000
0000
,
1000
1000
1000
1000
,
0100
0010
0002
0103
,
0010
1000
0002
0013
,
0100
1000
0002
0103
,
0010
1000
0200
0310
,
0001
1000
0200
0310
,
0001
1000
0200
0310
,
0001
1000
2002
3003
,
0010
0100
2000
3100
,
0010
1000
0002
0103
,
0010
1000
0020
1030
,
0001
0100
0002
0103
,
0010
1000
0200
0310
,
1000
0100
0020
0130
,
0001
1000
0200
0310
,
1000
0000
0001
0000
0002
0000
1000
0003
,
1001
0000
0000
0000
0000
2000
0000
0000
,
0000
0000
3000
0001
0001
0002
0000
0000
,
0000
0000
0000
0100
0100
0203
0000
0000
,
0000
0000
0000
0010
0010
0320
0000
0000
,
0000
0000
0000
1000
1000
2030
0000
0000
,
0000
0000
0000
0100
0010
3200
0000
0000
,
0000
0000
0000
0001
0010
0302
0000
0000
,
0000
2000
0000
0000
0003
0100
3010
0100
,
0001
1000
0001
0110
1001
2002
0000
0000
,
3003
0010
0100
1000
,
0010
0100
0001
1000
,
0010
1010
0001
0100
,
0010
1000
0010
0100
,
0001
0010
1000
1000
,
0010
0001
0100
0010
,
1000
0100
0010
0001
,
1000
0100
0100
0010
,
1000
0001
1000
0001
,
1000
0020
0130
0001
,
1000
0100
0010
0001
,
0010
0001
0100
1000
,
0010
1000
0001
0100
,
0010
1000
0100
1000
,
0010
0100
0001
1000
,
0010
0100
0001
1000
,
0010
2000
0100
3100
,
0002
0100
0100
0103
,
0020
1030
1000
0100
,
0020
0130
0001
1000
,
0001
0200
0000
0000
,
0310
2000
0000
0000
,
0000
3002
0000
0000
,
0000
0203
0000
0310
,
1000
2002
0000
0000
,
0000
0000
0000
0000
,
0000
3003
0000
0000
;

//---------------dance-single - ----------------
#NOTES:
     dance-single:
     :
     Beginner:
     1:
     0.074,0.095,0.018,0.000,0.000: // measure 1
0000
0000
0000
0000
,  // measure 2
0000
0000
0000
0000
,  // measure 3
0000
0000
0000
0000
,  // measure 4
0000
0000
0000
0000
,  // measure 5
0001
0000
0000
0000
,  // measure 6
0001
0000
0000
0000
,  // measure 7
1000
0000
0000
0000
,  // measure 8
1000
0000
0000
0000
,  // measure 9
0010
0000
0000
0000
,  // measure 10
0010
0000
0000
0000
,  // measure 11
0100
0000
0000
0000
,  // measure 12
0100
0000
0100
0000
,  // measure 13
0100
0000
0000
0000
,  // measure 14
1000
0000
0000
0000
,  // measure 15
0001
0000
0000
0000
,  // measure 16
0001
0000
0000
0000
,  // measure 17
0010
0000
0000
0000
,  // measure 18
0100
0000
0000
0000
,  // measure 19
0010
0000
0000
0000
,  // measure 20
1000
0000
0000
0000
,  // measure 21
0001
0000
0000
0000
0000
1000
0000
0000
,  // measure 22
0000
0000
0000
0000
0000
0001
0000
0000
,  // measure 23
0000
0000
0000
0000
0000
0010
0000
0000
,  // measure 24
0000
0000
0000
0000
0000
0100
0000
0000
,  // measure 25
0000
0000
0000
0000
0000
1000
0000
0000
,  // measure 26
0000
0000
0000
0000
0000
0001
0000
0000
,  // measure 27
0000
0000
0000
0000
0000
0100
0000
0000
,  // measure 28
0000
0000
0000
0000
0000
0010
0000
0000
,  // measure 29
0000
0000
0000
0000
0000
1001
0000
0000
,  // measure 30
0000
1000
0000
0000
,  // measure 31
0000
0000
0000
1000
,  // measure 32
1000
1000
0000
0000
,  // measure 33
0000
0000
0000
0001
,  // measure 34
0001
0001
0000
0000
,  // measure 35
0000
0000
0000
0010
,  // measure 36
0010
0010
0000
0000
,  // measure 37
0000
0000
0000
0100
,  // measure 38
0100
0100
0000
0000
,  // measure 39
0000
0010
0000
0000
,  // measure 40
0000
1000
0000
0000
,  // measure 41
0000
0001
0000
0000
,  // measure 42
0000
1000
0000
0000
,  // measure 43
0000
0001
0000
0000
,  // measure 44
0000
0100
0000
0000
,  // measure 45
0000
0100
0000
0000
,  // measure 46
0000
0010
0000
0000
,  // measure 47
0000
0010
0000
0000
,  // measure 48
0000
1000
0000
0000
,  // measure 49
0000
1000
0000
0000
,  // measure 50
0000
0001
0000
0000
,  // measure 51
0000
0001
0000
0000
,  // measure 52
0000
0100
0000
0000
,  // measure 53
0000
0100
0000
0000
,  // measure 54
0000
1001
0000
0000
;
