#TITLE:ska a go go;
#SUBTITLE:Get The Funk Out Mix;
#ARTIST:THE BALD HEAD;
#TITLETRANSLIT:;
#SUBTITLETRANSLIT:;
#ARTISTTRANSLIT:;
#CREDIT:;
#BANNER:ska a go go (CLUB ANOTHER VER.).png;
#BACKGROUND:ska a go go (CLUB ANOTHER VER.)-bg.png;
#LYRICSPATH:;
#CDTITLE:./CDTITLES/BEATMANIA CLASSICS.PNG;
#MUSIC:16_ska_a_go_go_(get_the_funk_out_mix.mp3;
#OFFSET:-0.074;
#SAMPLESTART:8.570;
#SAMPLELENGTH:12.000;
#SELECTABLE:YES;
#DISPLAYBPM:144.000:160.000;
#BPMS:0.000=169.280,24.000=338.560,56.000=339.000,119.000=341.000,119.003=169.280,120.000=170.220,216.000=340.440,312.000=170.220;
#STOPS:111.000=1.375
,119.000=1.218
;
#BGCHANGES:;

//---------------dance-single - ----------------
#NOTES:
     dance-single:
     :
     Hard:
     9:
     0.632,0.828,0.379,0.076,0.044:
0000
0000
0000
0000
,
0000
0000
0000
0000
,
0000
0000
0000
0000
,
0000
0000
0000
0000
,
1000
0100
0010
0001
,
1000
0000
0100
0000
0010
0000
0001
0000
0100
0001
0100
0001
0100
0001
0100
0001
,
0100
0010
1000
0001
,
0100
0010
1000
0001
,
0100
0010
1000
0001
,
0100
0010
1000
0001
,
0100
0010
1000
0001
,
0100
0010
1000
0001
,
0100
0010
1000
0001
,
0100
0010
1000
0001
,
1000
0100
0010
0001
,
1000
0100
0010
0001
,
1000
0100
0010
0001
,
1000
0100
0010
0001
,
1000
0100
0010
0001
,
1000
0100
0010
0001
,
1000
0100
0010
0001
,
0001
0010
0100
1000
,
0010
0100
0001
0000
,
0010
1000
0010
0000
,
1001
0000
0110
0000
,
0010
1000
0001
0100
,
0110
0110
0000
1010
,
1010
0000
0101
1001
,
0010
0100
0010
0000
0000
0000
0010
0001
,
0010
0000
0000
0000
1000
0100
1000
0000
,
1000
0100
0010
0100
0000
0010
0000
0010
,
0100
0000
0000
0000
1000
0100
0010
0100
,
0001
0100
0010
0000
1000
0100
0010
0100
,
0010
0000
1001
0000
0010
0100
0001
0000
,
0011
0000
0001
0000
0010
0100
1001
0000
,
0010
0100
0010
2000
0000
3100
0001
0100
,
0010
0000
0110
0000
0001
0000
0010
1000
,
0010
0100
1000
0100
,
0011
0000
0011
0000
0011
0000
0000
0001
,
0100
0001
0100
0002
0000
0103
0001
0100
,
0020
0000
0130
0000
1000
0000
1000
0100
,
0010
0100
0001
1000
0000
0010
0100
0000
,
0000
1100
0011
0000
,
0001
0100
0010
1000
0000
0100
1000
0000
,
0020
0000
0130
0000
0010
1000
0010
0000
,
0001
0100
0010
0000
0000
0000
0000
0000
,
1001
0110
1001
0110
,
0010
0000
0000
1000
0000
0000
1000
0000
0100
0000
0001
0000
0010
0000
0100
0000
,
0010
0011
1000
0100
,
0010
0000
0000
0100
0000
0000
1000
0000
0100
0000
1000
0000
0100
0000
1000
0000
,
0100
1000
0100
0010
,
0001
0000
0000
0001
0000
0000
1000
0000
0100
0000
0010
0000
0001
0000
0000
0000
,
1000
0100
0000
0000
0010
0100
0010
0000
,
1000
0000
0010
0000
1000
0100
0010
0001
,
0010
0000
0100
0000
,
1000
0000
1000
0100
,
0010
0000
0011
0000
,
0000
0000
0001
0100
,
0001
0000
0101
0000
,
0101
0000
0010
0001
,
1000
1000
0000
0000
,
0001
0001
0000
0000
,
0100
0000
1001
0000
,
0100
0000
0010
1000
,
0010
0000
0011
0000
,
0000
0000
0001
0100
,
0010
0000
0110
0000
,
0000
0000
1000
0100
,
0010
0010
0000
0000
,
1000
1000
0000
0000
,
1000
0100
1000
0100
1000
0100
1000
0100
,
1000
0100
1000
0100
1000
0100
1000
0100
,
1000
0100
1000
0100
1000
0100
1000
0100
,
1000
0100
1000
0100
1000
0100
1000
0100
,
1000
0100
1000
0100
1000
0100
1000
0100
,
1000
0100
1000
0100
1000
0000
0000
0000
,
0011
0000
2002
0000
,
3003
0000
0000
0000
;

//---------------dance-single - ----------------
#NOTES:
     dance-single:
     :
     Medium:
     8:
     0.551,0.839,0.316,0.063,0.000:
0000
0000
0000
0000
,
0000
0000
0000
0000
,
0000
0000
0000
0000
,
0000
0000
0000
0000
,
0001
1000
1000
0001
,
0100
0010
0100
0010
,
0001
1000
0001
1000
,
0001
1000
0001
1000
,
0010
0100
0010
0100
,
0010
0100
0010
0100
,
0001
1000
0001
1000
,
0001
1000
0001
1000
,
0010
0100
0010
0100
,
0010
0100
0010
0000
,
2200
0000
0000
0000
,
0000
0000
0000
0000
,
0000
0000
0000
0000
,
0000
0300
0000
0000
,
0010
0000
0100
0000
,
0010
0000
3100
0000
,
0001
0001
0100
0000
,
0010
0000
1000
0000
,
1001
0000
0010
0000
,
0100
0000
1000
0000
,
1100
0000
0010
0000
,
0100
0000
0010
0000
,
0100
0110
0000
1000
,
1100
0000
0010
0100
,
0010
0010
0000
0100
,
0100
0000
1000
0100
,
0010
0001
0010
0000
0100
0000
1100
0000
,
0010
0000
1000
0000
0010
0100
0001
1000
,
0010
1000
0100
0010
,
0001
0010
0100
1000
0100
0000
0010
0000
,
0100
0000
0001
0000
1000
0100
0010
0000
,
0001
0100
0010
0000
0000
0000
0000
0000
,
0010
0000
0100
0000
0001
0000
0010
0100
,
0000
1000
0000
0100
0000
1000
0100
0000
,
0010
0000
0100
0000
1000
0000
1000
0100
,
0010
0100
0001
0100
0000
0010
1000
0010
,
0100
0000
1100
0000
0010
0000
0100
0001
,
2000
3001
0000
0000
,
0010
0000
0100
0000
1000
0000
0000
1001
,
0000
0110
0000
0000
0000
0000
0000
0000
,
1000
0000
0100
0000
1000
0100
0010
0000
,
0001
0010
0100
0000
1000
0000
0010
0000
,
1100
0011
0110
1010
,
0001
0000
0100
0000
1000
0100
0001
0100
,
1000
0010
0100
0001
,
1010
0000
0101
0000
0001
0010
1000
0010
,
0001
0100
0001
0010
,
1001
0000
0110
0000
1000
0100
0010
0100
,
1000
0001
0100
0010
,
0001
0010
0100
1000
0100
0000
0010
0000
,
1000
0100
0010
0001
,
1000
0100
0010
0000
,
0010
0100
0001
1000
,
0010
0100
0001
0000
,
0001
1000
0001
0000
,
0010
0100
0010
0000
,
1100
0000
0011
0000
,
0010
0100
0001
0000
,
1010
0000
0101
0000
,
1100
0000
0011
0000
,
0010
0100
0010
0000
,
0001
1000
0010
0000
,
0100
0000
0100
0000
,
0010
0000
1000
0000
,
0001
0001
0000
0000
,
1000
1000
0000
0000
,
1000
0100
1000
0100
1000
0100
1000
0100
,
1000
0100
1000
0100
1000
0100
1000
0100
,
1000
0100
1000
0100
1000
0100
1000
0100
,
1000
0100
1000
0100
1000
0100
1000
0100
,
1000
0100
1000
0100
1000
0100
1000
0100
,
1000
0100
1000
0100
1000
0100
1000
0100
,
1000
0000
0011
0000
,
2002
0000
0000
0000
,
3003
0000
0000
0000
;

//---------------dance-single - ----------------
#NOTES:
     dance-single:
     :
     Easy:
     5:
     0.323,0.532,0.266,0.025,0.000: // measure 1
0000
0000
0000
0000
,  // measure 2
0000
0000
0000
0000
,  // measure 3
0000
0000
0000
0000
,  // measure 4
0000
0000
0000
0000
,  // measure 5
0000
0000
0000
0000
,  // measure 6
0000
0000
0000
0000
,  // measure 7
1000
0000
0001
0000
,  // measure 8
1000
0000
0001
1000
,  // measure 9
0001
0000
0001
0000
,  // measure 10
0001
0000
0001
0100
,  // measure 11
0010
0000
0010
0000
,  // measure 12
0010
0000
0010
1000
,  // measure 13
0100
0000
0100
0000
,  // measure 14
0100
0000
1000
0000
,  // measure 15
2200
0000
0000
0000
,  // measure 16
0000
0000
0000
0000
,  // measure 17
0000
0000
0000
0000
,  // measure 18
0000
0000
3300
0000
,  // measure 19
1000
0000
0001
0000
,  // measure 20
0100
0000
0010
0000
,  // measure 21
1010
0000
0000
0000
,  // measure 22
0000
0000
0010
1000
,  // measure 23
0010
0000
0000
0000
,  // measure 24
0000
0000
0000
0000
,  // measure 25
0010
0000
1000
0000
,  // measure 26
0001
0000
1000
0000
,  // measure 27
0001
1000
0000
0001
,  // measure 28
1000
0000
0001
1000
,  // measure 29
0000
0100
0000
1000
,  // measure 30
0100
0000
1000
0100
,  // measure 31
1000
0001
0100
0010
,  // measure 32
1000
0000
0010
1000
,  // measure 33
0100
1000
0100
0010
,  // measure 34
0011
0001
0101
0100
,  // measure 35
0010
1000
0001
1001
,  // measure 36
0001
0001
0000
0000
,  // measure 37
1000
0001
0100
0010
,  // measure 38
1000
1000
0000
0000
,  // measure 39
1000
0000
1000
0000
,  // measure 40
0001
0001
0001
0000
,  // measure 41
0100
0000
0010
0000
,  // measure 42
1000
1000
1000
0000
,  // measure 43
0010
0010
0010
0000
,  // measure 44
1000
0001
0000
0100
,  // measure 45
0001
0100
0010
0110
,  // measure 46
0010
0010
0000
0000
,  // measure 47
1000
1000
1000
1000
,  // measure 48
1000
1000
1000
1000
,  // measure 49
0100
0100
0100
0100
,  // measure 50
0001
0001
0010
0010
,  // measure 51
0001
0010
0100
1000
,  // measure 52
0010
0100
0001
1000
,  // measure 53
1000
0000
0001
0000
,  // measure 54
1000
0001
0100
0010
,  // measure 55
0110
0000
0000
0000
,  // measure 56
0000
0000
0010
0000
,  // measure 57
0010
0000
0010
0000
,  // measure 58
0000
0000
1000
0000
,  // measure 59
0100
0000
0000
0000
,  // measure 60
0000
0000
1000
0000
,  // measure 61
1100
0000
0000
0000
,  // measure 62
0011
0000
0001
0000
,  // measure 63
0001
0000
0000
0000
,  // measure 64
0000
0000
0100
0000
,  // measure 65
0010
0000
1000
0000
,  // measure 66
0000
0000
0010
0000
,  // measure 67
0010
0000
0010
0000
,  // measure 68
0000
0000
1000
0000
,  // measure 69
1000
0000
1000
0000
,  // measure 70
0000
0000
0000
0000
,  // measure 71
1001
0000
1001
0000
,  // measure 72
1001
0000
1001
0000
,  // measure 73
1001
0000
1001
0000
,  // measure 74
1001
0000
1001
0000
,  // measure 75
1001
0000
1001
0000
,  // measure 76
1001
0000
0001
0000
,  // measure 77
1000
0000
1001
0000
;

//---------------dance-single - ----------------
#NOTES:
     dance-single:
     :
     Beginner:
     2:
     0.121,0.242,0.038,0.000,0.000:
0000
0000
0000
0000
,
0000
0000
0000
0000
,
0000
0000
0000
0000
,
0000
0000
0000
0000
,
0000
0000
0000
0000
,
0000
0000
0000
0000
,
0010
0000
0000
0000
,
0000
0000
0000
0000
,
0010
0000
0000
0000
,
0000
0000
0000
0000
,
1000
0000
0000
0000
,
0000
0000
0000
0000
,
1000
0000
0000
0000
,
0000
0000
0010
0000
,
0110
0000
0000
0000
,
0000
0000
0000
0000
,
0000
0000
0000
0000
,
0000
0000
0000
0000
,
0010
0000
0000
0000
,
0010
0000
0000
0000
,
1000
0000
0000
0000
,
0000
0000
0000
0000
,
1001
0000
0000
0000
,
0000
0000
0000
0000
,
0001
0000
0001
0000
,
0001
0000
0001
0000
,
0001
0000
0000
0000
,
0001
0000
0000
0001
,
1000
0000
0000
1000
,
0000
0000
0000
1000
,
0010
0000
0000
0000
,
0000
0000
0000
0000
,
0010
0000
0000
0000
,
1000
0000
1000
0000
,
1000
0000
0000
0000
,
0000
0000
0000
0000
,
0001
0000
0000
0000
,
0000
0000
0000
0000
,
0010
0000
0000
0000
,
0000
0000
0000
1000
,
1000
0000
0000
0000
,
0000
0000
0000
0000
,
0001
0000
0000
0000
,
0000
0000
0000
0000
,
0010
0000
0000
0000
,
0000
0000
0000
0000
,
0010
0000
0000
0000
,
0000
0000
0000
0000
,
1000
0000
0000
0000
,
0000
0000
0000
0000
,
0001
0000
0000
0000
,
0000
0000
0000
0000
,
0100
0000
0100
0000
,
0100
0000
0000
0000
,
1001
0000
0000
0000
,
0000
0000
0001
0000
,
0001
0000
0001
0000
,
0000
0000
0000
0000
,
1000
0000
0000
0000
,
0000
0000
0010
0000
,
0010
0000
0010
0000
,
0000
0000
0000
0000
,
0100
0000
0000
0000
,
0000
0000
0010
0000
,
0010
0000
0010
0000
,
0000
0000
1000
0000
,
1000
0000
1000
0000
,
0000
0000
0000
0001
,
0000
0001
0000
0001
,
0000
0000
0000
0000
,
1000
0000
0000
0000
,
0001
0000
0000
0000
,
0100
0000
0000
0000
,
0010
0000
0000
0000
,
1000
0000
0000
0000
,
0001
0000
1000
0000
,
0001
0000
0100
0000
;
